#TITLE:La receta ("AIR" Special);
#SUBTITLE:;
#ARTIST:Carlos Coco Garcia;
#TITLETRANSLIT:;
#SUBTITLETRANSLIT:;
#ARTISTTRANSLIT:;
#GENRE:;
#CREDIT:;
#BANNER:La receta (AIR Special).png;
#BACKGROUND:La receta (AIR Special)-bg.png;
#LYRICSPATH:;
#CDTITLE:;
#MUSIC:La receta (AIR Special).ogg;
#OFFSET:0.000000;
#SAMPLESTART:40.619999;
#SAMPLELENGTH:15.000000;
#SELECTABLE:YES;
#DISPLAYBPM:130.000000;
#BPMS:0.000000=130.434998
,4.000000=129.988998
;
#STOPS:
;
#BGCHANGES:;
#KEYSOUNDS:;
#ATTACKS:;

//---------------dance-single - ----------------
#NOTES:
     dance-single:
     :
     Challenge:
     15:
     0.736405,0.832991,2.577416,0.018677,0.140077,552.000000,276.000000,276.000000,2.000000,0.000000,0.000000,0.736405,0.832991,2.577416,0.018677,0.140077,552.000000,276.000000,276.000000,2.000000,0.000000,0.000000:
// measure 0
0000
0000
0000
0000
,  // measure 1
0000
0000
0000
0000
,  // measure 2
0000
0000
0000
0000
,  // measure 3
1001
1001
1001
0000
0000
0000
0000
0000
,  // measure 4
1010
0011
0101
1100
,  // measure 5
0110
0000
1001
0000
0000
1001
0110
1001
,  // measure 6
0110
0000
0000
0110
0000
0000
0110
0000
0000
0000
1010
0000
0011
0000
0101
0000
,  // measure 7
1100
0000
0110
0000
0000
0110
1001
0110
,  // measure 8
1001
0000
0000
1001
0000
0000
1001
0000
0000
0000
0000
0000
0101
0000
1010
0000
,  // measure 9
0101
0000
0110
0000
0000
1001
1001
0110
,  // measure 10
0110
0000
0000
1001
0000
0000
0110
0000
0000
0000
0000
0000
1010
0000
0110
0000
,  // measure 11
0101
0000
1001
0000
0000
0101
0101
1010
,  // measure 12
1010
0000
0000
0101
0000
0000
1010
0000
1100
0000
0000
0000
0011
0000
0000
0000
,  // measure 13
1100
0011
0101
1010
0000
0110
0110
1001
,  // measure 14
0101
0000
0000
1010
0000
0000
1100
0000
0000
0000
0000
0000
0101
0000
0110
0000
,  // measure 15
1010
0000
1001
0000
1010
0101
0011
1100
,  // measure 16
1100
0000
0000
0101
0000
0000
0011
0000
0000
1100
0000
0000
1001
0000
0000
0000
,  // measure 17
1100
1100
0011
0011
0000
1001
1100
0110
,  // measure 18
0011
0000
0000
1001
0000
0000
0110
0000
0000
0000
0000
0000
1010
0000
0110
0000
,  // measure 19
0101
0000
0101
0000
0011
0110
1100
0011
,  // measure 20
1100
0000
0000
0110
0000
0000
0011
0000
1001
0000
0000
0000
1001
0000
0000
0000
,  // measure 21
0110
1010
1001
0101
,  // measure 22
1001
0000
1100
0000
0110
0000
0000
1001
,  // measure 23
0110
0000
0000
1100
0000
0000
0110
0000
0011
0000
0000
0000
0110
0000
1010
0000
,  // measure 24
1001
0000
0110
0000
0011
0101
1100
1010
,  // measure 25
0011
0000
0000
1100
0000
0000
0101
0000
0000
0000
1010
0000
1010
0000
0101
0000
,  // measure 26
0110
0000
1001
0000
0011
0000
0000
1001
,  // measure 27
0110
0000
0000
1100
0000
0000
1010
0000
0101
0000
0000
0000
0110
0000
0101
0000
,  // measure 28
0011
0000
0011
0000
1100
1010
0110
0101
,  // measure 29
0011
0000
0000
0101
0000
0000
1010
0000
0110
0000
0000
0000
0101
0000
0000
0000
,  // measure 30
1001
0000
0000
0110
0000
0011
1001
0110
,  // measure 31
1001
1100
1001
0101
0110
0000
1001
0000
,  // measure 32
0110
0000
0000
0110
0000
1100
1001
0101
,  // measure 33
0110
0000
0000
1010
0000
0000
1001
0000
0110
0000
0000
1001
0000
0000
0011
0000
,  // measure 34
1100
0000
0110
0000
0101
0000
0000
1001
,  // measure 35
0110
0000
0000
0011
0000
0000
0110
0000
1100
0000
0000
0000
1001
0000
0110
0000
,  // measure 36
1100
0000
0011
0000
1010
0101
1010
0110
,  // measure 37
0101
0000
0000
1010
0000
0000
1001
0000
0000
0000
1001
0000
1010
0000
0011
0000
,  // measure 38
0110
0000
1001
0000
0011
0000
0000
0110
,  // measure 39
0110
0000
0000
0011
0000
0000
0101
0000
0101
0000
0000
0000
1100
0000
0011
0000
,  // measure 40
0110
0000
1001
0000
1010
0011
1001
0101
,  // measure 41
1010
0000
0000
0011
0000
0000
0110
0000
0000
0000
0000
0000
1001
0000
0000
0000
,  // measure 42
0110
0000
1100
0000
0110
0000
0000
1001
,  // measure 43
0110
0000
0000
1100
0000
0000
0110
0000
0011
0000
0000
0000
0110
0000
1010
0000
,  // measure 44
1001
0000
0110
0000
0011
0101
1100
1010
,  // measure 45
0011
0000
0000
1100
0000
0000
0101
0000
0000
0000
1010
0000
1010
0000
0101
0000
,  // measure 46
0110
0000
1001
0000
0011
0000
0000
1001
,  // measure 47
0110
0000
0000
1100
0000
0000
1010
0000
0101
0000
0000
0000
0110
0000
0101
0000
,  // measure 48
0011
0000
0011
0000
1100
1010
0110
0101
,  // measure 49
0011
0000
0000
0101
0000
0000
1010
0000
0110
0000
0000
0000
0101
0000
0000
0000
,  // measure 50
1001
0220
0000
0000
,  // measure 51
0000
0000
0000
0000
0330
0000
1100
0011
,  // measure 52
0110
0000
0000
1001
0000
0000
0110
0000
0000
0000
0000
0000
0000
0000
1001
1001
,  // measure 53
1001
0000
0000
0110
0000
0000
1001
0000
0000
0000
0000
0000
1001
0000
0110
0000
,  // measure 54
1001
0000
0000
1100
0000
0000
1001
0000
0110
0000
0000
0011
0000
0000
0110
0000
,  // measure 55
1001
0000
0000
1100
0000
0000
0110
0000
0000
0011
0000
0000
0110
0000
0110
0000
0110
0000
1001
0000
0000
0000
0000
0000
;
