#VERSION:0.83;
#TITLE:LENDARIO SONHADOR;
#SUBTITLE:;
#ARTIST:DIGIMON TAMERS;
#TITLETRANSLIT:;
#SUBTITLETRANSLIT:;
#ARTISTTRANSLIT:;
#GENRE:;
#ORIGIN:;
#CREDIT:;
#BANNER:Lendário Sonhador.png;
#BACKGROUND:Lendário Sonhador-bg.png;
#PREVIEWVID:;
#JACKET:Lendário Sonhador-jacket.png;
#CDIMAGE:;
#DISCIMAGE:;
#LYRICSPATH:;
#CDTITLE:cdtitle.png;
#MUSIC:Lendário Sonhador.ogg;
#OFFSET:-0.400000;
#SAMPLESTART:55.474998;
#SAMPLELENGTH:15.000000;
#SELECTABLE:YES;
#DISPLAYBPM:134.000000;
#BPMS:0.000=67.000,
16.000=134.000;
#STOPS:;
#DELAYS:;
#WARPS:;
#TIMESIGNATURES:0.000=4=4;
#TICKCOUNTS:0.000=4;
#COMBOS:0.000=1;
#SPEEDS:0.000=1.000=0.000=0;
#SCROLLS:0.000=1.000;
#FAKES:;
#LABELS:0.000=Song Start;
#BGCHANGES:;
#KEYSOUNDS:;
#ATTACKS:
;

//---------------dance-single - ----------------
#NOTEDATA:;
#CHARTNAME:;
#STEPSTYPE:dance-single;
#DESCRIPTION:;
#CHARTSTYLE:;
#DIFFICULTY:Easy;
#METER:3;
#RADARVALUES:0.197349,0.320692,0.153494,0.164457,0.000000,126.000000,112.000000,14.000000,15.000000,0.000000,0.000000,0.000000,0.000000,0.000000,0.197349,0.320692,0.153494,0.164457,0.000000,126.000000,112.000000,14.000000,15.000000,0.000000,0.000000,0.000000,0.000000,0.000000;
#CREDIT:kater15;
#DISPLAYBPM:134.000000;
#NOTES:
0000
0000
0000
0000
,
0000
0000
0000
0000
,
0000
0000
0000
0000
,
0000
0000
0000
0000
,
1000
1000
1000
0000
,
0010
0000
0100
0000
,
0001
0001
0001
0000
,
0010
0000
0100
0000
,
2000
3000
0002
0003
,
0220
0000
0000
0330
,
1000
0000
0100
0001
,
0100
0000
0100
0000
,
0010
0000
0001
0010
,
0100
0000
0100
0100
,
0001
0000
1000
0100
,
0001
0020
0100
0130
,
1000
0000
0001
1000
,
0020
0100
0130
0000
,
1000
1001
0001
1001
,
1000
1001
0001
1001
,
1000
0100
0001
0010
,
0100
0000
0000
0000
,
0100
0110
0010
0110
,
0100
0110
0010
0110
,
0100
0000
0001
0001
,
0020
0000
0000
0030
,
0000
0000
0000
0000
,
1000
0001
1000
0010
,
0001
1000
0100
0000
,
0100
0000
1001
0000
,
0010
1000
0100
0000
,
1000
0001
1000
0010
,
0001
1000
0100
0000
,
2000
3000
2000
3000
,
0010
0110
0010
0000
,
1000
0001
1000
0010
,
0001
1000
0100
0000
,
2000
3000
2000
3000
,
0010
0110
0010
0000
,
1000
1000
1000
0000
,
0010
0000
0100
0000
,
0001
0001
0001
0000
,
0010
0000
0100
0000
,
2000
3000
0002
0003
,
0220
0000
0000
0330
,
0110
0000
0000
0000
;

//---------------dance-single - ----------------
#NOTEDATA:;
#CHARTNAME:;
#STEPSTYPE:dance-single;
#DESCRIPTION:;
#CHARTSTYLE:;
#DIFFICULTY:Beginner;
#METER:2;
#RADARVALUES:0.103373,0.172680,0.010964,0.054819,0.000000,66.000000,65.000000,1.000000,5.000000,0.000000,0.000000,0.000000,0.000000,0.000000,0.103373,0.172680,0.010964,0.054819,0.000000,66.000000,65.000000,1.000000,5.000000,0.000000,0.000000,0.000000,0.000000,0.000000;
#CREDIT:kater15;
#DISPLAYBPM:134.000000;
#NOTES:
0000
0000
0000
0000
,
0000
0000
0000
0000
,
0000
0000
0000
0000
,
0000
0000
0000
0000
,
1000
0000
1000
0000
,
0100
0000
0000
0000
,
0001
0000
0001
0000
,
0100
0000
0000
0000
,
0010
0000
0000
0000
,
0010
0000
0000
0000
,
1000
0000
0000
0000
,
1000
0000
0100
0000
,
0001
0000
0000
0000
,
1000
0000
0100
0000
,
0010
0000
0000
0000
,
0100
0000
0001
0000
,
0010
0000
0000
0000
,
0100
0000
0100
0000
,
1000
1000
1000
0000
,
0001
0001
0001
0000
,
1000
0000
0001
0000
,
0100
0000
0000
0000
,
0100
0100
0100
0000
,
0010
0010
0010
0000
,
0100
0000
0010
0000
,
2000
0000
0000
3000
,
0000
0000
0000
0000
,
0100
0000
0100
0000
,
0001
0000
0010
0000
,
1000
0000
0000
0000
,
0001
0000
0000
0000
,
0100
0000
0100
0000
,
0001
0000
0010
0000
,
2000
0000
3000
0000
,
0002
0000
0003
0000
,
0100
0000
0100
0000
,
0001
0000
0010
0000
,
2000
0000
3000
0000
,
0002
0000
0003
0000
,
1000
0000
1000
0000
,
0100
0000
0000
0000
,
0001
0000
0001
0000
,
0100
0000
0000
0000
,
0010
0000
0000
0000
,
0010
0000
0000
0000
,
1001
0000
0000
0000
;

//---------------dance-single - ----------------
#NOTEDATA:;
#CHARTNAME:;
#STEPSTYPE:dance-single;
#DESCRIPTION:;
#CHARTSTYLE:;
#DIFFICULTY:Medium;
#METER:5;
#RADARVALUES:0.280361,0.320692,0.131566,0.087711,0.049337,179.000000,167.000000,12.000000,8.000000,0.000000,0.000000,0.000000,0.000000,0.000000,0.280361,0.320692,0.131566,0.087711,0.049337,179.000000,167.000000,12.000000,8.000000,0.000000,0.000000,0.000000,0.000000,0.000000;
#CREDIT:kater15;
#DISPLAYBPM:134.000000;
#NOTES:
0000
0000
0000
0000
,
0000
0000
0000
0000
,
0000
0000
0000
0000
,
0000
0000
0000
0000
,
0100
0000
0100
0000
0001
1000
0000
0000
,
1000
0100
0001
1000
,
0010
0000
0010
0000
0001
1000
0000
0000
,
1000
0010
0001
1000
,
0001
0000
0000
0001
0000
0000
0000
0000
1000
0000
0000
1000
0000
0000
0000
0000
,
1001
0000
0020
0030
,
0110
0000
0000
0000
1000
0000
0100
0010
,
0100
0001
0010
0010
,
0001
0000
0101
0000
0010
1000
0001
0000
,
0010
1000
0000
0000
,
1000
0000
1100
0000
0010
0001
1000
0000
,
0100
0100
0010
0000
0002
0000
1003
0000
,
0100
0000
0110
0000
1000
0100
0100
0001
,
1000
0020
0130
0000
,
1000
0000
1001
0000
0001
0100
1000
0000
,
1000
0000
1001
0000
0001
0010
1000
0000
,
0020
0031
0200
0301
,
1000
0001
0001
0000
0000
0000
0000
0000
,
0100
0000
0110
0000
0010
1000
0100
0000
,
0100
0000
0110
0000
0010
0001
0100
0000
,
2000
0000
0010
0010
,
0002
0000
0000
3003
,
0001
0000
0000
0000
,
1000
0000
1000
0000
1000
0001
1000
0000
,
0001
0000
0001
0000
0001
1000
0001
0000
,
0010
0000
1000
0000
0100
0010
0001
0100
,
1000
0002
0103
0000
,
1000
0000
1000
0000
1000
0001
1000
0000
,
0001
0000
0001
0000
0001
1000
0001
0000
,
0100
0000
0000
0100
0000
0000
0000
0000
0100
0000
0000
0100
0000
0000
0000
0000
,
1000
1000
0010
0000
1010
0000
0000
0000
,
1000
0000
1000
0000
1000
0001
1000
0000
,
0001
0000
0001
0000
0001
1000
0001
0000
,
0100
0000
0000
0100
0000
0000
0000
0000
0100
0000
0000
0100
0000
0000
0000
0000
,
1000
1000
0010
0000
1010
0000
0000
0000
,
0100
0000
0100
0000
0001
1000
0000
0000
,
1000
0100
0001
1000
,
0010
0000
0010
0000
0001
1000
0000
0000
,
1000
0010
0001
1000
,
0001
0000
0000
0001
0000
0000
0000
0000
1000
0000
0000
1000
0000
0000
0000
0000
,
1001
0000
0000
0000
0000
0000
0000
0000
0000
0000
0010
0000
0000
0100
0000
0000
,
0010
0000
0000
0000
;

//---------------dance-single - ----------------
#NOTEDATA:;
#CHARTNAME:;
#STEPSTYPE:dance-single;
#DESCRIPTION:;
#CHARTSTYLE:;
#DIFFICULTY:Hard;
#METER:7;
#RADARVALUES:0.382168,0.394698,0.219277,0.065783,0.104156,244.000000,224.000000,20.000000,6.000000,0.000000,0.000000,0.000000,0.000000,0.000000,0.382168,0.394698,0.219277,0.065783,0.104156,244.000000,224.000000,20.000000,6.000000,0.000000,0.000000,0.000000,0.000000,0.000000;
#CREDIT:kater15;
#DISPLAYBPM:134.000000;
#NOTES:
0000
0000
0000
0000
,
0000
0000
0000
0000
,
0000
0000
0000
0000
,
0000
0000
0000
0000
,
1000
0000
0000
0000
1000
0000
0000
0010
1000
0000
0001
0000
0000
0000
0000
0000
,
1000
0100
0010
1000
0001
0000
0010
0001
,
1000
0000
0000
0000
1000
0000
0000
0100
1000
0000
0001
0000
0000
0000
0000
0000
,
1000
0010
0100
1000
0001
0000
0100
0001
,
1000
0000
0000
0100
0000
0000
0000
0000
0001
0000
0000
0100
0000
0000
0000
0000
,
0110
0000
0000
0000
0000
0000
0010
0100
0010
0100
0000
0000
,
1000
0000
0010
0010
0100
0000
0010
0001
,
1000
0200
0001
1300
,
0010
0000
1000
0100
0100
1000
0001
0010
,
0200
0301
0000
1100
,
0010
0001
0100
0000
1000
0001
0001
0010
,
0100
0000
1000
0010
0100
0000
0101
0000
,
0010
0001
0100
0000
0010
0001
1000
0000
,
2000
0010
0100
3001
,
1000
0100
1000
0100
0001
0010
0100
0000
,
0001
0100
0001
0100
1000
0010
0100
0000
,
2000
0000
3100
0000
0001
0001
0010
0000
,
1000
0100
0010
0000
1000
0100
0100
0000
,
0010
1000
0010
1000
0100
0001
1000
0000
,
0100
1000
0100
1000
0010
0001
1000
0000
,
0110
0000
1000
0100
0010
0000
0110
0000
,
2002
0000
0000
3003
,
1000
0001
1000
0001
0000
1000
0000
0001
1000
0000
0000
0000
0000
0000
0000
0000
,
1100
0000
0101
0000
0100
1000
0001
0000
,
0101
0000
1100
0000
0100
0001
1000
0000
,
0100
0001
0100
0001
0010
1000
0100
0010
,
0100
0100
0001
0010
0001
0000
0000
0000
,
1100
0000
0101
0000
0100
1000
0001
0000
,
0101
0000
1100
0000
0100
0001
1000
0000
,
0010
0000
0100
0010
0000
0000
0000
0000
0010
0000
0100
0010
0000
0000
0000
0000
,
1000
0100
0001
0010
0100
0000
0000
0000
,
1100
0000
0101
0000
0100
1000
0001
0000
,
0101
0000
1100
0000
0100
0001
1000
0000
,
0010
0000
0100
0010
0000
0000
0000
0000
0010
0000
0100
0010
0000
0000
0000
0000
,
1000
0100
0001
0010
0100
0000
0000
0000
,
1000
0000
0000
0000
1000
0000
0000
0010
1000
0000
0001
0000
0000
0000
0000
0000
,
1000
0100
0010
1000
0001
0000
0010
0001
,
1000
0000
0000
0000
1000
0000
0000
0100
1000
0000
0001
0000
0000
0000
0000
0000
,
1000
0010
0100
1000
0001
0000
0100
0001
,
1000
0000
0000
0100
0000
0000
0000
0000
0001
0000
0000
0100
0000
0000
0000
0000
,
0110
0000
0000
0000
0000
0000
0000
0000
0000
0000
0001
0000
0000
1000
0000
0000
,
1001
0000
0000
0000
;

//---------------dance-single - ----------------
#NOTEDATA:;
#CHARTNAME:;
#STEPSTYPE:dance-single;
#DESCRIPTION:;
#CHARTSTYLE:;
#DIFFICULTY:Challenge;
#METER:11;
#RADARVALUES:0.499637,0.518041,0.252168,0.032891,0.509818,319.000000,296.000000,23.000000,3.000000,0.000000,0.000000,0.000000,0.000000,0.000000,0.499637,0.518041,0.252168,0.032891,0.509818,319.000000,296.000000,23.000000,3.000000,0.000000,0.000000,0.000000,0.000000,0.000000;
#CREDIT:kater15;
#DISPLAYBPM:134.000000;
#NOTES:
// measure 0
0000
0000
0000
0000
,  // measure 1
0000
0000
0000
0000
,  // measure 2
0000
0000
0000
0000
,  // measure 3
0000
0000
0000
0000
,  // measure 4
0110
0000
0000
0000
1001
0000
0000
0100
1000
0000
0001
0000
0000
0000
1000
0000
,  // measure 5
0001
0010
1000
0100
0000
0001
0000
1000
0000
0000
0100
0000
0010
0000
0001
0000
,  // measure 6
1001
0000
0000
0000
0110
0000
0000
1000
0100
0000
0010
0000
0000
0000
0100
0000
,  // measure 7
0010
0001
0100
1000
0000
0010
0000
0100
0000
0000
1000
0000
0001
0000
0010
0000
,  // measure 8
0100
0000
0000
0101
0000
0000
0001
0000
1000
0000
0000
1100
0000
0000
0100
0000
,  // measure 9
0001
0000
0000
0000
0000
0000
1000
0100
0010
0001
0000
0000
,  // measure 10
0101
0000
0000
0001
1000
0000
0100
0000
0010
1000
0001
0000
0100
0000
0100
0000
,  // measure 11
0010
0001
0100
0010
0010
0000
0000
1000
,  // measure 12
1100
0000
0010
0001
0000
0001
0100
0000
1000
0000
0100
0000
0001
0000
1000
0010
,  // measure 13
1000
0000
0000
0001
0000
0000
0100
0000
0000
0000
0000
0000
1100
0000
0000
0000
,  // measure 14
1000
0000
0010
0001
1000
0000
0100
0001
0100
0000
0010
0000
0001
0000
1000
0000
,  // measure 15
0001
0000
0000
0100
0000
0000
0010
0000
0000
0000
0010
0000
0100
0000
0000
0000
,  // measure 16
1100
0000
0101
0000
0001
1000
0100
0000
0010
0000
0010
0000
0001
0000
1000
0000
,  // measure 17
0100
0000
0000
0010
0000
0000
1010
0000
0000
0000
0000
0000
0000
0000
0000
0000
,  // measure 18
1000
0000
1000
0000
0100
0000
0001
0000
0010
0000
0100
1000
0000
0001
0100
0000
,  // measure 19
0001
0000
0001
0000
0100
0000
1000
0000
0010
0000
0100
0001
0000
1000
0100
0000
,  // measure 20
0020
0001
0100
0130
,  // measure 21
0110
0000
0000
0000
,  // measure 22
0010
0000
0010
0000
1000
0000
0100
0000
0001
0000
1000
0010
0000
0100
1000
0000
,  // measure 23
0100
0000
0100
0000
1000
0000
0010
0000
0001
0000
1000
0100
0000
0010
1000
0000
,  // measure 24
0002
0000
0000
1000
1000
0000
1000
0000
,  // measure 25
2000
0000
0000
3003
,  // measure 26
1000
0010
0100
0001
0000
1000
0000
0010
0100
0000
0000
0000
0000
0000
0000
0000
,  // measure 27
0001
0000
1000
0000
0001
0100
0000
0010
0000
0010
0000
1000
0100
0000
0001
0000
,  // measure 28
0010
0000
0100
0000
0010
1000
0000
0001
0000
0001
0000
0100
1000
0000
0010
0000
,  // measure 29
0100
0000
1000
0000
0010
0100
0000
0001
0000
0100
0000
0010
1000
0000
0100
0000
,  // measure 30
0010
0000
0010
0000
0001
0100
0000
0110
0000
0000
0000
0000
0001
1000
0001
1000
,  // measure 31
0001
0000
1000
0000
0001
0100
0000
0010
0000
0010
0000
1000
0100
0000
0001
0000
,  // measure 32
0010
0000
0100
0000
0010
1000
0000
0001
0000
0001
0000
0100
1000
0000
0010
0000
,  // measure 33
1000
0000
0001
0100
0000
0000
0100
0000
1000
0000
0001
0100
0000
0000
0100
0000
,  // measure 34
0010
0001
1000
0000
0010
0000
0010
0100
0000
0000
0000
0000
0001
1000
0001
1000
,  // measure 35
0001
0000
1000
0000
0001
0100
0000
0010
0000
0010
0000
1000
0100
0000
0001
0000
,  // measure 36
0010
0000
0100
0000
0010
1000
0000
0001
0000
0001
0000
0100
1000
0000
0010
0000
,  // measure 37
1000
0000
0001
0100
0000
0000
0100
0000
1000
0000
0001
0100
0000
0000
0100
0000
,  // measure 38
0010
0001
1000
0000
0010
0000
0010
0100
0000
0100
0000
0000
0100
0000
0000
0000
,  // measure 39
0110
0000
0000
0000
1001
0000
0000
0100
1000
0000
0001
0000
0000
0000
1000
0000
,  // measure 40
0001
0010
1000
0100
0000
0001
0000
1000
0000
0000
0100
0000
0010
0000
0001
0000
,  // measure 41
1001
0000
0000
0000
0110
0000
0000
1000
0100
0000
0010
0000
0000
0000
0100
0000
,  // measure 42
0010
0001
0100
1000
0000
0010
0000
0100
0000
0000
1000
0000
0001
0000
0010
0000
,  // measure 43
0100
0000
0000
0101
0000
0000
0001
0000
1000
0000
0000
1100
0000
0000
0100
0000
,  // measure 44
0001
0000
0000
0000
0000
0000
0000
0000
0000
0000
0101
0000
0000
1001
0000
0000
,  // measure 45
1100
0000
0000
0000
;
