#TITLE:この子の七つのお祝いに ("GROOVE RADAR" Special);
#SUBTITLE:;
#ARTIST:あさき;
#TITLETRANSLIT:Konoko no nanatsu no oiwaini;
#SUBTITLETRANSLIT:;
#ARTISTTRANSLIT:Asaki;
#GENRE:;
#CREDIT:;
#BANNER:Konoko no nanatsu no oiwaini (GROOVE RADAR Special).png;
#BACKGROUND:Konoko no nanatsu no oiwaini (GROOVE RADAR Special)-bg.png;
#LYRICSPATH:;
#CDTITLE:;
#MUSIC:Konoko no nanatsu no oiwaini (GROOVE RADAR Special).ogg;
#OFFSET:0.000000;
#SAMPLESTART:66.252998;
#SAMPLELENGTH:15.000000;
#SELECTABLE:YES;
#DISPLAYBPM:161.000000;
#BPMS:0.000000=161.434998
,4.000000=161.003006
;
#STOPS:
;
#BGCHANGES:;
#KEYSOUNDS:;
#ATTACKS:;

//---------------dance-single - ----------------
#NOTES:
     dance-single:
     :
     Challenge:
     17:
     0.856432,0.989274,0.853528,0.812884,1.259971,590.000000,506.000000,84.000000,80.000000,0.000000,0.000000,0.856432,0.989274,0.853528,0.812884,1.259971,590.000000,506.000000,84.000000,80.000000,0.000000,0.000000:
// measure 0
0000
0000
0000
0000
,  // measure 1
0000
0000
0000
0000
,  // measure 2
0000
0000
0000
0000
,  // measure 3
0000
0000
0000
0000
,  // measure 4
0000
0000
0000
0000
,  // measure 5
1001
0000
0001
0100
0002
0000
1000
0000
0103
1000
0200
0000
0001
0000
0310
0000
,  // measure 6
1100
0000
0010
0100
0002
0000
0100
0000
0013
1000
0100
0000
1000
0001
0100
0000
,  // measure 7
0011
0000
1000
0100
0020
0000
0001
0000
0130
0001
1000
0000
0001
1000
0010
0000
,  // measure 8
0110
0000
0000
0101
0000
0000
1001
0000
0000
0000
1020
0000
0130
0000
0102
0000
,  // measure 9
0013
0000
0000
0100
0001
0000
2000
0000
0000
0000
3010
0000
1000
0000
0101
0000
,  // measure 10
2100
0000
0000
3001
0010
0000
0101
0000
0000
0000
1100
0000
0001
0010
0000
0220
,  // measure 11
0330
0000
0000
1100
0000
0010
1000
0000
0022
0033
0000
0100
0000
0001
0010
0000
,  // measure 12
0000
0100
1000
0100
1000
0010
0000
1100
0000
0000
2002
0000
0000
0000
3003
0000
,  // measure 13
0010
0000
0100
0000
0011
0000
0010
0100
0001
0000
1000
0000
0110
0000
1000
0001
,  // measure 14
0100
0000
1000
0000
0011
0000
0100
0001
1000
0000
0001
0000
1001
0000
0100
0010
,  // measure 15
1000
0000
0010
0000
0011
0000
0100
0010
1000
0000
0100
0000
0011
0000
0100
0000
,  // measure 16
0010
1000
0010
0200
0000
0301
0000
0100
1000
0000
0100
0000
0020
0000
1000
0000
,  // measure 17
1030
0000
0110
0000
0001
0000
1000
0100
1000
0000
0010
0000
0100
0000
0011
0000
,  // measure 18
2010
0000
0000
0000
3001
0000
0010
1000
0010
0000
0100
0000
0012
0000
0000
0000
,  // measure 19
0103
1000
0011
0001
1100
0100
1002
1000
,  // measure 20
1003
0100
0110
1000
1100
0001
1001
0010
,  // measure 21
2000
0000
0000
0000
3001
0010
0001
0000
0000
0000
1000
0001
1000
0000
0011
0000
,  // measure 22
2010
0000
0000
0000
3001
0010
0001
0000
0000
0000
0100
0010
0100
0000
1001
0000
,  // measure 23
0201
0000
0000
0000
1300
0001
1000
0000
0000
0000
0001
0010
0001
0000
1010
0000
,  // measure 24
0100
1000
0000
0100
0001
0000
0100
1000
0000
0100
0001
0000
0100
1000
0100
1000
,  // measure 25
0002
0000
0000
0000
1003
0001
0100
0000
0000
0000
0001
1000
0100
0000
0011
0000
,  // measure 26
0210
0000
0000
0000
0310
0001
1000
0000
0000
0000
0100
1000
0001
0000
0110
0000
,  // measure 27
2010
0000
0000
0000
3001
1000
0100
0000
0000
0000
0001
1000
0100
0000
1001
0000
,  // measure 28
0010
0100
0010
0000
0101
0000
1000
0002
0000
0003
0000
0000
1010
0000
0000
0000
,  // measure 29
0001
1000
0010
0000
0100
0000
0011
0000
1000
0100
1000
0000
0001
0000
0101
0000
,  // measure 30
0010
0100
1000
0000
0100
0000
1010
0000
0001
1000
0100
0000
0010
1000
0000
0002
,  // measure 31
0000
0003
1100
0000
0001
0020
0000
0031
0000
0000
0201
0000
0310
0000
2000
0000
,  // measure 32
3010
0000
0100
0000
0010
0100
0000
0100
0010
0001
0010
0000
0100
0001
0100
0000
,  // measure 33
1000
0001
1000
0000
0100
0010
0200
0000
0300
0000
0010
0000
0001
1000
0100
0000
,  // measure 34
0011
0000
0010
0000
1000
0001
0100
0000
0110
0000
0001
0000
0010
1000
0100
0000
,  // measure 35
0011
0000
0100
0000
0020
0001
0030
0000
0002
1000
0003
0000
2001
0000
0000
3100
,  // measure 36
0000
0002
0000
0000
2003
0000
0000
3100
0000
0101
0000
0000
1100
0000
0000
0110
,  // measure 37
0000
2002
0000
3003
0000
0010
0000
1001
0000
1100
0000
0001
0010
0100
0001
1000
,  // measure 38
0100
0010
2000
0000
3000
0100
0000
0001
0000
1000
0010
1000
0100
1000
0001
1000
,  // measure 39
0100
0010
0001
1000
0001
0100
0001
0010
0001
0100
0010
0100
1000
0100
0010
0100
,  // measure 40
0001
1000
0000
0011
0000
0220
0000
0330
0000
0100
1000
0100
0001
0100
0010
0100
,  // measure 41
0001
1000
0010
0100
0010
0001
0010
1000
0010
0001
1000
0001
0100
0001
1000
0001
,  // measure 42
0010
0100
0000
0100
0000
1000
0000
0110
0000
2002
0000
3003
0000
0010
0000
0001
,  // measure 43
0010
1000
0001
0100
1000
0010
0001
0100
0010
2000
0000
0000
0000
3010
0000
0001
,  // measure 44
0010
0100
0010
0001
0100
0020
0000
0000
0000
0130
0000
1100
0000
0011
0000
1000
,  // measure 45
0100
0000
0001
2000
0000
3010
0000
0100
0000
0001
0000
1100
0000
0101
0000
0010
,  // measure 46
0100
0000
0100
0020
0000
0031
0000
0100
0000
1000
0000
0011
0000
0110
0000
1000
,  // measure 47
0010
0000
0010
0200
0000
0301
0000
0010
0000
0001
0000
1000
0000
0010
0000
2002
,  // measure 48
0000
3003
0000
0200
0000
0001
0000
0301
0000
0100
0010
1000
0010
0100
0000
0022
,  // measure 49
0000
0033
0000
0200
0000
1000
0000
1300
0000
0100
0010
0001
1000
0010
0000
2200
,  // measure 50
0000
3300
0000
0002
0000
0100
0000
0103
0000
1000
0010
0001
0010
0100
0000
0001
,  // measure 51
1000
0000
0001
0100
0000
0011
0000
0001
0000
1000
0000
0110
0000
1000
0000
0100
,  // measure 52
0000
0002
0000
1000
0000
1003
0000
0200
0000
0010
0000
0310
0000
1000
0000
0001
,  // measure 53
0010
0000
0010
0001
0000
0200
0000
0010
0000
0310
0000
0001
0000
1100
0000
0010
,  // measure 54
1000
0000
1000
0010
0000
0200
0000
0001
0000
0301
0000
0100
0000
0011
0000
0100
,  // measure 55
0010
0000
1000
0100
0000
2000
0000
0001
0000
3010
0000
0000
0000
0201
0000
0000
,  // measure 56
0000
0301
0000
0000
0000
2100
0000
0000
0000
3010
0000
0000
0000
1002
0000
0000
,  // measure 57
0000
0103
0000
0000
0000
1020
0000
0000
0000
0130
0000
0000
0000
0021
0000
0000
,  // measure 58
0000
1030
0000
0002
0000
1000
0000
1003
0000
0020
0000
0100
0000
1030
0000
0020
,  // measure 59
0000
1000
0000
0031
0000
0200
0000
1000
0000
1300
0000
0200
0000
0010
0000
0310
,  // measure 60
0000
2000
0000
0000
0000
3020
0000
0000
0000
0230
0000
0000
0000
1300
0000
0020
,  // measure 61
0000
0000
0000
0130
0000
0000
0000
0000
0000
0002
0000
0000
0000
0000
0000
1003
0000
0000
0000
0000
0000
0200
0000
0000
0000
0000
0000
0310
0000
0000
0000
0000
0000
0000
0000
0000
0000
0000
0000
0011
0000
0000
0000
0001
0000
0000
0000
1000
,  // measure 62
0000
2020
0000
0000
0000
0000
0000
0000
0000
0000
0000
0000
0000
3030
0000
0000
;
