#TITLE:Kagerou;
#SUBTITLE:;
#ARTIST:Buck-Tick;
#TITLETRANSLIT:;
#SUBTITLETRANSLIT:;
#ARTISTTRANSLIT:;
#GENRE:;
#CREDIT:;
#BANNER:Kagerou.png;
#BACKGROUND:Kagerou-bg.png;
#LYRICSPATH:;
#CDTITLE:cdtitle.png;
#MUSIC:Kagerou.ogg;
#OFFSET:-0.686000;
#SAMPLESTART:56.070999;
#SAMPLELENGTH:15.000000;
#SELECTABLE:YES;
#DISPLAYBPM:130.000000;
#BPMS:0.000000=130.000000
;
#STOPS:
;
#BGCHANGES:;
#KEYSOUNDS:;
#ATTACKS:;

//---------------dance-single - ----------------
#NOTES:
     dance-single:
     :
     Beginner:
     1:
     0.110531,0.183758,0.044213,0.077372,0.000000,70.000000,66.000000,4.000000,7.000000,0.000000,0.000000,0.110531,0.183758,0.044213,0.077372,0.000000,70.000000,66.000000,4.000000,7.000000,0.000000,0.000000:
0000
0000
0000
0000
,
0000
0000
0000
0000
,
0000
0000
0000
0000
,
0000
0000
0000
0000
,
1000
0000
0000
0000
,
0001
0000
0000
0000
,
1000
0000
0100
0000
,
0010
0000
0001
0000
,
0100
0000
0000
0000
,
0010
0000
0000
0000
,
0100
0000
1000
0000
,
0001
0000
0010
0000
,
0200
0000
0000
0000
,
0000
0000
0300
0000
,
0001
0000
0001
0000
,
0100
0000
0000
0000
,
0010
0000
1000
0000
,
0010
0000
0000
0000
,
0100
0000
0010
0000
,
1000
0000
0000
0000
,
0100
0000
0010
0000
,
0010
0000
0000
0000
,
1000
0000
0000
0000
,
0001
0000
0100
0100
,
0000
0000
1000
0000
,
0010
0000
0100
0100
,
0000
0000
0001
0000
,
1000
0000
0001
0000
,
1000
0000
0010
0000
,
0100
0000
0010
0000
,
1000
0000
0000
0000
,
0001
0000
0000
0000
,
1000
0000
0100
0000
,
0010
0000
0001
0000
,
0100
0000
0000
0000
,
0010
0000
0000
0000
,
0100
0000
1000
0000
,
0001
0000
0010
0000
,
2000
0000
3000
0000
,
0002
0000
0003
0000
,
1000
0000
1001
0000
,
0001
0000
1001
0000
,
0200
0000
0300
0000
,
0020
0000
0030
0000
,
0100
0000
0110
0000
,
0010
0000
0110
0000
,
2000
0000
3000
0000
,
0002
0000
0003
0000
;

//---------------dance-single - ----------------
#NOTES:
     dance-single:
     :
     Easy:
     3:
     0.170534,0.210010,0.044213,0.088425,0.000000,108.000000,104.000000,4.000000,8.000000,0.000000,0.000000,0.170534,0.210010,0.044213,0.088425,0.000000,108.000000,104.000000,4.000000,8.000000,0.000000,0.000000:
0000
0000
0000
0000
,
0000
0000
0000
0000
,
0000
0000
0000
0000
,
0000
0000
0000
0000
,
0100
0000
1000
0000
,
0100
0000
0001
0000
,
0010
0010
0100
0100
,
0001
0001
1000
0000
,
0010
0000
0001
0000
,
0010
0000
1000
0000
,
0100
0100
0010
0000
,
0001
0000
0100
0000
,
1000
0000
0000
0001
0000
0000
1000
0000
,
0000
0001
0000
1000
0000
0000
0000
0000
,
1000
0000
0001
0000
,
0100
0000
0010
0010
,
0001
0000
0100
0000
,
0010
0000
0100
0100
,
1001
0000
0100
0000
,
1000
0000
0010
0001
,
1000
0000
0100
0000
,
0010
0000
1000
0010
,
0220
0000
0000
0000
,
0330
0000
0100
0100
,
2002
0000
0000
0000
,
3003
0000
1000
0100
,
0020
0000
0030
0000
,
0200
0000
0300
0000
,
0001
0000
1000
0000
,
0001
0000
1000
0010
,
0100
0000
1000
0000
,
0100
0000
0001
0000
,
0010
0010
0100
0100
,
0001
0001
1000
0000
,
0010
0000
0001
0000
,
0010
0000
1000
0000
,
0100
0100
0010
0000
,
0001
0000
0100
0000
,
1000
1000
1000
0000
,
0001
0001
0001
0000
,
0100
0001
0100
1000
,
0100
0001
0010
0000
,
0100
0100
0100
0000
,
0010
0010
0010
0000
,
1000
0100
0010
0000
,
0110
0000
1000
0000
,
0200
0000
0300
0000
,
0020
0000
0030
0000
;

//---------------dance-single - ----------------
#NOTES:
     dance-single:
     :
     Medium:
     4:
     0.247906,0.288763,0.132638,0.110531,0.022106,157.000000,145.000000,12.000000,10.000000,0.000000,0.000000,0.247906,0.288763,0.132638,0.110531,0.022106,157.000000,145.000000,12.000000,10.000000,0.000000,0.000000:
0000
0000
0000
0000
,
0000
0000
0000
0000
,
0000
0000
0000
0000
,
0000
0000
0000
0000
,
1000
0100
0001
0000
,
1000
0010
0001
0000
,
0100
1001
0010
1001
,
1000
0000
0010
0001
0010
0000
0000
0000
,
0100
1000
0010
0000
,
2001
0010
3100
0000
,
0100
0000
0001
1000
0100
0000
0010
0001
,
0001
0000
1000
0000
,
0100
0000
0000
0001
0000
0000
1000
0000
,
0000
0010
0010
0020
0000
0000
0000
0000
,
0130
0000
1000
1000
1000
0000
0010
0000
,
0100
0000
0000
0000
0011
0000
0100
1000
,
0010
0100
0100
0000
,
0001
0000
0000
0000
0100
0000
1000
0001
,
0010
0100
1000
0000
,
0100
0000
0000
0000
0001
0000
0010
0100
,
0001
1100
0010
0000
,
0001
0000
0000
0000
1000
0100
0010
0000
,
0200
0000
1000
0000
,
1300
0000
0000
0000
1000
0001
1000
0000
,
0020
0000
0001
0000
,
0031
0000
0000
0000
0001
1000
0001
0000
,
0100
1000
1010
0000
,
0100
0001
0011
0000
,
0100
0000
1000
0000
0010
0000
0100
1000
,
0002
0000
0000
0003
,
1000
0100
0001
0000
,
1000
0010
0001
0000
,
0100
1001
0010
1001
,
1000
0000
0010
0001
0010
0000
0000
0000
,
0100
1000
0010
0000
,
2001
0010
3100
0000
,
0100
0000
0001
1000
0100
0000
0010
0001
,
0001
0000
0100
0000
,
1000
0000
0000
1000
0000
0000
1000
0000
0000
0000
0000
0000
0000
0000
0000
0000
,
0001
0000
0000
0001
0000
0000
0001
0000
0000
0000
0000
0000
0000
0000
0000
0000
,
0100
0000
1000
0100
1000
0000
0010
0000
,
0100
0000
0001
0100
0001
0000
0000
0000
,
0100
0000
0000
0100
0000
0000
0100
0000
0000
0000
0000
0000
0000
0000
0000
0000
,
0010
0000
0000
0010
0000
0000
0010
0000
0000
0000
0000
0000
0000
0000
0000
0000
,
1000
0000
0100
0000
0100
0000
1000
0010
,
0001
0000
0000
0000
,
2002
0000
3003
0000
,
0220
0000
0330
0000
;

//---------------dance-single - ----------------
#NOTES:
     dance-single:
     :
     Hard:
     6:
     0.337910,0.367517,0.121585,0.121585,0.143691,214.000000,203.000000,11.000000,11.000000,0.000000,0.000000,0.337910,0.367517,0.121585,0.121585,0.143691,214.000000,203.000000,11.000000,11.000000,0.000000,0.000000:
// measure 0
0000
0000
0000
0000
,  // measure 1
0000
0000
0000
0000
,  // measure 2
0000
0000
0000
0000
,  // measure 3
0000
0000
0000
0000
,  // measure 4
1000
0000
0000
1000
0000
0000
1000
0000
0001
0000
0000
0000
0000
0000
0000
0000
,  // measure 5
0001
0000
0000
0001
0000
0000
0001
0000
1000
0000
0000
0000
0000
0000
0000
0000
,  // measure 6
0100
0000
0000
0100
0000
0000
0100
0000
0001
0000
0000
0001
0000
0000
0001
0000
,  // measure 7
0010
0000
0000
0010
0000
0000
0010
0000
0100
0000
0000
0000
0000
0000
0000
0000
,  // measure 8
1000
0000
0000
0100
0000
0000
0010
0000
0100
0000
0000
0000
0000
0000
0000
0000
,  // measure 9
0001
0000
0000
1100
0000
0000
0010
0000
0100
0000
0000
0000
0000
0000
0000
0000
,  // measure 10
1000
0000
0000
0001
0000
0000
1000
0000
0100
0000
0000
0000
0100
0000
0001
0000
,  // measure 11
1000
0000
0010
0000
0100
0001
0010
0000
,  // measure 12
2000
0000
0000
3200
0000
0000
0320
0000
,  // measure 13
0000
0031
1000
0100
0100
0100
0100
0100
,  // measure 14
0001
0000
1000
0100
1000
0000
0010
0000
,  // measure 15
0001
0100
1000
0000
0001
0000
1010
0000
,  // measure 16
0010
0000
1000
0100
0010
0000
0100
0000
,  // measure 17
0001
0001
1000
0000
0010
0000
0110
0000
,  // measure 18
1000
0000
0100
0001
1000
0000
0010
0000
,  // measure 19
0100
1000
1000
0000
0010
0000
1001
0000
,  // measure 20
1000
0000
0010
1000
0010
0000
0100
0000
,  // measure 21
0011
0000
0001
0000
1000
0100
0010
0100
,  // measure 22
2000
0000
0002
3000
,  // measure 23
0200
0000
0003
0000
0010
0010
0310
0000
,  // measure 24
1000
0100
0011
0100
,  // measure 25
1000
0100
0010
0000
0100
0001
0010
0100
,  // measure 26
2000
0000
0000
0000
3001
0000
0000
0000
0100
0000
0000
0100
0000
0000
0100
0000
,  // measure 27
0020
0000
0000
0000
0130
0000
0000
0000
1000
0000
0000
1000
0000
0000
1000
0000
,  // measure 28
0001
0000
0010
0000
0100
0000
1000
0010
,  // measure 29
0002
0000
0000
0003
,  // measure 30
1000
0000
0000
1000
0000
0000
1000
0000
0001
0000
0000
0000
0000
0000
0000
0000
,  // measure 31
0001
0000
0000
0001
0000
0000
0001
0000
1000
0000
0000
0000
0000
0000
0000
0000
,  // measure 32
0100
0000
0000
0100
0000
0000
0100
0000
0001
0000
0000
0001
0000
0000
0001
0000
,  // measure 33
0010
0000
0000
0010
0000
0000
0010
0000
0100
0000
0000
0000
0000
0000
0000
0000
,  // measure 34
1000
0000
0000
0100
0000
0000
0010
0000
0100
0000
0000
0000
0000
0000
0000
0000
,  // measure 35
0001
0000
0000
1100
0000
0000
0010
0000
0100
0000
0000
0000
0000
0000
0000
0000
,  // measure 36
1000
0000
0000
0001
0000
0000
1000
0000
0100
0000
0000
0000
0100
0000
0001
0000
,  // measure 37
1000
0000
0010
0000
0100
0001
0010
0000
,  // measure 38
1000
0000
0000
0100
0000
0000
1000
0000
0001
0000
0000
0000
1001
0000
0000
0000
,  // measure 39
0100
0000
0000
1000
0000
0000
0100
0000
0010
0000
0000
0000
0110
0000
0000
0000
,  // measure 40
1000
0000
0000
1000
0000
0000
1000
0000
0100
0000
0000
0100
0000
0000
0100
0000
,  // measure 41
0010
0000
0000
0010
0000
0000
0010
0000
0001
0000
0000
0000
0000
0000
0000
0000
,  // measure 42
0100
0000
0000
0010
0000
0000
0100
0000
1000
0000
0000
0000
1100
0000
0000
0000
,  // measure 43
0001
0000
0000
1000
0000
0000
0001
0000
0010
0000
0000
0000
0011
0000
0000
0000
,  // measure 44
0100
0000
0000
0100
0000
0000
0100
0000
0010
0000
0000
0000
1000
0000
0100
0000
,  // measure 45
0010
0000
0001
0100
0001
0010
0001
0100
,  // measure 46
2000
0000
3000
0000
,  // measure 47
0002
0000
0003
0000
;
