#TITLE:Jesus, Filho de Deus;
#SUBTITLE:;
#ARTIST:Aline Barros;
#TITLETRANSLIT:;
#SUBTITLETRANSLIT:;
#ARTISTTRANSLIT:;
#GENRE:;
#CREDIT:;
#BANNER:Jesus, Filho de Deus.png;
#BACKGROUND:Jesus, Filho de Deus-bg.png;
#LYRICSPATH:;
#CDTITLE:cdtitle.png;
#MUSIC:Jesus, Filho de Deus.ogg;
#OFFSET:0.439000;
#SAMPLESTART:66.680000;
#SAMPLELENGTH:16.271000;
#SELECTABLE:YES;
#DISPLAYBPM:118.000000;
#BPMS:0.000000=118.000000
;
#STOPS:
;
#BGCHANGES:;
#KEYSOUNDS:;
#ATTACKS:;

//---------------dance-single - ----------------
#NOTES:
     dance-single:
     :
     Easy:
     4:
     0.158794,0.242861,0.084067,0.149453,0.000000,119.000000,110.000000,9.000000,16.000000,0.000000,0.000000,0.158794,0.242861,0.084067,0.149453,0.000000,119.000000,110.000000,9.000000,16.000000,0.000000,0.000000:
0000
0000
0000
0000
,
0000
0000
0000
0000
,
0000
0000
0000
0000
,
0000
0000
0000
0000
,
0000
0000
0000
0000
,
0010
0010
0001
0000
,
0010
1000
0100
0000
,
0001
0000
1000
0000
,
0100
0000
0010
0000
,
0001
0000
0000
0000
,
1000
0000
0000
0000
,
0010
0000
0000
0000
,
0100
0000
0000
0000
,
0001
0000
0000
0000
,
0010
0000
0000
0000
,
1000
0000
0000
0000
,
0100
0000
0000
0000
,
0010
0001
0010
0000
,
0100
0001
0010
0100
,
1000
0000
0010
0000
,
0100
0001
0010
0001
,
0100
0000
0010
0000
,
1000
0000
0100
0000
,
0001
0000
1000
0000
,
0020
0000
0000
0000
,
0030
0100
0001
1001
,
0000
0010
1000
0100
,
0010
0000
0001
0010
,
0100
1000
0010
0200
,
0300
0010
0001
1001
,
0000
0100
1000
0010
,
0000
0100
0000
0001
,
0000
0010
0000
1000
,
1001
0000
1000
0000
,
0001
0000
0000
0000
,
0010
0001
0010
1000
,
0100
0010
0100
0001
,
0110
0000
1000
0000
,
0110
0000
0001
0000
,
0200
0300
0200
0300
,
0010
0010
2002
0000
,
3003
0000
0001
0000
,
0100
1000
0001
0010
,
0100
0000
0100
0000
,
0100
0001
0010
0100
,
1000
0000
0110
0000
,
0001
0010
0001
0100
,
2000
3000
2000
3000
,
0001
0001
0220
0330
,
0002
0003
0020
0030
,
0200
0300
2000
3000
,
0020
0030
0002
0003
,
0110
0000
0000
0000
;

//---------------dance-single - ----------------
#NOTES:
     dance-single:
     :
     Beginner:
     2:
     0.096077,0.145717,0.037363,0.065386,0.000000,72.000000,68.000000,4.000000,7.000000,0.000000,0.000000,0.096077,0.145717,0.037363,0.065386,0.000000,72.000000,68.000000,4.000000,7.000000,0.000000,0.000000:
0000
0000
0000
0000
,
0000
0000
0000
0000
,
0000
0000
0000
0000
,
0000
0000
0000
0000
,
0000
0000
0000
0000
,
0100
0000
0000
0000
,
0001
0000
0000
0000
,
1000
0000
1000
0000
,
1000
0000
1000
0000
,
0020
0000
0000
0000
,
0030
0000
0000
0000
,
0020
0000
0000
0000
,
0030
0000
0000
0000
,
0002
0000
0000
0000
,
0003
0000
0000
0000
,
0002
0000
0000
0000
,
0003
0000
0000
0000
,
1000
0000
1000
0000
,
0010
0000
0100
0100
,
0100
0000
0001
0000
,
1000
0000
0010
0010
,
0010
0000
0100
0000
,
0010
0000
0001
0000
,
0100
0000
0000
0000
,
0020
0000
0000
0000
,
0030
0000
0001
0001
,
0000
0010
0000
0100
,
0000
0010
0000
0010
,
0000
0000
0001
0001
,
0000
0000
1000
1000
,
0000
0100
0000
0100
,
0000
0001
0000
1000
,
1000
0000
0000
0000
,
1000
0000
0000
0000
,
0110
0000
0000
0000
,
0010
0000
0001
0000
,
0010
0000
1000
0000
,
0100
0000
0000
0000
,
1001
0000
0000
0000
,
1000
0000
1000
0000
,
1000
1000
1000
0000
,
0000
0000
0000
0000
,
0110
0000
0000
0000
,
0100
0000
1000
0000
,
0100
0000
0001
0000
,
0010
0000
0000
0000
,
1001
0000
0000
0000
,
0001
0000
0001
0000
,
0001
0001
0001
0000
,
2000
0000
0000
0000
,
3000
0000
0000
0000
,
0002
0000
0000
0000
,
0003
0000
0000
0000
;

//---------------dance-single - ----------------
#NOTES:
     dance-single:
     :
     Medium:
     7:
     0.250868,0.340006,0.112090,0.224180,0.000000,188.000000,176.000000,12.000000,24.000000,0.000000,0.000000,0.250868,0.340006,0.112090,0.224180,0.000000,188.000000,176.000000,12.000000,24.000000,0.000000,0.000000:
0000
0000
0000
0000
,
0000
0000
0000
0000
,
0000
0000
0000
0000
,
0000
0000
0000
0000
,
0000
0000
0000
0000
,
0010
1001
0100
0000
,
1000
0000
0110
0000
0001
0000
0100
0100
,
0000
0000
1000
1000
0000
0000
0001
0001
,
0000
0000
0010
0010
0000
0000
0200
0000
,
0300
1000
0000
1000
,
0000
0001
0000
1000
,
1010
0001
0000
0100
,
0000
0010
0000
0001
,
1100
1000
0000
0010
,
0000
0100
0000
0001
,
0000
0010
0000
1000
,
0010
0000
0100
0000
0010
0001
0200
0000
,
0300
1000
0100
0010
,
1000
0000
0001
0000
0010
0000
0100
1000
,
0001
0020
0130
1000
,
0010
0000
0200
0000
1300
0000
0010
0100
,
0001
0020
0000
1000
,
1030
0200
0000
0001
,
0301
0000
0010
0001
0010
0000
0100
1000
,
0100
0000
0010
1000
0010
0000
0202
0000
,
0303
0000
1000
0000
1000
0010
0000
0100
,
0000
0001
0000
1100
0000
0101
0000
0100
,
0010
0000
0010
0000
1000
0100
0000
0010
,
0000
1000
0000
0100
0000
0010
0000
0001
,
0100
0000
1100
0000
0001
0010
0000
0010
,
0000
1001
0000
1100
0000
0010
0000
0100
,
0001
0000
1001
0000
0100
1000
0000
1000
,
0000
0010
0000
0011
0000
0100
0100
0100
,
2000
0010
3001
0000
,
0020
0001
1000
0130
,
1000
0000
1000
0000
0010
0001
0100
0000
,
0010
0000
0010
0000
1000
0100
0001
0000
,
0020
1000
0130
0000
,
2000
0010
0100
3001
,
0000
1000
1000
0000
0000
1000
1000
0000
,
0010
0000
0001
0100
2000
0000
3000
0000
,
0020
0001
0130
0000
,
0002
0100
0010
1003
,
0010
0000
0010
0000
0001
0100
1000
0000
,
0001
0000
0001
0000
0010
1000
0100
0000
,
0002
0010
1003
0000
,
0020
0001
1000
0130
,
0000
0010
0010
0000
0000
0100
0100
0000
,
0001
0000
0010
1000
0200
0000
0000
0000
,
0020
0000
0300
0000
0002
0030
0000
0200
,
0003
0000
0000
2000
0000
0300
0000
0000
,
0020
3000
0200
0000
,
0330
0000
0000
0000
;

//---------------dance-single - ----------------
#NOTES:
     dance-single:
     :
     Hard:
     9:
     0.366961,0.485723,0.168135,0.280225,0.060715,275.000000,257.000000,18.000000,30.000000,0.000000,0.000000,0.366961,0.485723,0.168135,0.280225,0.060715,275.000000,257.000000,18.000000,30.000000,0.000000,0.000000:
// measure 0
0000
0000
0000
0000
,  // measure 1
0000
0000
0000
0000
,  // measure 2
0000
0000
0000
0000
,  // measure 3
0000
0000
0000
0000
,  // measure 4
0000
0000
0000
0000
,  // measure 5
0010
0001
0100
0010
0010
0000
1100
0010
,  // measure 6
0001
0010
1000
0100
0010
0000
0001
0100
,  // measure 7
1000
0000
0001
0100
1000
0000
0001
0010
,  // measure 8
1000
0000
0001
0010
1000
0000
0110
0000
,  // measure 9
0002
0000
2000
0003
,  // measure 10
0020
3000
0200
0030
,  // measure 11
2000
0300
0020
3000
,  // measure 12
0200
0030
0002
0300
,  // measure 13
0020
0003
0200
0030
,  // measure 14
0002
0300
2000
0003
,  // measure 15
0020
3000
0200
0030
,  // measure 16
0000
0000
0000
0000
0300
0000
0000
0001
0010
0000
0001
0000
0200
0000
0000
0000
,  // measure 17
0300
0000
1000
0100
0010
0000
0100
0000
,  // measure 18
0011
0000
1000
0000
0010
0001
0001
0100
,  // measure 19
0010
0000
1100
0000
0010
0001
0100
0000
,  // measure 20
0010
0000
1000
0100
1000
0010
0100
0100
,  // measure 21
0001
0000
1100
0000
0020
0001
0031
0000
,  // measure 22
1000
0100
0010
1000
0100
0001
0000
0000
,  // measure 23
0120
0000
0100
0130
0000
0000
0000
0000
,  // measure 24
0100
0001
0010
0001
0100
0100
1002
0000
,  // measure 25
1003
0000
0100
1000
0100
0010
0010
1000
,  // measure 26
0100
0000
0010
0000
0001
0000
0100
0000
0010
0000
1000
0100
1000
0000
0000
0000
,  // measure 27
0011
0000
1000
0100
1000
0010
0010
0001
,  // measure 28
0100
0000
0010
0000
1000
0000
0100
0000
1000
0000
0010
0001
0010
0000
0000
0000
,  // measure 29
1010
0000
0100
0100
0001
0010
0001
1000
,  // measure 30
1000
0000
0100
0000
0010
0000
0001
0000
1000
0000
0100
0001
0100
0000
0000
0000
,  // measure 31
1001
0000
0000
0000
0010
0000
0001
0000
0010
0000
0000
0100
1000
0000
0010
0000
,  // measure 32
1000
0000
0000
0100
0001
0000
0010
0000
0100
0000
0010
1000
0010
1000
0010
1000
,  // measure 33
0010
0000
0101
0000
0010
1000
0100
0010
,  // measure 34
0100
0100
0001
1000
0100
0010
0100
0010
,  // measure 35
0002
1003
0020
0130
,  // measure 36
0001
0000
0000
1000
0010
0000
0100
0000
0001
0000
0001
0000
0010
0000
0100
0000
,  // measure 37
0010
0000
1100
0000
0010
0001
0010
0001
,  // measure 38
0100
0100
0001
0010
1000
0100
0010
0000
,  // measure 39
1001
0001
0001
0000
1001
1000
1000
0000
,  // measure 40
0010
0000
1000
0100
1000
0000
0010
0000
0002
0000
0000
0000
0003
0000
0000
0000
,  // measure 41
1000
0000
0011
0000
1000
0100
0001
1000
,  // measure 42
0001
0001
0010
0100
0001
1000
0001
1000
,  // measure 43
0020
0130
2000
3001
,  // measure 44
0010
0000
0000
0100
1000
0000
0001
0000
0010
0000
0010
0000
1000
0000
0001
0000
,  // measure 45
1000
0000
0101
0000
1000
0010
1000
0010
,  // measure 46
0001
0001
0010
1000
0100
0001
1000
0000
,  // measure 47
0110
0010
0010
0000
0110
0100
0100
0000
,  // measure 48
1000
0000
0100
0001
0100
0000
1000
0000
0020
0000
0000
0000
0000
0000
0000
0000
,  // measure 49
0002
0000
0030
0000
0200
0003
0000
2000
,  // measure 50
0300
0000
0000
0020
0000
3000
0000
0000
,  // measure 51
0002
0030
2000
0000
,  // measure 52
3003
0000
0000
0000
;
