#TITLE:JINGO JUNGLE;
#SUBTITLE:;
#ARTIST:MYTH & ROID;
#TITLETRANSLIT:;
#SUBTITLETRANSLIT:;
#ARTISTTRANSLIT:;
#GENRE:;
#CREDIT:;
#BANNER:Jingo Jungle.png;
#BACKGROUND:Jingo Jungle-bg.png;
#LYRICSPATH:;
#CDTITLE:cdtitle.png;
#MUSIC:Jingo Jungle.ogg;
#OFFSET:0.000000;
#SAMPLESTART:49.999001;
#SAMPLELENGTH:15.000000;
#SELECTABLE:YES;
#DISPLAYBPM:65.000000:130.000000;
#BPMS:0.000000=23.797001
,4.000000=130.029999
,56.000000=65.014999
,72.000000=520.119995
,75.000000=65.014999
,76.000000=130.029999
;
#STOPS:72.000000=0.231000,
73.000000=0.231000,
74.000000=0.115000
;
#BGCHANGES:0.000=Jingo Jungle.avi=1.000=0=0=0=StretchNoLoop====,
99999=-nosongbg-=1.000=0=0=0 // don't automatically add -songbackground-
;
#KEYSOUNDS:;
#ATTACKS:;

//---------------dance-single - ----------------
#NOTES:
     dance-single:
     :
     Easy:
     7:
     0.244989,0.347439,0.178174,0.178174,0.000000,154.000000,138.000000,16.000000,16.000000,0.000000,0.000000,0.244989,0.347439,0.178174,0.178174,0.000000,154.000000,138.000000,16.000000,16.000000,0.000000,0.000000:
0000
0000
0000
0000
,
0000
0000
0000
0000
,
0000
0000
0000
0000
,
1000
1000
1000
0000
,
0001
0001
0001
0000
,
0000
0000
0000
0000
,
1000
0100
0100
0001
,
1000
0010
0110
0100
,
2000
0100
0001
3100
,
0002
0100
1000
0103
,
0010
0000
0100
0010
0100
0000
0001
0000
,
0001
0100
1000
0010
,
0200
0001
0010
0301
,
0020
0100
1000
0130
,
0101
0000
1100
0000
0010
1000
0010
0000
,
0011
0000
1010
0000
1000
0010
0100
0000
,
0110
0000
0011
0000
0100
0100
1000
0000
,
1010
0000
1001
0000
0010
0001
1000
0000
,
1000
0000
1000
0000
1000
0000
1000
1000
,
1000
0100
0010
0010
,
2000
0000
0010
0000
3100
0000
1000
1000
,
1000
0000
0001
0001
0001
0000
0010
0000
,
0001
0100
0010
1001
,
0110
1000
0100
0100
,
0020
1000
0031
0100
,
0100
0000
0001
0100
1000
0000
0010
0000
,
0010
0000
0001
0010
1000
0000
0100
0000
,
0200
0000
0000
0000
,
0020
0000
0000
0330
,
0010
0001
0010
0010
,
1000
0000
1100
0000
0101
0000
0010
0001
,
0010
1000
0100
0100
,
0020
0100
2030
0000
,
0002
0000
3000
1000
,
2003
0010
3010
0001
,
0010
0011
0110
0001
,
2000
0001
3020
0000
,
0200
0000
0030
0001
,
0302
1000
1003
0010
,
0110
0000
0000
0000
;

//---------------dance-single - ----------------
#NOTES:
     dance-single:
     :
     Beginner:
     4:
     0.124085,0.173719,0.055679,0.022272,0.000000,78.000000,73.000000,5.000000,2.000000,0.000000,0.000000,0.124085,0.173719,0.055679,0.022272,0.000000,78.000000,73.000000,5.000000,2.000000,0.000000,0.000000:
0000
0000
0000
0000
,
0000
0000
0000
0000
,
0000
0000
0000
0000
,
0000
0000
0000
0000
,
0000
0000
0000
0000
,
0000
0000
0000
0000
,
1000
0000
0000
0000
,
0001
0000
0000
0000
,
0010
0010
0010
0000
,
0010
0010
0010
0000
,
0100
0000
0000
0000
,
0010
0000
0000
0000
,
1000
1000
1000
0000
,
1000
1000
1000
0000
,
0010
0010
0010
0000
,
0100
0100
0100
0000
,
0001
0001
0001
0000
,
1000
1000
1000
0000
,
0110
0000
0000
0000
,
0000
0010
0010
0000
,
1000
0000
0001
0000
,
0100
0100
0010
0010
,
0100
0000
0000
1001
,
0000
0010
0010
0000
,
0100
0000
0001
0000
,
0010
0010
0010
0000
,
0100
0100
0100
0000
,
2000
0000
0000
0000
,
0002
0000
0000
0000
,
3003
0000
0100
0000
,
0100
0000
0000
1001
,
0000
0010
0010
0000
,
1000
0000
0001
0000
,
0100
0000
0100
0000
,
0100
0000
0000
1001
,
0000
0010
0010
0000
,
1000
0000
0001
0000
,
0100
0100
0100
0000
,
0100
0100
0100
0000
,
1001
0000
0000
0000
;

//---------------dance-single - ----------------
#NOTES:
     dance-single:
     :
     Medium:
     10:
     0.299077,0.369154,0.233853,0.167038,0.044543,188.000000,167.000000,21.000000,15.000000,0.000000,0.000000,0.299077,0.369154,0.233853,0.167038,0.044543,188.000000,167.000000,21.000000,15.000000,0.000000,0.000000:
0000
0000
0000
0000
,
0000
0000
0000
0000
,
0000
0000
0000
0000
,
0110
0011
1001
0000
,
0110
1010
1001
0000
,
0200
0000
0000
0000
,
0310
0000
0001
0000
0010
1000
0100
0000
,
0010
0000
0100
0000
0001
0001
1000
0000
,
0010
0000
0000
0000
1001
0000
0000
0000
0001
0000
0000
0001
0000
0000
0001
0000
,
1000
0000
0000
0000
0110
0000
0000
0000
0010
0000
0000
0010
0000
0000
0010
0000
,
0001
0000
0100
0010
0100
0000
0002
0000
,
1003
0000
0010
0000
0100
0000
0001
0010
,
0100
0000
0000
0000
0110
0000
0000
0000
1000
0000
0000
1000
0000
0000
1000
0000
,
0001
0000
0000
0000
1001
0000
0000
0000
0100
0000
0000
0100
0000
0000
0100
0000
,
0010
0001
0010
0001
0100
0010
1000
0000
,
0001
0100
0001
0100
0010
0001
1000
0000
,
0001
1000
0001
1000
0010
0001
0100
0000
,
0010
1001
0100
1001
0010
0001
0200
0000
,
0310
0000
0001
0000
0010
0000
1000
0100
,
1001
0000
0020
0000
0130
0000
1000
0002
,
0000
0000
1000
0000
1003
0000
0010
0010
,
0010
0001
0100
0100
0100
0000
0000
0000
,
1100
0001
0101
0100
,
1001
0000
0020
0000
0130
0000
1000
0002
,
0000
0000
1000
0000
1003
0000
0010
0010
,
0001
0010
0001
0010
1000
0000
0100
0100
,
1000
0100
1000
0100
0001
0000
1000
0000
,
2000
0000
0000
0000
,
0020
0000
0000
0030
,
3010
0001
0100
1000
,
0010
0001
0100
1000
0010
0000
0100
0000
,
1001
0000
0020
0000
0130
0000
1000
0002
,
0000
1000
2003
0000
,
3010
0000
0000
0000
0110
0000
0000
0000
0001
0000
0000
1000
0000
0000
0001
0000
,
1000
0000
0000
0000
1001
0000
0000
0000
0010
0000
0000
0100
0000
0000
0010
0000
,
0100
0000
0002
0000
1003
0000
0100
0020
,
0000
0100
0230
0000
,
0301
0000
0000
0000
1001
0000
0000
0000
0010
0000
0000
0100
0000
0000
0010
0000
,
0100
0000
0000
0000
0110
0000
0000
0000
0001
0000
0000
1000
0000
0000
0001
0000
,
1000
0000
0000
0000
;

//---------------dance-single - ----------------
#NOTES:
     dance-single:
     :
     Hard:
     11:
     0.399300,0.542873,0.278396,0.055679,0.183742,251.000000,226.000000,25.000000,5.000000,0.000000,0.000000,0.399300,0.542873,0.278396,0.055679,0.183742,251.000000,226.000000,25.000000,5.000000,0.000000,0.000000:
// measure 0
0000
0000
0000
0000
,  // measure 1
0000
0000
0000
0000
,  // measure 2
0000
0000
0000
0000
,  // measure 3
1000
0100
1000
0100
1000
0000
0000
0000
,  // measure 4
0001
0100
0001
0100
0001
0000
0000
0000
,  // measure 5
1001
0000
0000
0000
,  // measure 6
0010
0001
0100
0000
0010
0001
0100
0001
,  // measure 7
1100
0000
0010
0100
0001
0010
1000
0100
,  // measure 8
0010
0000
0001
0000
0100
0000
0000
0000
0010
0000
0000
0100
0000
0000
1000
0000
,  // measure 9
0001
0000
0010
0000
0100
0000
0000
0000
0001
0000
0000
0010
0000
0000
0100
0000
,  // measure 10
1000
0000
0010
0001
0001
0010
1000
0100
,  // measure 11
0101
0000
0010
0010
0001
0010
0100
1000
,  // measure 12
0001
0000
1000
0000
0100
0000
0000
0000
0010
0000
0000
1000
0000
0000
0001
0000
,  // measure 13
0010
0000
0100
0000
1000
0000
0000
0000
0001
0000
0000
0100
0000
0000
0010
0000
,  // measure 14
1000
0100
1000
0100
0000
0001
0010
0001
0000
1000
0100
0001
0000
0010
0100
0001
,  // measure 15
0000
1000
0010
0001
0000
1000
0100
0001
0000
0010
0010
0010
0000
0010
0010
0010
,  // measure 16
0000
1000
0100
0010
0000
0001
0100
0010
0000
1000
0100
1000
0000
0010
0001
1000
,  // measure 17
0000
0010
0101
1100
0010
0101
0110
1000
,  // measure 18
0001
0000
0000
0000
1001
0000
0000
0000
0010
0000
0000
0000
1000
0010
0100
0000
,  // measure 19
0010
0000
0101
0000
1100
0000
0010
0001
,  // measure 20
0010
0100
1000
0010
1000
0000
0001
0100
,  // measure 21
0001
0101
0010
1000
0010
1010
0100
0002
,  // measure 22
0000
0010
1000
0010
0103
0010
0100
0000
,  // measure 23
0010
0000
0101
0000
1100
0000
0010
0001
,  // measure 24
0010
0100
1000
0010
1000
0000
0001
0100
,  // measure 25
0001
0101
1001
1000
0100
0000
1000
0100
,  // measure 26
1000
1100
1001
0001
0100
0000
0110
0000
,  // measure 27
0210
0000
0000
0000
,  // measure 28
0020
0000
0000
0000
,  // measure 29
0330
0001
0010
0001
0100
1000
0010
0000
,  // measure 30
0001
1000
0100
1000
0010
0001
0100
0000
,  // measure 31
0010
0000
0101
0000
1100
0000
0010
0001
,  // measure 32
0010
0100
1000
0010
2000
0000
0100
0000
,  // measure 33
3001
0000
0010
0000
0001
0000
0000
0000
1000
0000
0000
0001
0000
0000
1000
0000
,  // measure 34
0010
0000
0100
0000
0001
0000
0000
0000
0100
0000
0000
0010
0000
0000
0100
0000
,  // measure 35
0010
0000
0101
0000
1100
0000
0010
0001
,  // measure 36
0010
0100
1000
0010
2000
0000
0100
0000
,  // measure 37
3001
0000
0010
0000
0001
0000
0000
0000
1000
0000
0000
0001
0000
0000
1000
0000
,  // measure 38
0010
0000
0100
0000
0001
0000
0000
0000
0100
0000
0000
0010
0000
0000
0100
0000
,  // measure 39
0110
0000
0000
0000
;

//---------------dance-single - ----------------
#NOTES:
     dance-single:
     :
     Challenge:
     13:
     0.488387,0.846882,0.423163,0.178174,0.283964,307.000000,269.000000,38.000000,16.000000,0.000000,0.000000,0.488387,0.846882,0.423163,0.178174,0.283964,307.000000,269.000000,38.000000,16.000000,0.000000,0.000000:
0000
0000
0000
0000
,
0000
0000
0000
0000
,
0000
0000
0000
0000
,
1100
1100
0100
1000
0100
0000
0000
0000
,
0101
0101
0100
0001
0100
0000
0000
0000
,
2002
0000
0000
0000
,
3003
0001
1000
0001
0010
1000
0100
0101
,
1001
0010
0010
1000
0100
0010
0100
1100
,
1001
0000
0000
0000
0010
0000
1000
0000
0100
0000
0010
0100
0000
0010
1000
0000
,
0001
0000
0000
0000
0010
0000
1000
0000
0100
0000
0010
0100
0000
0010
1000
0000
,
0001
0000
1000
0100
1000
0000
0010
0000
0100
0000
0001
0000
1000
0000
0011
0000
,
0110
0001
0100
0010
1000
1000
0001
1010
,
0110
0000
0000
0000
0001
0000
0010
0000
1000
0000
0001
1000
0000
0001
0010
0000
,
0100
0000
0000
0000
0001
0000
0010
0000
1000
0000
0001
1000
0000
0001
0010
0000
,
0100
0001
0001
0010
0100
0001
0001
0010
0100
1000
0100
0001
1000
1000
0101
0011
,
0000
1000
1000
0100
0010
1000
1000
0100
0001
1100
1100
1100
0000
0101
0101
0101
,
0000
0010
0010
0100
0001
0010
0010
0100
1000
0010
0100
0001
0010
0100
1001
1100
,
0000
0010
0001
0000
0100
0010
1000
0001
1000
0010
0100
0001
2000
0000
3000
0000
,
0101
0000
0000
0000
1100
0000
0000
0000
1001
0000
0000
0000
0110
0010
0100
0000
,
0110
0000
0020
0001
0130
0000
1000
0002
,
0000
0100
1000
0100
1003
0000
0101
1100
,
0001
1000
0011
1010
0001
1000
0001
0020
,
0000
1000
0100
1000
0130
0010
0100
0000
,
0110
0000
0020
0001
0130
0000
1000
0002
,
0000
0100
1000
0100
1003
0000
0100
0100
,
1001
0000
1000
0001
0010
0000
0100
0000
0010
0000
1000
0000
0100
0000
0100
0000
,
1001
0000
1000
0001
0010
0000
0100
0000
0010
0000
1000
0000
0100
0000
1000
0000
,
0200
0000
0000
0000
,
0002
0000
0000
0000
0000
0000
0000
0303
,
0001
0000
1000
0001
0100
0000
1000
0000
0001
0000
0001
0000
0010
0000
1000
0000
,
0010
0000
0100
0010
0001
0000
1000
0000
1000
0000
0010
0000
0100
0000
0000
0000
,
0110
0000
0020
0001
0130
0000
1000
0002
,
0000
0100
1000
0100
2003
0000
0010
0000
,
3010
0000
0000
0000
0010
0000
1000
0000
0100
0000
0010
0100
0000
0010
1000
0000
,
0001
0000
1000
0000
0010
0000
1000
0000
0100
0000
0010
0100
0000
0010
0100
0000
,
0110
0000
0200
1000
0310
0000
0001
2000
,
0000
0010
0001
0010
3002
0000
0100
0000
,
0103
0000
0000
0000
0100
0000
0001
0000
0010
0000
0100
0010
0000
0100
0001
0000
,
1000
0000
0001
0000
0100
0000
0001
0000
0010
0000
0100
0010
0000
0100
0001
0000
,
1001
0000
0000
0000
;
