#TITLE:JIN KAZAMA;
#SUBTITLE:(2ND THEME);
#ARTIST:TEKKEN 3 OST;
#TITLETRANSLIT:;
#SUBTITLETRANSLIT:;
#ARTISTTRANSLIT:;
#GENRE:;
#CREDIT:;
#BANNER:Jin Kazama (2nd Theme).png;
#BACKGROUND:Jin Kazama (2nd Theme)-bg.png;
#LYRICSPATH:;
#CDTITLE:cdtitle.png;
#MUSIC:Jin Kazama (2nd Theme).ogg;
#OFFSET:-11.294000;
#SAMPLESTART:30.118000;
#SAMPLELENGTH:15.058000;
#SELECTABLE:YES;
#DISPLAYBPM:128.000000;
#BPMS:0.000000=127.500000
;
#STOPS:
;
#BGCHANGES:;
#KEYSOUNDS:;
#ATTACKS:;

//---------------dance-single - ----------------
#NOTES:
     dance-single:
     :
     Easy:
     2:
     0.124058,0.169428,0.000000,0.031294,0.000000,111.000000,111.000000,0.000000,4.000000,0.000000,0.000000,0.124058,0.169428,0.000000,0.031294,0.000000,111.000000,111.000000,0.000000,4.000000,0.000000,0.000000:
0000
0000
0000
0000
,
0000
0000
0000
0000
,
0010
0000
0000
0000
,
0100
0000
0000
0000
,
0010
0000
0000
0000
,
0100
0000
0000
0000
,
0001
0000
0000
0000
,
1000
0000
0000
0000
,
0001
0000
0000
0000
,
0010
0010
0010
0000
,
1000
0000
0001
0000
,
1000
0001
1000
0001
,
0010
0000
0100
0000
,
0010
0100
0010
0100
,
0001
0000
1000
0000
,
0001
1000
0001
1000
,
0100
0000
0010
0000
,
0100
0010
0100
0010
,
2000
0000
0000
0000
,
0000
0000
3010
0000
,
0002
0000
0000
0000
,
0000
0000
0103
0000
,
0020
0000
0000
0000
,
0000
0000
1030
0000
,
0200
0000
0000
0000
,
0000
0000
0301
0000
,
0010
0000
0100
0000
,
0010
0100
0010
0100
,
0001
0000
1000
0000
,
0001
1000
0001
1000
,
0100
0000
0010
0000
,
0100
0010
0100
0010
,
1000
0000
0001
0000
,
1000
0001
1000
0001
,
0010
0000
0000
0000
,
1000
0000
0000
0000
,
0010
0000
0000
0000
,
0001
0000
0000
0000
,
0100
0000
0000
0000
,
1000
0000
0000
0000
,
0100
0000
0000
0000
,
0001
0000
0000
0000
,
0010
0000
0000
0000
,
0100
0000
0000
0000
,
1000
0000
0000
0000
,
0001
0000
0000
0000
,
0010
0000
0000
0000
,
0100
0000
0010
0000
,
0001
0000
0000
0000
,
0010
0000
1000
0000
,
0100
0000
0000
0000
,
0010
0000
1000
0000
,
0001
0000
0000
0000
,
1000
0000
0010
0000
,
0100
0010
0001
0000
,
1000
0000
1000
0000
,
1000
0001
0010
0000
,
0100
0000
0100
0000
,
0100
0010
1000
0000
,
0010
0000
0010
0000
,
0010
0100
1000
0000
,
0001
0000
0000
0000
0001
0000
0000
0001
;

//---------------dance-single - ----------------
#NOTES:
     dance-single:
     :
     Beginner:
     1:
     0.071529,0.119308,0.000000,0.078235,0.000000,64.000000,64.000000,0.000000,10.000000,0.000000,0.000000,0.071529,0.119308,0.000000,0.078235,0.000000,64.000000,64.000000,0.000000,10.000000,0.000000,0.000000:
0000
0000
0000
0000
,
0000
0000
0000
0000
,
0010
0000
0000
0000
,
0000
0000
0000
0000
,
0010
0000
0000
0000
,
0000
0000
0000
0000
,
0100
0000
0000
0000
,
0000
0000
0000
0000
,
0100
0000
0000
0000
,
0001
0001
0001
0000
,
1000
0000
0000
0000
,
0001
0000
1000
0000
,
0001
0000
0000
0000
,
1000
0000
0001
0000
,
0100
0000
0000
0000
,
0010
0000
0100
0000
,
0010
0000
0000
0000
,
0100
0000
0010
0000
,
1000
0000
0000
0000
,
1000
0000
0000
0000
,
0100
0000
0000
0000
,
0100
0000
0000
0000
,
0010
0000
0000
0000
,
0010
0000
0000
0000
,
0001
0000
0000
0000
,
0001
0000
0000
0000
,
0010
0000
0000
0000
,
0100
0000
0010
0000
,
0100
0000
0000
0000
,
0010
0000
0100
0000
,
1000
0000
0000
0000
,
0001
0000
1000
0000
,
0001
0000
0000
0000
,
1000
0000
0001
0000
,
0020
0000
0000
0000
,
0030
0000
0000
0000
,
0200
0000
0000
0000
,
0300
0000
0000
0000
,
2000
0000
0000
0000
,
3000
0000
0000
0000
,
0002
0000
0000
0000
,
0003
0000
0000
0000
,
0020
0000
0000
0000
,
0030
0000
0000
0000
,
0200
0000
0000
0000
,
0300
0000
0000
0000
,
2000
0000
0000
0000
,
3000
0000
1000
0000
,
0002
0000
0000
0000
,
0003
0000
0100
0000
,
0200
0000
0000
0000
,
0300
0000
0010
0000
,
0020
0000
0000
0000
,
0030
0000
0001
0000
,
0001
0000
0000
0000
,
1000
0000
1000
0000
,
1000
0000
0000
0000
,
0100
0000
0100
0000
,
0100
0000
0000
0000
,
0010
0000
0010
0000
,
0010
0000
0000
0000
,
0001
0000
0000
0000
;

//---------------dance-single - ----------------
#NOTES:
     dance-single:
     :
     Medium:
     5:
     0.272705,0.290448,0.203411,0.031294,0.000000,244.000000,218.000000,26.000000,4.000000,0.000000,0.000000,0.272705,0.290448,0.203411,0.031294,0.000000,244.000000,218.000000,26.000000,4.000000,0.000000,0.000000:
0000
0000
0000
0000
,
0000
0000
0000
0000
,
1000
0100
0001
0000
,
1000
0010
0001
0100
,
0010
1000
0100
0000
,
0001
0010
0100
1000
,
0100
0010
0001
0000
,
0100
0010
1000
0001
,
0010
0100
1000
0000
,
0110
0000
0110
0000
0001
1000
0001
0000
,
0100
0100
0001
1000
,
0010
0001
0010
1000
,
0010
0100
0001
0010
,
0100
0100
1000
0001
,
1001
0010
0100
0001
,
0010
1000
0010
0000
0100
0000
0100
0000
,
0001
0010
0100
1000
,
0010
0001
1000
0000
0100
0000
0100
0000
,
2001
0000
3001
0000
,
0110
0000
0000
0100
0100
0000
0000
0000
,
1002
0000
1003
0000
,
0110
0000
0000
0010
0010
0000
0000
0000
,
2001
0010
3010
0000
,
0110
0000
1000
1000
1000
0000
0000
0000
,
1002
0100
0103
0000
,
0110
0000
0001
0001
0001
0000
0000
0000
,
0001
0001
0010
0100
,
1000
0010
1000
0100
,
1000
0001
0010
1000
,
0001
0001
0100
0010
,
0110
1000
0001
0010
,
1000
0100
1000
0000
0001
0000
0001
0000
,
0010
1000
0001
0100
,
1000
0010
0100
0000
0001
0000
0001
0000
,
0110
1000
1000
1000
,
0110
0001
0001
0001
,
1001
0100
0100
0100
,
1001
0010
0010
0010
,
1100
0001
0001
0001
,
0011
0100
0100
0100
,
1010
1000
1000
1000
,
0101
0010
0010
0010
,
1100
0001
0001
0001
,
0101
1000
1000
1000
,
0011
0100
0100
0100
,
1010
0010
0010
0010
,
1000
0000
0110
0000
,
0010
0000
0001
0000
0010
0001
0010
0000
,
0100
0000
1001
0000
,
1000
0000
0010
0000
1000
0010
1000
0000
,
0100
0000
0010
0000
,
0100
0000
0010
0000
0100
0010
0100
0000
,
0001
0000
1000
0000
,
0001
0000
1000
0000
0001
1000
0001
0000
,
0100
0000
0010
0000
,
0000
0001
0000
0000
0001
0000
0000
0001
,
0100
0000
0100
0000
,
0000
0010
0000
0000
0010
0000
0000
0010
,
1000
0000
1000
0000
,
0000
0100
0000
0000
0100
0000
0000
0100
,
0010
0000
0010
0000
,
0001
0000
0000
0001
0000
0000
0001
0001
;

//---------------dance-single - ----------------
#NOTES:
     dance-single:
     :
     Challenge:
     12:
     0.530881,0.484079,0.109529,0.031294,0.555469,475.000000,461.000000,14.000000,4.000000,0.000000,0.000000,0.530881,0.484079,0.109529,0.031294,0.555469,475.000000,461.000000,14.000000,4.000000,0.000000,0.000000:
// measure 0
0000
0000
0000
0000
,  // measure 1
0000
0000
0000
0000
,  // measure 2
1000
0000
0000
0001
0010
0000
1000
0000
0010
0000
1000
0000
0000
0010
0000
0000
,  // measure 3
0100
0000
0000
0010
0001
0000
0100
0000
0001
0000
0100
0000
0000
0001
0000
0000
,  // measure 4
0010
0000
0000
0100
0001
0000
1000
0000
0001
0000
1000
0000
0000
0001
0000
0000
,  // measure 5
0100
0000
0000
0010
1000
0000
0100
0000
1000
0000
0100
0000
0000
1000
0000
0000
,  // measure 6
0010
0000
0000
0100
0001
0000
0010
0000
0001
0000
0010
0000
0000
0001
0000
0000
,  // measure 7
1000
0000
0000
0001
0100
0000
1000
0000
0100
0000
1000
0000
0000
0100
0000
0000
,  // measure 8
0001
0000
0000
1000
0100
0000
0010
0000
0100
0000
0010
0000
0000
0100
0000
0000
,  // measure 9
0010
0000
0001
0000
0010
0000
1000
0000
0100
0010
0001
1000
0000
0100
0000
0010
,  // measure 10
0001
0000
0100
0000
0001
0000
0010
0000
0100
0000
1000
0000
0000
0010
0000
0000
,  // measure 11
1000
0000
0100
0000
1000
0000
0010
0000
0100
0000
0100
0000
0000
1001
0000
0000
,  // measure 12
0100
0000
0010
0000
0010
0000
0001
0000
0100
0000
0010
0000
0000
1000
0000
0000
,  // measure 13
0100
0000
1000
0000
0100
0000
0010
0000
1000
0000
1000
0000
0000
0110
0000
0000
,  // measure 14
1000
0100
1000
0000
0010
0000
0100
0000
0100
0000
0001
0000
0000
0010
0000
0000
,  // measure 15
0100
0001
0100
0000
0010
0000
1000
0000
0100
0000
0010
0000
0000
1100
0000
0000
,  // measure 16
0010
0001
1000
0000
0100
0000
0100
0000
0010
0000
0001
0000
0000
0100
0000
0000
,  // measure 17
0100
0010
0001
0000
0100
0000
0010
0000
1000
0000
1000
0000
0000
0011
0000
0000
,  // measure 18
0100
1000
0001
0100
1000
0010
0100
0001
,  // measure 19
0010
0000
0000
0010
0000
0000
0010
0100
0020
0000
0000
0000
0030
0000
0000
0000
,  // measure 20
0001
0100
0010
0001
0100
1000
0001
0010
,  // measure 21
1000
0000
0000
1000
0000
0000
1000
0001
2000
0000
0000
0000
3000
0000
0000
0000
,  // measure 22
0010
0001
1000
0010
0001
0100
0010
1000
,  // measure 23
0100
0000
0000
0100
0000
0000
0100
0010
0200
0000
0000
0000
0300
0000
0000
0000
,  // measure 24
1000
0010
0100
1000
0010
0001
1000
0100
,  // measure 25
0001
0000
0000
0001
0000
0000
0001
1000
0002
0000
0000
0000
0003
0000
0000
0000
,  // measure 26
1000
0000
0010
0000
1000
0000
0100
0000
0010
0000
0001
0000
0000
0100
0000
0000
,  // measure 27
0001
0000
0010
0000
0001
0000
0100
0000
0010
0000
0010
0000
0000
1001
0000
0000
,  // measure 28
0010
0000
0100
0000
0100
0000
1000
0000
0010
0000
0100
0000
0000
0001
0000
0000
,  // measure 29
0010
0000
0001
0000
0010
0000
0100
0000
0001
0000
0001
0000
0000
0110
0000
0000
,  // measure 30
0001
0010
0001
0000
0100
0000
0010
0000
0010
0000
1000
0000
0000
0100
0000
0000
,  // measure 31
0010
1000
0010
0000
0100
0000
0001
0000
0010
0000
0100
0000
0000
0011
0000
0000
,  // measure 32
0100
1000
0001
0000
0010
0000
0010
0000
0100
0000
1000
0000
0000
0010
0000
0000
,  // measure 33
0010
0100
1000
0000
0010
0000
0100
0000
0001
0000
0001
0000
0000
1100
0000
0000
,  // measure 34
0010
0000
1000
0001
0000
0010
0000
0100
0000
0000
1000
0000
0010
0001
0010
0000
,  // measure 35
1000
0000
0100
0010
0000
1000
0000
0001
0000
0000
0100
0000
1000
0010
1000
0000
,  // measure 36
0100
0000
0001
1000
0000
0100
0000
0010
0000
0000
0001
0000
0100
1000
0100
0000
,  // measure 37
0001
0000
0010
0100
0000
0001
0000
1000
0000
0000
0010
0000
0001
0100
0001
0000
,  // measure 38
0010
0000
1000
0001
0000
0010
0000
0100
0000
0000
1000
0000
0010
0001
0010
0000
,  // measure 39
1000
0000
0100
0010
0000
1000
0000
0001
0000
0000
0100
0000
1000
0010
1000
0000
,  // measure 40
0100
0000
0001
1000
0000
0100
0000
0010
0000
0000
0001
0000
0100
1000
0100
0000
,  // measure 41
0001
0000
0010
0100
0000
0001
0000
1000
0000
0000
0010
0000
0001
0100
0001
0000
,  // measure 42
0010
0000
1000
0001
0000
0010
0000
0100
0000
0000
1000
0000
0010
0001
0010
0000
,  // measure 43
1000
0000
0100
0010
0000
1000
0000
0001
0000
0000
0100
0000
1000
0010
1000
0000
,  // measure 44
0100
0000
0001
1000
0000
0100
0000
0010
0000
0000
0001
0000
0100
1000
0100
0000
,  // measure 45
0001
0000
0010
0100
0000
0001
0000
1000
0000
0000
0010
0000
0001
0100
0001
0000
,  // measure 46
0000
0000
1000
0100
0000
0010
0000
0010
0000
0000
0000
0000
0001
1000
0010
0000
,  // measure 47
0000
0000
0100
1000
0000
0001
0000
0001
0000
0000
0000
0000
0100
0010
0001
0000
,  // measure 48
0000
0000
0100
0010
0000
1000
0000
1000
0000
0000
0000
0000
0100
0010
1000
0000
,  // measure 49
0000
0000
0001
1000
0000
0010
0000
0010
0000
0000
0000
0000
0001
1000
0100
0000
,  // measure 50
0000
0000
0100
0001
0000
1000
0000
1000
0000
0000
0000
0000
0010
0100
1000
0000
,  // measure 51
0000
0000
0001
0100
0000
0010
0000
0010
0000
0000
0000
0000
0001
1000
0010
0000
,  // measure 52
0000
0000
0001
1000
0000
0100
0000
0100
0000
0000
0000
0000
0001
1000
0100
0000
,  // measure 53
0000
0000
0010
0100
0000
1000
0000
1000
0000
0000
0000
0000
0010
0100
0001
0000
,  // measure 54
1000
0000
0100
0010
0100
0000
1000
0000
0000
0000
0001
1000
0001
0000
0100
0000
,  // measure 55
0000
0010
0010
1001
0100
0100
1001
0010
,  // measure 56
0010
0000
1000
0001
1000
0000
0010
0000
0000
0000
0100
0010
0100
0000
1000
0000
,  // measure 57
0000
0001
0001
0110
1000
1000
0110
0001
,  // measure 58
0001
0000
0010
0100
0010
0000
0001
0000
0000
0000
1000
0001
1000
0000
0010
0000
,  // measure 59
0000
0100
0100
1001
0010
0010
1001
0100
,  // measure 60
0100
0000
0001
1000
0001
0000
0100
0000
0000
0000
0010
0100
0010
0000
0001
0000
,  // measure 61
1000
0000
0100
0010
0000
1000
0000
0001
0000
0000
1000
0000
0100
0001
0100
0000
;

//---------------dance-single - ----------------
#NOTES:
     dance-single:
     :
     Hard:
     8:
     0.348705,0.338855,0.125176,0.148647,0.007824,312.000000,296.000000,16.000000,19.000000,0.000000,0.000000,0.348705,0.338855,0.125176,0.148647,0.007824,312.000000,296.000000,16.000000,19.000000,0.000000,0.000000:
0000
0000
0000
0000
,
0000
0000
0000
0000
,
1000
0001
1000
0000
0000
0010
0000
0000
,
0100
0010
0100
0000
0000
0001
0000
0000
,
1000
0010
1000
0000
0000
0100
0000
0000
,
0001
0010
0001
0000
0000
1000
0000
0000
,
1000
0010
0100
0000
0001
0000
1000
0000
,
0010
0001
0001
0000
0100
0000
0010
0000
,
1000
0001
0100
0000
0010
0000
1000
0000
,
0200
0000
0000
0000
0302
0000
0000
0000
1003
0000
0000
0100
0000
0100
0000
0000
,
0001
0010
0001
0000
0100
0000
1000
0000
,
0100
1001
0010
1100
,
0010
0001
0100
0000
0010
0000
1000
0000
,
0002
0103
0002
1003
,
0010
1000
0100
0010
0001
0000
0100
0000
,
0010
0101
1000
1010
,
0100
0001
0001
1000
0100
0000
0010
0000
,
2000
3010
2000
3100
,
0020
1000
0001
1030
,
0100
0000
0010
0001
0100
0010
0010
0000
,
0200
0010
1000
0310
,
0001
0000
1000
0100
0010
0100
0100
0000
,
2000
0100
0010
3100
,
0001
0000
1000
0010
0001
1000
1000
0000
,
0002
1000
0100
1003
,
0010
0000
0100
0001
1000
0001
0001
0000
,
1000
0100
1000
0000
0010
0000
0001
0000
,
0010
1001
0100
0011
,
0100
1000
0010
0000
0100
0000
0001
0000
,
2000
3010
2000
3001
,
0100
0001
0010
0100
1000
0000
0010
0000
,
0100
1010
0001
0101
,
0010
1000
1000
0001
0010
0000
0100
0000
,
0002
0103
0002
0013
,
1001
0000
0000
0000
1000
0001
1000
0000
,
0110
0000
0000
0000
0100
0010
0100
0000
,
1001
0000
0000
0000
0001
1000
0001
0000
,
0110
0000
0000
0000
0010
0100
0010
0000
,
1100
0000
0000
0000
1000
0010
0100
0000
,
0101
0000
0000
0000
0001
0010
0100
0000
,
0011
0000
0000
0000
0001
1000
0010
0000
,
1010
0000
0000
0000
1000
0100
0010
0000
,
2000
0000
3100
0000
0010
0100
0010
0000
,
0002
0000
0103
0000
0010
1000
0001
0000
,
0200
0000
0310
0000
0010
1000
1000
0000
,
0020
0000
1030
0000
0001
1000
0010
0000
,
1000
0000
0100
0000
0010
0100
1000
0010
,
0100
0000
0001
0000
1000
0010
0100
0010
,
0010
0000
1000
0000
0001
0100
0010
0001
,
1000
0000
0100
0000
0010
1000
1000
0001
,
0100
0000
0001
0000
1000
0001
0100
1000
,
0001
0000
0010
0000
0100
1000
0001
1000
,
1000
0000
0100
0000
0010
0001
1000
0010
,
0100
0000
0001
0000
1000
0100
0100
0010
,
0001
1000
0010
0100
0000
1000
0100
0010
,
0000
0001
0001
0000
1000
1000
0000
0001
,
0001
0010
0100
1000
0000
0010
0100
0010
,
0000
1000
0001
0000
0001
0100
0000
0100
,
0010
0001
1000
1000
0000
0010
0010
0100
,
0000
0001
0010
0000
0100
0010
0000
1000
,
0001
0010
0100
0001
0000
1000
1000
1000
,
0002
0000
0000
0000
0000
0000
0000
0003
;
