#VERSION:0.83;
#TITLE:Inspiration;
#SUBTITLE:;
#ARTIST:Kasino;
#TITLETRANSLIT:;
#SUBTITLETRANSLIT:;
#ARTISTTRANSLIT:;
#GENRE:;
#ORIGIN:;
#CREDIT:;
#BANNER:Inspiration.png;
#BACKGROUND:Inspiration-bg.png;
#PREVIEWVID:;
#JACKET:Inspiration-jacket.png;
#CDIMAGE:;
#DISCIMAGE:;
#LYRICSPATH:;
#CDTITLE:cdtitle.png;
#MUSIC:Inspiration.ogg;
#OFFSET:-0.096000;
#SAMPLESTART:44.400002;
#SAMPLELENGTH:18.000000;
#SELECTABLE:YES;
#DISPLAYBPM:130.000000;
#BPMS:0.000=130.010;
#STOPS:;
#DELAYS:;
#WARPS:;
#TIMESIGNATURES:0.000=4=4;
#TICKCOUNTS:0.000=4;
#COMBOS:0.000=1;
#SPEEDS:0.000=1.000=0.000=0;
#SCROLLS:0.000=1.000;
#FAKES:;
#LABELS:0.000=Song Start;
#BGCHANGES:;
#KEYSOUNDS:;
#ATTACKS:
;

//---------------dance-single - ----------------
#NOTEDATA:;
#CHARTNAME:;
#STEPSTYPE:dance-single;
#DESCRIPTION:;
#CHARTSTYLE:;
#DIFFICULTY:Easy;
#METER:3;
#RADARVALUES:0.189973,0.268352,0.060841,0.182523,0.000000,153.000000,146.000000,7.000000,21.000000,0.000000,0.000000,0.000000,0.000000,0.000000,0.189973,0.268352,0.060841,0.182523,0.000000,153.000000,146.000000,7.000000,21.000000,0.000000,0.000000,0.000000,0.000000,0.000000;
#CREDIT:kater15;
#DISPLAYBPM:130.000000;
#NOTES:
// measure 0
0000
0000
0000
0000
,  // measure 1
0000
0000
0000
0000
,  // measure 2
0000
0000
0000
0000
,  // measure 3
0000
0000
0000
0000
,  // measure 4
1000
0000
0001
0000
,  // measure 5
1000
0000
0001
0000
,  // measure 6
1000
0000
0001
0000
,  // measure 7
1000
0100
0010
0001
,  // measure 8
1001
0000
0010
0100
,  // measure 9
1001
0000
0010
0100
,  // measure 10
1001
0000
0010
0100
,  // measure 11
2000
3000
0002
0003
,  // measure 12
0110
0000
1000
0001
,  // measure 13
0110
0000
1000
0001
,  // measure 14
0010
0010
1000
0100
,  // measure 15
0010
0000
0100
0000
,  // measure 16
0002
0000
0003
0000
,  // measure 17
2000
0000
3000
0000
,  // measure 18
0200
0000
0300
0000
,  // measure 19
0020
0000
1030
1000
,  // measure 20
0200
0000
0300
0000
,  // measure 21
0002
0000
0103
1000
,  // measure 22
0020
0000
0030
0000
,  // measure 23
0020
0000
0030
0000
,  // measure 24
1000
1000
1000
1000
,  // measure 25
0001
0001
0001
0001
,  // measure 26
0100
0100
0100
0100
,  // measure 27
0010
0100
0010
0100
,  // measure 28
0001
0001
0001
0001
,  // measure 29
1000
1000
1000
1000
,  // measure 30
0010
0010
0010
0010
,  // measure 31
0100
0010
0100
0010
,  // measure 32
2000
0000
3000
0000
,  // measure 33
0002
0000
0003
0000
,  // measure 34
0200
0000
0300
0000
,  // measure 35
0020
0000
0030
0000
,  // measure 36
1000
1000
1000
1000
,  // measure 37
0001
0001
0001
0001
,  // measure 38
0100
0100
0100
0100
,  // measure 39
0010
0100
0010
0100
,  // measure 40
0020
0000
0030
0000
,  // measure 41
0020
0000
0030
0000
,  // measure 42
0020
0000
0030
0000
,  // measure 43
0220
0000
0330
0000
,  // measure 44
1000
0000
1000
0000
,  // measure 45
0001
0000
0001
0000
,  // measure 46
0100
0000
0100
0000
,  // measure 47
0010
0000
0010
0001
,  // measure 48
1000
0000
1000
0000
,  // measure 49
0001
0000
0001
0000
,  // measure 50
0100
0000
0100
0000
,  // measure 51
0010
0000
0010
0001
,  // measure 52
0100
0100
0100
0000
,  // measure 53
0001
0001
0001
0000
,  // measure 54
0010
0010
0010
0000
,  // measure 55
1000
1000
1000
0100
,  // measure 56
0010
0010
0010
0000
,  // measure 57
0001
0001
0001
0000
,  // measure 58
0100
0100
0100
0000
,  // measure 59
0010
0100
0010
0100
,  // measure 60
0220
0000
0000
0000
,  // measure 61
0000
0000
0000
0330
;

//---------------dance-single - ----------------
#NOTEDATA:;
#CHARTNAME:;
#STEPSTYPE:dance-single;
#DESCRIPTION:;
#CHARTSTYLE:;
#DIFFICULTY:Beginner;
#METER:1;
#RADARVALUES:0.075741,0.161011,0.043458,0.052149,0.000000,61.000000,56.000000,5.000000,6.000000,0.000000,0.000000,0.000000,0.000000,0.000000,0.075741,0.161011,0.043458,0.052149,0.000000,61.000000,56.000000,5.000000,6.000000,0.000000,0.000000,0.000000,0.000000,0.000000;
#CREDIT:kater15;
#DISPLAYBPM:130.000000;
#NOTES:
0000
0000
0000
0000
,
0000
0000
0000
0000
,
0000
0000
0000
0000
,
0000
0000
0000
0000
,
0100
0000
0000
0000
,
0100
0000
0000
0000
,
0100
0000
0000
0000
,
0100
0000
0000
0000
,
0110
0000
0000
0000
,
0110
0000
0000
0000
,
0110
0000
0000
0000
,
0100
0000
0010
0000
,
0100
0000
0000
0000
,
1001
0000
0000
0000
,
0001
0000
1000
0000
,
0001
0000
0000
0000
,
1000
0000
0000
0000
,
0100
0000
0000
0000
,
0010
0000
0000
0000
,
0001
0000
0000
0000
,
0100
0000
0000
0000
,
0100
0000
0000
0000
,
0001
0000
0000
0000
,
1000
0000
0000
0000
,
0002
0000
0000
0000
,
0003
0000
0000
0000
,
0001
0000
0000
0000
,
1000
0000
0001
0000
,
2000
0000
0000
0000
,
3000
0000
0000
0000
,
1000
0000
0000
0000
,
0001
0000
1000
0000
,
0001
0000
0000
0000
,
0010
0000
0000
0000
,
0100
0000
0000
0000
,
1000
0000
0000
0000
,
0200
0000
0000
0000
,
0300
0000
0000
0000
,
0100
0000
0000
0000
,
0010
0000
0100
0000
,
0020
0000
0000
0000
,
0000
0000
0000
0000
,
0000
0000
0000
0000
,
0030
0000
0000
0000
,
0010
0000
0000
0000
,
0010
0000
0000
0000
,
0010
0000
0000
0000
,
0010
0000
0000
0000
,
0001
0000
0000
0000
,
0001
0000
0000
0000
,
0001
0000
0000
0000
,
0001
0000
0000
0000
,
0100
0000
0000
0000
,
0100
0000
0000
0000
,
0100
0000
0000
0000
,
0100
0000
0000
0000
,
1000
0000
0000
0000
,
1000
0000
0000
0000
,
1000
0000
0000
0000
,
1000
0000
0000
0000
,
2002
0000
0000
0000
,
0000
0000
0000
3003
;

//---------------dance-single - ----------------
#NOTEDATA:;
#CHARTNAME:;
#STEPSTYPE:dance-single;
#DESCRIPTION:;
#CHARTSTYLE:;
#DIFFICULTY:Medium;
#METER:5;
#RADARVALUES:0.257022,0.295187,0.078224,0.191215,0.060841,207.000000,198.000000,9.000000,22.000000,0.000000,0.000000,0.000000,0.000000,0.000000,0.257022,0.295187,0.078224,0.191215,0.060841,207.000000,198.000000,9.000000,22.000000,0.000000,0.000000,0.000000,0.000000,0.000000;
#CREDIT:kater15;
#DISPLAYBPM:130.000000;
#NOTES:
0000
0000
0000
0000
,
0000
0000
0000
0000
,
0000
0000
0000
0000
,
0000
0000
0000
0000
,
1000
0000
1000
0000
0100
0010
0001
0000
,
0100
0000
0010
0000
1000
0010
0100
0000
,
0001
0000
0010
0000
0001
1000
0100
0000
,
2000
0001
0010
3001
,
1001
0000
1000
0001
,
0101
0000
0010
0001
,
0101
0000
0000
0000
1000
0000
1000
0100
,
0020
0031
0020
1030
,
0100
0000
0010
0100
,
1100
0000
0000
0000
0010
0000
0001
1000
,
0100
0001
1000
0010
,
0200
0000
0000
0001
0000
0000
1300
0000
,
0100
0000
0000
1000
0000
0000
0010
0000
,
0101
0000
0000
1000
0000
0000
0100
0000
,
1000
0000
0000
0001
0000
0000
0110
0000
,
1010
0000
0200
0001
,
1300
0000
0000
1000
0000
0000
1000
0000
0000
1000
0000
0000
0000
0000
0000
0000
,
0100
0000
0000
0100
0000
0000
0100
0000
0000
0100
0000
0000
0000
0000
0000
0000
,
0001
0000
0000
0001
0000
0000
0001
0000
0000
0001
0000
0000
0000
0000
0000
0000
,
0010
0000
0000
0010
0000
0000
0010
0000
0000
0010
0000
0000
0000
0000
0000
0000
,
1000
0000
0100
0000
0010
0000
0001
0010
,
0001
0100
0100
0010
,
0100
1000
0100
0100
,
0002
0010
0010
0013
,
0100
0000
0001
0000
0100
0000
0010
1000
,
0010
0100
0001
0010
,
0001
0001
0100
0010
,
2000
0010
0010
3010
,
0000
0000
1000
1000
0000
0000
0000
0000
,
0000
0000
0001
0001
0000
0000
0000
0000
,
0000
0000
0010
0010
0000
0000
0000
0000
,
0000
0000
0100
0100
0000
0000
0000
0000
,
1000
0000
0100
0000
0010
0000
0001
0010
,
0001
0100
0100
0010
,
0100
1000
0100
0100
,
0002
0010
0010
0013
,
2000
0100
0100
3100
,
0200
0010
0010
0310
,
0020
0001
0001
0031
,
2002
0000
0000
3003
,
0000
2000
3001
1000
,
1000
0002
1003
0001
,
0001
2000
3001
1000
,
1000
0000
0001
0000
,
0000
0200
0310
0100
,
0100
0020
0130
0010
,
0010
0200
0310
0100
,
0100
0000
0010
0000
,
1000
0000
0000
1000
0000
0000
1000
0000
0000
0000
0000
0000
0000
0000
0000
0000
,
0001
0000
0000
0001
0000
0000
0001
0000
0000
0000
0000
0000
0000
0000
0000
0000
,
1000
0000
0000
1000
0000
0000
1000
0000
0000
0000
0000
0000
0000
0000
0000
0000
,
0001
0000
1000
0000
,
0010
0000
0000
0010
0000
0000
0010
0000
0000
0000
0000
0000
0000
0000
0000
0000
,
0100
0000
0000
0100
0000
0000
0100
0000
0000
0000
0000
0000
0000
0000
0000
0000
,
0010
0000
0000
0010
0000
0000
0010
0000
0000
0000
0000
0000
0000
0000
0000
0000
,
2000
0010
0010
3010
,
0220
0000
0000
0000
,
0000
0000
0000
0330
;

//---------------dance-single - ----------------
#NOTEDATA:;
#CHARTNAME:;
#STEPSTYPE:dance-single;
#DESCRIPTION:;
#CHARTSTYLE:;
#DIFFICULTY:Hard;
#METER:7;
#RADARVALUES:0.370013,0.402528,0.095607,0.156448,0.160794,298.000000,287.000000,11.000000,18.000000,0.000000,0.000000,0.000000,0.000000,0.000000,0.370013,0.402528,0.095607,0.156448,0.160794,298.000000,287.000000,11.000000,18.000000,0.000000,0.000000,0.000000,0.000000,0.000000;
#CREDIT:kater15;
#DISPLAYBPM:130.000000;
#NOTES:
0000
0000
0000
0000
,
0000
0000
0000
0000
,
0000
0000
0000
0000
,
0000
0000
0000
0000
,
1000
0000
0100
0000
0000
0100
0000
0000
0100
0000
0000
0100
0000
0000
0100
0000
,
0010
0000
0001
0000
0000
0001
0000
0000
0001
0000
0000
0001
0000
0000
0001
0000
,
1000
0000
0010
0000
0000
0010
0000
0000
0010
0000
0000
0010
0000
0000
0010
0000
,
0200
0301
0200
0310
,
0110
0000
0000
0000
1100
0000
0010
0001
,
0100
0000
0000
0000
0010
0001
0100
0010
,
1000
0000
0000
0000
0100
0100
0001
0010
,
0001
0000
1000
0000
0010
0100
0001
0000
,
0011
0000
0000
0000
1000
1000
0100
0010
,
0100
0000
0000
0000
0001
0010
0100
0100
,
0001
1000
0100
0010
,
2000
0000
0000
0001
0000
0000
3010
0000
,
1100
0000
0000
1000
0000
0000
0100
0000
0000
0010
0000
0000
0100
0000
0000
0000
,
0001
0000
0000
0010
0000
0000
0010
0000
0000
0100
0000
0000
0010
0000
0000
0000
,
1000
0000
0000
0100
0000
0000
0100
0000
0000
1000
0000
0000
0001
0000
0000
0000
,
0010
0000
0000
1000
0000
0000
0100
0000
0000
0001
0000
0000
0010
0000
0000
0000
,
0100
0000
0000
0001
0000
0000
0100
0000
0000
1000
0000
0000
0010
0000
0000
0000
,
0100
0000
0000
0001
0000
0000
0010
0000
0000
0100
0000
0000
1000
0000
0000
0000
,
0010
0000
0000
0010
0000
0000
0001
0000
0000
0010
0000
0000
0100
0000
0000
0000
,
1000
0000
0000
0001
0000
0000
0100
0000
0000
0010
0000
0000
0100
0000
0000
0000
,
2000
0000
0010
0000
3001
0000
0010
0100
,
0010
0000
1000
0100
0001
0100
1000
0000
,
1100
0000
0001
0000
0010
0010
0001
0010
,
0200
1000
0001
1300
,
0002
0000
0100
0000
1003
0000
0100
0010
,
0100
0000
0001
0010
1000
0010
0001
0000
,
0011
0000
1000
0000
0100
0100
1000
0100
,
0020
0001
1000
0031
,
0000
0000
1000
1000
0000
0100
0100
0000
,
1100
0000
0010
0010
0000
1000
1000
0000
,
1010
0000
0001
0001
0000
0010
0100
0001
,
0200
0000
0001
0301
,
2000
0000
0010
0000
3001
0000
0010
0100
,
0010
0000
1000
0100
0001
0100
1000
0000
,
1100
0000
0001
0000
0010
0010
0001
0010
,
0200
1000
0001
1300
,
0002
0000
0000
0000
,
0200
0000
0003
0000
,
0020
0000
0000
0330
,
2002
0000
0000
3003
,
1000
0000
0000
1000
0000
0000
1000
0000
0000
0000
1000
0000
0100
0000
1000
0000
,
0100
0000
0000
0100
0000
0000
0100
0000
0000
0000
0100
0000
0010
0000
0100
0000
,
0010
0000
0000
0010
0000
0000
0010
0000
0000
0000
0010
0000
0001
0000
0010
0000
,
0001
0000
0000
0001
0000
0000
0001
0000
0100
0000
0010
0000
0001
0000
0100
0000
,
1000
0000
0000
1000
0000
0000
1000
0000
0000
0000
1000
0000
0100
0000
1000
0000
,
0100
0000
0000
0100
0000
0000
0100
0000
0000
0000
0100
0000
0010
0000
0100
0000
,
0010
0000
0000
0010
0000
0000
0010
0000
0000
0000
0010
0000
0001
0000
0010
0000
,
0001
0000
0000
0001
0000
0000
0001
0000
0100
0000
0010
0000
0001
0000
0100
0000
,
1000
0000
0000
1000
0000
0000
1000
0000
0001
0000
0010
0000
0100
0000
1000
0000
,
0100
0000
0000
0100
0000
0000
0100
0000
1000
0000
0100
0000
0100
0000
1000
0000
,
0010
0000
0000
0010
0000
0000
0010
0000
0100
0000
0001
0000
1000
0000
0100
0000
,
0001
0000
0000
0001
0000
0000
0001
0000
0100
0000
0010
0000
0001
0000
0100
0000
,
1000
0000
0000
1000
0000
0000
1000
0000
0001
0000
0010
0000
0100
0000
1000
0000
,
0100
0000
0000
0100
0000
0000
0100
0000
1000
0000
0100
0000
0100
0000
1000
0000
,
0010
0000
0000
0010
0000
0000
0010
0000
0100
0000
0001
0000
1000
0000
0010
0000
,
0200
0001
1000
0301
,
0220
0000
0000
0000
,
0000
0000
0000
0330
;
