#TITLE:If You Seek Amy;
#SUBTITLE:;
#ARTIST:Britney Spears;
#TITLETRANSLIT:;
#SUBTITLETRANSLIT:;
#ARTISTTRANSLIT:;
#GENRE:;
#CREDIT:;
#BANNER:If You Seek Amy.png;
#BACKGROUND:If You Seek Amy-bg.png;
#LYRICSPATH:;
#CDTITLE:;
#MUSIC:If You Seek Amy.ogg;
#OFFSET:-0.210000;
#SAMPLESTART:64.824997;
#SAMPLELENGTH:15.000000;
#SELECTABLE:YES;
#DISPLAYBPM:130.000000;
#BPMS:0.000000=130.000000
;
#STOPS:
;
#BGCHANGES:;
#KEYSOUNDS:;
#ATTACKS:;

//---------------dance-single - ----------------
#NOTES:
     dance-single:
     :
     Easy:
     3:
     0.174172,0.236823,0.061399,0.052627,0.000000,139.000000,132.000000,7.000000,6.000000,0.000000,0.000000,0.174172,0.236823,0.061399,0.052627,0.000000,139.000000,132.000000,7.000000,6.000000,0.000000,0.000000:
0000
0000
0000
0000
,
0000
0000
0000
0000
,
0000
0000
0000
0000
,
0000
0000
0000
0000
,
0000
0000
0000
0000
,
0000
0000
0000
0000
,
0000
0000
0000
0000
,
0000
0000
0000
0000
,
0100
1000
1000
0010
,
0000
1000
0000
0000
,
1000
0001
0100
0100
,
0010
0000
0100
0000
,
1000
1000
0100
0001
,
0000
1000
0000
0000
,
0010
1000
0010
0100
,
0001
0000
1000
0000
,
0200
0000
0300
0000
,
1000
0001
1000
0001
,
0020
0000
0030
0000
,
0001
1000
0001
0000
,
0100
0000
0010
0000
,
0010
0000
1000
0000
,
0100
0000
0010
0000
,
2002
0000
0000
3003
,
0100
0000
0100
0000
,
0010
0000
0010
0000
,
0100
0100
0010
0010
,
1001
0000
0110
0000
,
1000
0000
1000
0000
,
0001
0000
0001
0000
,
1000
1000
0001
0001
,
0110
0000
1001
0000
,
0000
0000
0000
0000
,
1000
0000
0001
0000
,
2002
0000
0000
3003
,
1000
0000
1000
0000
,
0100
0000
0100
0000
,
0010
0000
0010
0000
,
0001
0000
0001
0100
,
1000
0000
1000
0000
,
0100
0000
0100
0000
,
0010
0000
0010
0000
,
0001
0000
0001
1000
,
0100
0000
0100
0000
,
0010
0000
0010
0000
,
0001
0000
0001
0000
,
1000
0000
1000
0010
,
0100
0100
0100
0001
,
1000
0010
0100
0000
,
0010
0010
0010
1000
,
0001
0100
0010
0000
,
1000
1000
1000
0100
,
0010
0001
1000
0000
,
0001
0001
0001
0010
,
0100
1000
0001
0000
,
0100
0100
0100
0001
,
1000
0010
0100
0000
,
1000
0000
1000
0000
,
0001
0000
0001
0000
,
0010
0100
0010
0100
,
0110
0000
0000
0000
;

//---------------dance-single - ----------------
#NOTES:
     dance-single:
     :
     Beginner:
     1:
     0.081447,0.131569,0.008771,0.026314,0.000000,65.000000,64.000000,1.000000,3.000000,0.000000,0.000000,0.081447,0.131569,0.008771,0.026314,0.000000,65.000000,64.000000,1.000000,3.000000,0.000000,0.000000:
0000
0000
0000
0000
,
0000
0000
0000
0000
,
0000
0000
0000
0000
,
0000
0000
0000
0000
,
0000
0000
0000
0000
,
0000
0000
0000
0000
,
0000
0000
0000
0000
,
0000
0000
0000
0000
,
1000
0000
0000
0000
,
1000
0000
0000
0000
,
0100
0000
0000
0000
,
0010
0000
0000
0000
,
0100
0000
0000
0000
,
0100
0000
0000
0000
,
0001
0000
0000
0000
,
1000
0000
0000
0000
,
0200
0000
0300
0000
,
0100
0000
0000
0000
,
0020
0000
0030
0000
,
0010
0000
0000
0000
,
1000
0000
0000
0000
,
1000
0000
0000
0000
,
0001
0000
0000
0000
,
0001
0000
1000
0000
,
0100
0000
0000
0000
,
0010
0000
0000
0000
,
1000
0000
0100
0000
,
0010
0000
0001
0000
,
0100
0000
0000
0000
,
0010
0000
0000
0000
,
1000
0000
0100
0000
,
0010
0000
0001
0000
,
0100
0000
0000
0000
,
0100
0000
0000
0000
,
0200
0000
0000
0300
,
0100
0000
0000
0000
,
0010
0000
0000
0000
,
0100
0000
0000
0000
,
0010
0000
0000
0000
,
1000
0000
0000
0000
,
0001
0000
0000
0000
,
1000
0000
0000
0000
,
0001
0000
0000
0000
,
1000
0000
0000
0000
,
0100
0000
0000
0000
,
0010
0000
0000
0000
,
0001
0000
0000
0000
,
0100
0100
0100
0000
,
0000
0000
0000
0000
,
0001
0001
0001
0000
,
0000
0000
0000
0000
,
0010
0010
0010
0000
,
0000
0000
0000
0000
,
1000
1000
1000
0000
,
0000
0000
0000
0000
,
1000
0000
0001
0000
,
0100
0000
0000
0000
,
0100
0000
0000
0000
,
0100
0000
0000
0000
,
0100
0000
0100
0000
,
1001
0000
0000
0000
;

//---------------dance-single - ----------------
#NOTES:
     dance-single:
     :
     Medium:
     6:
     0.291957,0.342078,0.201738,0.149111,0.092098,233.000000,210.000000,23.000000,17.000000,0.000000,0.000000,0.291957,0.342078,0.201738,0.149111,0.092098,233.000000,210.000000,23.000000,17.000000,0.000000,0.000000:
0000
0000
0000
0000
,
0000
0000
0000
0000
,
0000
0000
0000
0000
,
0000
0000
0000
0000
,
0000
0000
0000
0000
,
0000
0000
0000
0000
,
0000
0000
0000
0000
,
0000
0000
0000
0000
,
0100
1000
0100
0010
,
0001
0000
0000
0100
0000
1000
0010
0000
0000
0000
0000
0000
,
1000
0100
0100
0010
,
0001
0000
0000
0100
0000
0010
2000
0000
0000
3001
0000
0000
,
0100
0100
0001
1100
,
0010
0000
0000
1000
0000
0001
0020
0000
0000
0130
0000
0000
,
1000
0100
0100
0010
,
1000
0000
0000
0001
0000
0100
0020
0000
0000
1030
0000
0000
,
0001
0000
0000
0000
0000
0001
0000
0000
0000
0000
0000
0000
,
0100
1001
0010
1001
,
1000
0000
0000
0000
0000
1000
0000
0000
0000
0000
0000
0000
,
1000
0110
0001
0110
,
1000
0100
1000
0001
,
0010
0001
0100
0100
,
0010
1000
0100
0010
,
0002
0000
0000
0003
,
1000
0000
0000
0001
0000
0000
0100
0000
0000
0100
0000
0010
,
1000
0100
0010
0100
,
0001
1100
0010
0101
,
1000
0000
0000
0100
0000
0000
0010
0000
0010
0000
0010
0000
,
1000
0000
0000
0001
0000
0000
0100
0000
0000
0100
0000
0010
,
1000
0100
0010
0100
,
0001
1100
0010
0101
,
1000
0000
0000
0100
0000
0000
0010
0000
0010
0000
0010
0000
,
1000
0000
0000
0000
,
1000
1000
0001
0001
,
0220
0000
0000
0330
,
0010
1010
0100
0010
,
1000
0011
1000
0100
,
0100
0110
1000
0100
,
1000
0000
1001
0000
0010
0000
0100
1000
,
0001
0011
1000
0001
,
0010
0101
0010
1000
,
1000
1001
0010
1000
,
0010
0000
0110
0000
0001
0000
1000
0010
,
1000
1100
0001
1000
,
0100
1010
0100
0001
,
0001
1001
0100
0001
,
0100
0000
0110
0000
1000
0000
0001
0100
,
0020
1000
0031
0100
,
0100
0000
0000
0001
0000
0001
2000
0000
0000
3010
0000
0000
,
0200
0001
1300
0010
,
0010
0000
0000
1000
0000
1000
0002
0000
0000
0103
0000
0000
,
2000
0100
3010
0001
,
0001
0000
0000
0010
0000
0010
0200
0000
0000
1300
0000
0000
,
0002
0010
0103
1000
,
1000
0000
0000
0100
0000
0100
0020
0000
0000
0031
0000
0000
,
2000
0001
3100
0010
,
0010
0000
0000
1000
0000
0001
0200
0000
0000
0310
0000
0000
,
1000
1000
0001
0001
,
1000
0000
0100
0000
0010
0000
0100
0000
0001
0000
0010
0000
,
0200
0000
0000
0300
,
0110
0000
0000
0000
;

//---------------dance-single - ----------------
#NOTES:
     dance-single:
     :
     Hard:
     8:
     0.402224,0.605215,0.166653,0.131569,0.399091,321.000000,302.000000,19.000000,15.000000,0.000000,0.000000,0.402224,0.605215,0.166653,0.131569,0.399091,321.000000,302.000000,19.000000,15.000000,0.000000,0.000000:
0000
0000
0000
0000
,
0000
0000
0000
0000
,
0000
0000
0000
0000
,
0000
0000
0000
0000
,
0000
0000
0000
0000
,
0000
0000
0000
0000
,
0000
0000
0000
0000
,
0000
0000
0000
0000
,
1001
0000
0001
0100
0000
0100
0010
0000
0010
1000
0000
0100
,
0010
0000
0000
0100
0000
0010
0200
0000
0000
0301
0000
1000
,
0100
0000
0010
1000
0000
0010
0001
0000
0100
0010
0000
1000
,
0100
0000
0000
0010
0000
1000
0200
0000
0000
1300
0000
0000
,
0110
0000
0010
0001
0000
0001
1000
0000
1000
0100
0000
0001
,
1000
0000
0000
0001
0000
1000
0002
0000
0000
0013
0000
0100
,
0001
0000
1000
0100
0000
1000
0010
0000
0001
1000
0000
0100
,
0001
0000
0000
1000
0000
0100
0002
0000
0000
0103
0000
0000
,
1000
0000
0000
0000
0000
1001
0000
0000
0000
0000
0000
0000
,
1000
0000
0100
0010
0000
1000
0200
0000
0000
0301
0000
0000
,
0010
0000
0000
0000
0000
0110
0000
0000
0000
0000
0000
0000
,
1000
0000
0100
0010
0000
1000
0100
0000
0101
0000
0011
0000
,
1001
0000
0000
1000
0000
0001
0100
0000
0010
1000
0000
0000
,
0110
0000
0100
1000
0000
1000
0001
0000
0100
0010
0000
0000
,
1100
0000
0001
0010
0000
0001
1000
0000
0100
0010
0000
0000
,
2000
0010
0100
3010
,
1000
1100
0001
0101
,
1000
0100
0010
0001
,
1000
0000
0010
0100
0000
0001
0010
0000
0001
1000
0000
0010
,
0100
0000
1000
0001
0000
1000
0010
0000
0100
0000
0011
0000
,
1000
1100
0001
0101
,
1000
0100
0010
0001
,
1000
0000
0010
0100
0000
0001
0010
0000
0001
1000
0000
0010
,
0100
0000
1000
0001
0000
1000
0010
0000
0100
0000
0011
0000
,
1000
0000
0000
0000
,
1000
0001
1000
0001
,
1000
0001
1000
0001
1000
0001
1000
0001
1000
0001
1000
0001
,
1000
0000
0100
0000
0010
0100
1000
0000
,
0001
0000
0001
0000
0010
1000
0001
0000
,
0100
0000
0010
0000
1000
1000
0100
0000
,
0010
0000
0001
0000
0100
0010
1000
0100
,
1000
0000
0010
0000
0100
0010
0010
0000
,
1000
0000
0100
0000
0001
1000
0100
0000
,
0010
0000
0001
0000
0100
0010
0100
0000
,
1000
0000
1000
0000
0001
0010
0100
1000
,
0001
0000
1100
0000
0010
1000
0001
0000
,
0100
0000
0100
0000
0010
0010
1000
0000
,
0100
0000
0010
0000
1000
0100
0001
0000
,
0010
0000
0100
0000
0001
0010
0100
0000
,
2000
0000
0000
0010
0000
0000
3100
0000
0000
0010
0000
1000
,
0001
0000
0100
0001
0000
0010
0200
0000
0000
0301
0000
0000
,
0020
0000
0000
0001
0000
0000
1030
0000
0000
0001
0000
0010
,
0100
0000
1000
0100
0000
0001
2000
0000
0000
3100
0000
0000
,
0002
0000
0000
0100
0000
0000
0013
0000
0000
0100
0000
0001
,
1000
0000
0010
1000
0000
0100
0020
0000
0000
1030
0000
0000
,
0200
0000
0000
1000
0000
0000
0301
0000
0000
1000
0000
0100
,
0010
0000
0001
0010
0000
1000
0002
0000
0000
0013
0000
0000
,
1001
0000
0000
0011
0000
0000
0110
0000
0000
1000
0000
0100
,
0010
0000
1000
0100
0000
0100
0020
0000
0000
1030
0000
0000
,
0001
1000
0001
1000
,
0001
1000
0001
1000
0001
1000
0001
1000
0001
1000
0000
0000
,
0001
1000
0001
1000
0001
1000
0001
1000
0001
1000
0001
1000
,
0001
0000
0000
0000
;

//---------------dance-single - ----------------
#NOTES:
     dance-single:
     :
     Challenge:
     12:
     0.493695,0.657843,0.149111,0.122797,0.714856,394.000000,377.000000,17.000000,14.000000,0.000000,0.000000,0.493695,0.657843,0.149111,0.122797,0.714856,394.000000,377.000000,17.000000,14.000000,0.000000,0.000000:
// measure 0
0000
0000
0000
0000
,  // measure 1
0000
0000
0000
0000
,  // measure 2
0000
0000
0000
0000
,  // measure 3
0000
0000
0000
0000
,  // measure 4
0000
0000
0000
0000
,  // measure 5
0000
0000
0000
0000
,  // measure 6
0000
0000
0000
0000
,  // measure 7
0000
0000
0000
0000
,  // measure 8
1100
0000
0000
0010
1000
0100
1000
0010
0100
0001
0000
0000
,  // measure 9
1000
0100
1000
0100
0000
0000
0100
0010
0100
0010
0000
0000
,  // measure 10
1000
0001
0100
0010
1000
0100
0010
0001
0100
1000
0000
0000
,  // measure 11
0001
0010
0001
0010
0000
0000
0100
1000
0100
1000
0000
0000
,  // measure 12
0001
0000
0010
0100
0000
0001
1000
0100
0010
0100
0000
1000
,  // measure 13
0100
0010
0100
0010
0000
1000
0001
0000
0100
0010
0000
1000
,  // measure 14
0100
1000
0001
0010
0100
0010
2000
0000
0000
3001
0000
0000
,  // measure 15
0010
0000
1000
1100
0000
0001
0201
0000
0000
0310
0000
0000
,  // measure 16
1000
0000
0100
0000
0000
0100
0000
0000
0000
1001
0000
0000
,  // measure 17
1000
0100
0010
1000
0000
0100
0010
0000
1000
0100
0001
1000
,  // measure 18
0010
0000
0100
0000
0000
0100
0000
0000
0000
0110
0000
0000
,  // measure 19
1000
0001
1000
0010
0000
0100
0010
0000
1100
0000
0101
0000
,  // measure 20
1001
0000
0000
0100
1000
0100
0010
0100
1000
0001
0000
0000
,  // measure 21
1000
0100
1000
0010
0000
0000
0001
0010
0100
1000
0000
0000
,  // measure 22
0100
0001
0010
0100
0010
1000
0100
0000
0001
0010
0000
0000
,  // measure 23
1000
0000
1000
0100
0000
0100
0010
0000
0010
0001
0000
0000
,  // measure 24
0200
0000
0000
1000
0000
0000
0001
0000
0000
1300
0000
0001
,  // measure 25
0010
0000
0010
1000
0000
0100
0010
0000
0000
0110
0000
0000
,  // measure 26
1000
0100
0100
0001
0010
0001
0100
0010
0100
1000
0100
0010
,  // measure 27
0001
0100
0010
0100
0001
1000
0010
0000
1010
0000
0011
0000
,  // measure 28
0020
0000
0000
0001
0000
0000
1000
0000
0000
0031
0000
1000
,  // measure 29
0100
0000
0100
0001
0000
0010
0100
0000
0000
0110
0000
0000
,  // measure 30
0001
0010
0010
1000
0100
1000
0010
0100
0010
0001
0010
0100
,  // measure 31
1000
0010
0100
0010
1000
0001
0100
0000
0101
0000
1100
0000
,  // measure 32
0200
0000
0000
0300
,  // measure 33
1000
0001
1000
0001
,  // measure 34
1000
0001
1000
0001
1000
0001
1000
0001
1000
0001
1000
0001
,  // measure 35
1000
0000
0000
0100
0000
0000
0001
0000
0010
0000
0100
0000
1000
0000
0000
0000
,  // measure 36
0010
0000
0000
0100
0000
0000
0010
0000
1000
0000
0001
0000
0100
0000
0000
0000
,  // measure 37
0010
0000
0000
0001
0000
0000
0100
0000
0010
0000
1000
0000
0001
0000
0000
0000
,  // measure 38
0100
0000
0000
1000
0000
0000
0010
0000
0100
0000
1000
0000
0001
0000
1000
0001
,  // measure 39
0100
0000
0000
0001
0000
0000
0010
0000
1000
0000
0001
0000
0100
0000
0000
0000
,  // measure 40
1000
0000
0000
0001
0000
0000
1000
0000
0100
0000
0010
0000
0001
0000
0000
0000
,  // measure 41
1000
0000
0000
0010
0000
0000
0001
0000
1000
0000
0100
0000
0010
0000
0000
0000
,  // measure 42
0001
0000
0000
0100
0000
0000
1000
0000
0001
0000
0100
0000
0010
0000
0100
0010
,  // measure 43
0001
0000
0000
0010
0000
0000
1000
0000
0100
0000
0010
0000
0001
0000
0000
0000
,  // measure 44
0100
0000
0000
0010
0000
0000
0100
0000
0001
0000
1000
0000
0010
0000
0000
0000
,  // measure 45
0100
0000
0000
1000
0000
0000
0010
0000
0100
0000
0001
0000
1000
0000
0000
0000
,  // measure 46
0010
0000
0000
0001
0000
0000
0100
0000
0010
0000
0001
0000
1000
0000
0001
1000
,  // measure 47
0020
0000
0000
1000
0000
0000
0130
0000
1000
0001
0000
0100
,  // measure 48
0010
1000
0100
0010
0000
1000
0002
0000
0000
1003
0000
0000
,  // measure 49
2000
0000
0000
0100
0000
0000
3001
0000
0100
0010
0000
0001
,  // measure 50
1000
0100
0001
1000
0000
0100
0020
0000
0000
0130
0000
0000
,  // measure 51
0200
0000
0000
0001
0000
0000
0310
0000
0001
1000
0000
0010
,  // measure 52
0100
0001
0010
0100
0000
0001
2000
0000
0000
3001
0000
0000
,  // measure 53
0002
0000
0000
0010
0000
0000
1003
0000
0010
0100
0000
1000
,  // measure 54
0001
0010
1000
0001
0000
0010
0200
0000
0000
0310
0000
0000
,  // measure 55
1100
0000
0000
0110
0000
0000
0011
0000
1000
0100
0000
0010
,  // measure 56
0001
0010
0100
1000
0000
0001
0020
0000
0000
0031
0000
0000
,  // measure 57
1000
0100
0010
0001
,  // measure 58
1000
0100
0010
0001
1000
0100
0010
0001
1000
0100
0010
0001
,  // measure 59
1000
0010
0100
0001
1000
0010
0100
0001
1000
0010
0100
0001
,  // measure 60
1000
0000
0000
0000
;
