#TITLE:INSERTiON(X-Special);
#SUBTITLE:;
#ARTIST:NAOKI underground;
#TITLETRANSLIT:;
#SUBTITLETRANSLIT:;
#ARTISTTRANSLIT:;
#GENRE:;
#CREDIT:;
#BANNER:INSERTiON(X-Special).png;
#BACKGROUND:INSERTiON(X-Special)-bg.png;
#LYRICSPATH:;
#CDTITLE:cdtitle.png;
#MUSIC:INSERTiON(X-Special).ogg;
#OFFSET:0.000000;
#SAMPLESTART:70.168999;
#SAMPLELENGTH:15.000000;
#SELECTABLE:YES;
#DISPLAYBPM:110.000000:225.000000;
#BPMS:0.000000=139.147995
,4.000000=139.490005
,100.000000=128.570999
,101.000000=111.111000
,103.000000=113.924004
,104.000000=116.883003
,106.000000=120.000000
,107.000000=123.288002
,109.000000=126.761002
,111.000000=130.434998
,112.000000=132.352997
,113.000000=134.328003
,114.000000=136.363998
,116.000000=140.625000
,117.000000=138.462006
,118.000000=136.363998
,119.000000=134.328003
,120.000000=130.434998
,122.000000=126.761002
,123.000000=121.622002
,124.000000=118.420998
,125.000000=121.622002
,126.000000=124.999992
,127.000000=130.434998
,128.000000=134.328003
,129.000000=138.462006
,130.000000=140.625000
,131.000000=147.541000
,132.000000=150.000000
,133.000000=139.507996
,213.000000=163.636002
,214.000000=169.811005
,215.000000=180.000000
,216.000000=187.500000
,218.000000=195.651993
,219.000000=200.000000
,220.000000=204.544998
,221.000000=209.302002
,222.000000=214.285995
,223.000000=225.000000
;
#STOPS:100.000000=1.387000
;
#BGCHANGES:;
#KEYSOUNDS:;
#ATTACKS:;

//---------------dance-single - ----------------
#NOTES:
     dance-single:
     :
     Challenge:
     14:
     0.455848,0.592911,0.105406,0.143736,0.632438,333.000000,322.000000,11.000000,15.000000,0.000000,0.000000,0.455848,0.592911,0.105406,0.143736,0.632438,333.000000,322.000000,11.000000,15.000000,0.000000,0.000000:
// measure 0
0000
0000
0000
0000
,  // measure 1
0000
0000
0000
0000
,  // measure 2
0000
0000
0000
0000
,  // measure 3
0000
0000
0000
0000
,  // measure 4
0000
0000
0000
0000
,  // measure 5
1000
0100
1000
0001
0000
0100
0000
0000
0000
0000
0000
0000
0000
0000
0000
0000
,  // measure 6
1000
0010
0100
0001
0000
1000
0000
0000
0000
0000
0000
0000
0000
0110
0000
0000
,  // measure 7
0001
0010
0100
1000
0000
0010
0000
0000
0000
0000
0000
0000
0000
0000
0000
0000
,  // measure 8
1000
0001
0100
0010
0000
0100
0000
0000
0000
0000
0000
0000
0000
1001
0000
0000
,  // measure 9
1000
0001
1000
0100
0000
0001
0000
0000
0000
0000
0000
0000
0002
0000
0000
0000
,  // measure 10
0100
0000
0000
1000
0000
0000
0100
0000
0000
0100
0000
0000
1000
0000
1000
0000
,  // measure 11
0103
0001
0010
0100
0000
1000
0000
0000
0100
0000
0000
0000
0010
0000
0000
0000
,  // measure 12
1000
0100
0000
0010
0100
0000
0001
1000
0000
1000
0001
0000
0100
0000
0100
0000
,  // measure 13
0001
0010
0001
0010
0000
0001
0000
0000
1000
0000
0000
0000
1100
0000
0000
0000
,  // measure 14
0010
0001
0000
1000
0100
0000
0010
0100
0000
0001
1000
0000
1000
0000
0100
0000
,  // measure 15
0010
1000
0010
1000
0000
0100
0000
0000
0010
0000
0000
0000
0001
0000
0000
0000
,  // measure 16
1000
0100
0000
0010
0100
0000
1000
0001
0000
0010
0100
0000
1000
0001
1000
0010
,  // measure 17
0001
0000
1000
0100
0010
0000
0200
0000
0000
0000
0001
0000
0000
0000
1000
0000
,  // measure 18
0000
0000
0010
0000
0000
0000
0310
0000
0000
1000
0100
0001
0000
0000
0100
0000
,  // measure 19
1000
0000
0001
1000
0010
0000
2000
0000
0000
0000
0010
0000
0000
0000
0001
0000
,  // measure 20
0000
0000
0100
0000
0000
0000
3100
0000
0000
0010
0001
1000
0000
0000
1000
0000
,  // measure 21
0010
0000
0100
0001
1000
0000
0002
0000
0000
0000
0010
0000
0000
0000
0100
0000
,  // measure 22
0000
0000
1000
0000
0000
0000
1003
0000
0000
0100
0001
0010
0000
0000
0001
0000
,  // measure 23
0100
0000
0010
0100
1000
0000
0200
0000
0000
0000
1000
0000
0000
0000
0010
0000
,  // measure 24
0000
0000
0001
0000
0000
0000
0301
0000
0000
1000
0010
0100
0000
0000
0100
0000
,  // measure 25
0220
0330
0000
0000
0000
0000
0000
0000
0000
0000
0000
0000
0000
0000
0000
0000
0000
0000
0000
0000
0000
0000
0000
0000
0000
0000
0000
0000
0000
0000
0000
0000
0000
0000
0000
0000
0000
0000
0000
0000
0000
0000
0000
0000
0000
0000
0000
0000
0000
0000
0000
0000
0000
0000
0000
0000
0000
0000
0000
0000
0000
0000
0000
0000
,  // measure 26
0000
0000
0000
0200
,  // measure 27
0302
0000
0023
0000
0000
0200
0000
0000
,  // measure 28
0000
0000
0000
0000
,  // measure 29
0000
0000
0000
0000
0000
0000
0000
0000
0300
0000
0000
0000
1000
0000
0000
1000
,  // measure 30
0000
1000
0000
0000
0000
0230
0000
0000
,  // measure 31
0302
0000
0000
0000
0023
0000
0000
0000
0000
0000
1000
0000
1000
0000
0000
1000
,  // measure 32
0000
1000
0000
0000
0000
0000
0000
0000
,  // measure 33
0030
0000
0000
0000
,  // measure 34
0000
0000
0000
0000
,  // measure 35
0000
0000
0000
0000
1000
0100
1000
0001
0000
0100
0000
0000
0010
0001
0100
0010
,  // measure 36
0000
0100
0000
0000
1000
0100
0010
0001
0000
1000
0000
0000
0001
0100
0000
1000
,  // measure 37
0000
0000
0000
0000
0001
0010
1000
0001
0000
0010
0000
0000
0100
1000
0010
0100
,  // measure 38
0000
0010
0000
0000
0100
0001
0010
0001
0000
1000
0000
0000
0100
0001
0000
0010
,  // measure 39
0000
0000
0000
0000
1000
0000
0100
0010
0000
0010
0001
0000
0001
0100
0000
0100
,  // measure 40
1000
0000
1000
0000
0100
0000
0001
1000
0000
1000
0010
0000
0010
0001
0000
0001
,  // measure 41
0100
0000
0100
0000
0010
0000
1000
0001
0000
0001
0100
0000
0100
1000
0000
1000
,  // measure 42
0010
0000
0010
0000
0001
0000
0010
0100
0000
0100
1000
0000
1000
0010
0000
0010
,  // measure 43
0001
0000
0001
0000
1000
0000
0100
0010
0000
0010
0001
0000
0001
0100
0000
0100
,  // measure 44
1000
0000
1000
0000
0100
0000
0001
1000
0000
1000
0010
0000
0010
0001
0000
0001
,  // measure 45
0100
0000
0100
0000
0010
0000
1000
0001
0000
0001
0100
0000
0100
1000
0000
1000
,  // measure 46
0010
0000
0010
0000
0001
0000
0010
0100
0000
0100
1000
0000
1000
0010
0000
0010
,  // measure 47
0001
0000
0001
0000
0100
0001
0100
0010
0000
0001
0000
0000
1000
0010
0001
1000
,  // measure 48
0000
0001
0000
0000
0100
0001
1000
0010
0000
0100
0000
0000
0010
0001
0000
0100
,  // measure 49
0000
0000
0000
0000
0010
1000
0100
0010
0000
1000
0000
0000
0001
0100
1000
0001
,  // measure 50
0000
1000
0000
0000
0001
0010
1000
0010
0000
0100
0000
0000
0001
0010
0000
1000
,  // measure 51
0000
0002
0000
0000
,  // measure 52
0000
0100
0010
0100
,  // measure 53
0013
1000
1010
0101
,  // measure 54
1001
0000
0011
0000
0011
0000
0001
0010
,  // measure 55
1000
1100
0000
0000
,  // measure 56
0000
1001
0000
0000
;
