#VERSION:0.83;
#TITLE:IBIZA DANCE;
#SUBTITLE:;
#ARTIST:ROUPA NOVA;
#TITLETRANSLIT:;
#SUBTITLETRANSLIT:;
#ARTISTTRANSLIT:;
#GENRE:;
#ORIGIN:;
#CREDIT:;
#BANNER:Ibiza Dance.png;
#BACKGROUND:Ibiza Dance-bg.png;
#PREVIEWVID:;
#JACKET:Ibiza Dance-jacket.png;
#CDIMAGE:;
#DISCIMAGE:;
#LYRICSPATH:;
#CDTITLE:cdtitle.png;
#MUSIC:Ibiza Dance.ogg;
#OFFSET:-0.079000;
#SAMPLESTART:34.636002;
#SAMPLELENGTH:18.000000;
#SELECTABLE:YES;
#DISPLAYBPM:125.000000;
#BPMS:0.000=125.010;
#STOPS:;
#DELAYS:;
#WARPS:;
#TIMESIGNATURES:0.000=4=4;
#TICKCOUNTS:0.000=4;
#COMBOS:0.000=1;
#SPEEDS:0.000=1.000=0.000=0;
#SCROLLS:0.000=1.000;
#FAKES:;
#LABELS:0.000=Song Start;
#BGCHANGES:;
#KEYSOUNDS:;
#ATTACKS:
;

//---------------dance-single - ----------------
#NOTEDATA:;
#CHARTNAME:;
#STEPSTYPE:dance-single;
#DESCRIPTION:;
#CHARTSTYLE:;
#DIFFICULTY:Beginner;
#METER:2;
#RADARVALUES:0.116501,0.222808,0.072813,0.077667,0.000000,168.000000,153.000000,15.000000,16.000000,0.000000,0.000000,0.000000,0.000000,0.000000,0.116501,0.222808,0.072813,0.077667,0.000000,168.000000,153.000000,15.000000,16.000000,0.000000,0.000000,0.000000,0.000000,0.000000;
#CREDIT:kater15;
#DISPLAYBPM:125.000000;
#NOTES:
0000
0000
0000
0000
,
0000
0000
0000
0000
,
0000
0000
0000
0000
,
0000
0000
0000
0000
,
1001
0000
0000
0000
,
1001
0000
0000
0000
,
0110
0000
0000
0000
,
0110
0000
0000
0000
,
0100
0000
0100
0000
,
0002
0000
0000
0000
,
0003
0000
0000
0000
,
1000
0000
0000
0000
,
0100
0000
0010
0000
,
0100
0000
0000
0000
,
0001
0000
0010
0000
,
0010
0000
0100
0000
,
0010
0000
0000
0000
,
1000
0000
1000
0000
,
0001
0000
0000
0000
,
0020
0000
0030
0000
,
0100
0000
0001
0000
,
2000
0000
3000
0000
,
0010
0000
0100
0000
,
0002
0000
0003
0000
,
0100
0000
0010
0000
,
1000
1000
1000
1000
,
1000
0000
0000
0000
,
0002
0000
0000
0000
,
0000
0000
0003
0000
,
2000
0000
0000
0000
,
0000
0000
3000
0000
,
1001
0000
0000
0000
,
0100
0000
0010
0000
,
0001
0000
0000
0000
,
1000
0000
0001
0000
,
0200
0000
0300
0000
,
0010
0000
0001
0000
,
0100
0000
0000
0000
,
0010
0000
0100
0000
,
0001
0000
0001
0000
,
1000
0000
1000
0000
,
0010
0000
0010
0000
,
0100
0000
0100
0000
,
0001
0000
1000
0000
,
0010
0000
0100
0000
,
0001
0001
0001
0001
,
0001
0000
0000
0000
,
0200
0000
0000
0000
,
0000
0000
0300
0000
,
0020
0000
0000
0000
,
0000
0000
0030
0000
,
0010
0010
0010
0000
,
0000
0000
0000
0000
,
0001
0001
0001
0000
,
0000
0000
0000
0000
,
0100
0100
0100
0000
,
0000
0000
0000
0000
,
1000
1000
1000
0000
,
0010
0000
0100
0000
,
0010
0010
0010
0000
,
1000
0000
0100
0000
,
0001
0001
0001
0000
,
0010
0000
1000
0000
,
0100
0100
0100
0000
,
0001
0000
0010
0000
,
1000
1000
1000
0000
,
0001
0001
0001
0000
,
1000
0000
0001
0000
,
1000
0000
0001
0000
,
1001
0000
0110
0000
,
1001
0000
0110
0000
,
0100
0000
0000
0000
,
0020
0000
0000
0000
,
0030
0000
0000
0000
,
1000
0000
0000
0000
,
0010
0000
0110
0000
,
0100
0000
0000
0000
,
0001
0000
1001
0000
,
1000
0000
0000
0000
,
0100
0000
1001
0000
,
0010
0000
0000
0000
,
1000
0000
0110
0000
,
0001
0000
1000
0000
,
0200
0000
0000
0300
,
0100
0000
0001
0000
,
2000
0000
0000
3000
,
1000
0000
0100
0000
,
0020
0000
0000
0030
,
0010
0010
0010
0010
,
0010
0000
0000
0000
,
2000
0000
0000
0000
,
0000
0000
3000
0000
,
0002
0000
0000
0000
,
0000
0000
0003
0000
,
0110
0000
0000
0000
,
1000
0000
0100
0000
,
0020
0000
0000
0000
,
0000
0000
0030
0000
,
0100
0000
1000
0000
,
0100
0000
0010
0000
,
0001
0001
0001
0001
,
0001
0000
0000
0000
,
0110
0000
0000
0000
;

//---------------dance-single - ----------------
#NOTEDATA:;
#CHARTNAME:;
#STEPSTYPE:dance-single;
#DESCRIPTION:;
#CHARTSTYLE:;
#DIFFICULTY:Easy;
#METER:5;
#RADARVALUES:0.208731,0.321834,0.194168,0.174751,0.000000,301.000000,261.000000,40.000000,36.000000,0.000000,0.000000,0.000000,0.000000,0.000000,0.208731,0.321834,0.194168,0.174751,0.000000,301.000000,261.000000,40.000000,36.000000,0.000000,0.000000,0.000000,0.000000,0.000000;
#CREDIT:kater15;
#DISPLAYBPM:125.000000;
#NOTES:
0000
0000
0000
0000
,
0000
0000
0000
0000
,
0000
0000
0000
0000
,
0000
0000
0000
0000
,
1001
0000
1001
0000
,
1001
0000
1001
0000
,
0110
0000
0110
0000
,
0110
0000
0110
0000
,
1000
0000
0001
0000
,
0100
0000
0000
0001
0000
0000
0001
0000
,
1000
0000
0000
0010
0000
0000
0000
0000
,
0100
0000
1000
0100
,
0010
0000
0001
0100
,
0010
1001
0100
1001
,
0020
1000
0100
0130
,
0001
0000
1000
0000
,
0100
0000
0010
0000
,
1000
1001
0000
0010
,
0100
0100
0001
0010
,
0200
0000
0000
1000
,
1300
0000
0001
1000
,
0020
0000
0130
1000
,
1001
0000
0010
0010
,
0002
0000
1003
0000
,
0100
0000
0010
0000
,
1000
0100
0010
0001
,
2002
0000
0000
3003
,
0200
0000
0000
0000
,
0000
0300
0100
0100
,
0002
0000
0000
0000
,
0000
0003
0001
0001
,
1000
0000
0100
0000
,
0010
0000
0100
0110
,
2000
0000
3000
0000
,
1000
0001
1000
0001
,
0010
0000
0220
0000
,
0330
0000
0100
0100
,
1000
0000
0001
0000
,
0100
0010
1000
0100
,
0020
0000
0000
0001
,
0031
0000
0100
1000
,
0020
0000
0130
1000
,
1001
0010
0010
0001
,
0200
0000
1300
0001
,
0110
0000
0100
0000
,
1000
0100
0010
0001
,
2002
0000
0000
3003
,
0200
0000
0000
0000
,
0000
0300
0100
0100
,
0002
0000
0000
0000
,
0000
0003
0001
0001
,
1000
0000
0000
1000
0000
0000
0000
0000
,
0001
0010
1000
0100
,
0020
0000
0130
0000
,
0010
0001
0100
1000
,
0001
0000
0000
0001
0000
0000
0000
0000
,
1000
0100
0001
0010
,
0200
0000
0310
0000
,
1001
0010
0110
1000
,
0100
1001
0010
1001
,
0100
0001
0010
0100
,
1000
0110
0001
0110
,
1000
0100
1000
0001
,
0010
1001
0100
1001
,
0010
1000
0100
0010
,
0001
0110
1000
0110
,
0002
0000
2000
3003
,
0100
0000
0010
0000
,
1000
0001
0001
1000
,
0100
0000
0010
0000
,
0001
0001
0010
0010
,
0100
0000
0001
0000
,
1000
0000
0000
0001
0000
0000
1000
0000
,
0001
0000
0000
0100
0000
0000
0000
0000
,
0020
0000
0000
0030
,
0010
1000
0100
0100
,
0002
0000
1000
1003
,
0100
0010
0000
1000
,
0100
0010
0000
0110
,
1000
0100
0100
1001
,
0001
0000
1000
0000
,
0100
0001
0100
1000
,
0010
0000
0001
1001
,
2000
0000
0001
3000
,
0100
0001
0010
0110
,
0200
0000
1000
0300
,
0001
0000
1000
1001
,
0002
0000
0010
0003
,
1000
0100
0010
0001
,
2002
0000
0000
3003
,
0200
0000
0000
0000
,
0000
0300
0100
0100
,
0002
0000
0000
0000
,
0000
0003
0001
0001
,
1000
0000
1000
1001
,
1001
0000
0100
0001
,
0200
0000
0302
0000
,
0023
0000
0030
0000
,
1000
1001
0100
0110
,
0001
0100
0100
0010
,
1000
0100
0010
0001
,
2002
0000
0000
3003
,
1001
0000
0000
0000
;

//---------------dance-single - ----------------
#NOTEDATA:;
#CHARTNAME:;
#STEPSTYPE:dance-single;
#DESCRIPTION:;
#CHARTSTYLE:;
#DIFFICULTY:Medium;
#METER:9;
#RADARVALUES:0.304428,0.396103,0.228148,0.194168,0.038834,439.000000,392.000000,47.000000,40.000000,0.000000,0.000000,0.000000,0.000000,0.000000,0.304428,0.396103,0.228148,0.194168,0.038834,439.000000,392.000000,47.000000,40.000000,0.000000,0.000000,0.000000,0.000000,0.000000;
#CREDIT:kater15;
#DISPLAYBPM:125.000000;
#NOTES:
0000
0000
0000
0000
,
0000
0000
0000
0000
,
0000
0000
0000
0000
,
0000
0000
0000
0000
,
1000
1001
0001
1001
,
1000
1001
0001
1001
,
0100
0110
0010
0110
,
0100
0110
0010
0110
,
1000
0100
0010
0001
,
1100
0000
0000
0001
0000
0000
1000
0100
,
0001
0000
0000
1001
0000
0000
1000
0100
,
0020
0000
1000
0000
0130
0000
0100
1000
,
0001
0010
0100
0000
,
1000
0000
0100
0000
,
1000
0100
1000
0000
0001
0100
0001
0000
,
1100
0000
0010
0000
,
0100
0000
0000
0000
0000
0000
0000
0000
1000
0000
0000
1000
0000
0000
1000
0000
,
0100
2001
0000
3010
,
0100
1000
0100
0000
0010
0001
0100
0010
,
2000
0000
3010
0110
,
0001
0000
0100
1000
,
0001
0000
0001
1000
0010
0000
0100
0010
,
0100
0000
0000
1000
2000
0000
0010
0000
,
0100
0100
0001
0002
,
3003
0000
0000
0000
0000
0000
0100
0000
0000
0100
0000
0000
0100
0000
0000
0000
,
1000
1010
0001
0011
,
1000
0000
0000
0100
0000
0000
2200
0000
0000
0000
0000
0000
3300
0000
0000
0000
,
0002
1000
0000
1000
,
0000
0000
1003
0000
0001
1000
0001
0000
,
0200
0010
0000
0010
,
0000
0000
0310
0000
0100
0010
0100
0000
,
1001
0000
0000
0000
0000
0001
0010
0100
,
1000
0100
0010
0010
,
0202
0303
0000
0010
,
1000
0100
1000
0000
0001
1000
0001
0000
,
2010
0000
3001
0010
,
0011
0000
0000
0000
0000
0000
0100
0000
0001
0000
0000
0001
0000
0000
0001
0000
,
1000
0120
0000
1030
,
0001
0100
0001
0000
1000
0010
0001
1000
,
0200
0000
1300
1001
,
0010
0000
0001
0100
,
0010
0000
0010
0100
1000
0000
0001
1000
,
0001
0000
0000
0100
0200
0000
1000
0000
,
0001
0001
0010
0020
,
0330
0000
0000
0000
0000
0000
0001
0000
0000
0001
0000
0000
0001
0000
0000
0000
,
1000
1010
0001
0011
,
1000
0000
0000
0100
0000
0000
2200
0000
0000
0000
0000
0000
3300
0000
0000
0000
,
0002
1000
0000
1000
,
0000
0000
1003
0000
0001
1000
0001
0000
,
0200
0010
0000
0010
,
0000
0000
0310
0000
0100
0010
0100
0000
,
1000
0100
1000
0100
0001
0100
0001
0000
,
0200
0000
0000
0300
,
0001
0100
1000
0000
1100
0000
0000
0000
,
0020
0000
0000
0030
,
0001
0100
0001
0100
1000
0100
1000
0000
,
0200
0000
0000
0300
,
0001
0000
0000
1000
0000
0000
0001
0000
0000
0000
0000
0000
0000
0000
0000
0000
,
1001
0100
0110
0001
,
1000
0100
1000
0100
0001
0100
0001
0000
,
0200
1000
0001
1300
,
0001
0100
1000
0000
1100
0000
0000
0000
,
0020
1000
0001
1030
,
0001
0100
0001
0100
1000
0100
1000
0000
,
0200
0000
0000
0000
0001
0000
0000
0000
0000
0000
1000
0000
0000
1000
0000
0000
,
1300
0000
0000
0000
,
1000
0100
1000
0000
0001
0100
0001
0000
,
1000
0100
0010
0000
1000
0001
1000
0000
,
0001
1001
1000
1001
,
0010
0001
1000
0000
0100
0010
0010
0000
,
0100
0110
0010
0110
,
1000
1000
0010
0000
0100
0001
0001
0000
,
1100
0000
0000
0001
0000
0000
1000
0100
,
0001
0000
0000
1001
0000
0000
0000
0000
,
0010
0000
0000
0020
0000
0000
0000
0000
0000
0000
0000
0000
0000
0000
0000
0000
,
0030
0000
0001
0000
0000
0001
0000
0000
0001
0000
0000
0000
1000
0000
0000
0000
,
0020
0000
0100
0130
,
1000
0000
0100
0000
0001
0000
0000
0000
0000
0000
0100
0000
0000
0001
0000
0000
,
0020
0000
0000
0000
0000
0000
0000
0000
0030
0000
0100
0000
0000
1000
0000
0000
,
0020
0000
0000
0000
0000
0000
0000
0000
0030
0000
1000
0000
0000
0001
0000
0000
,
0200
0000
0300
0010
,
0100
0010
0100
0000
0000
0000
0000
0000
,
2001
0000
0100
0001
,
3010
0000
0000
0000
0000
0100
0000
0000
0001
0000
0000
0000
0010
0000
0100
0000
,
2000
0001
0100
0001
,
3010
0000
0100
0100
0001
1000
0100
0010
,
0002
0000
0100
1000
,
0013
0000
0100
0000
1000
0000
0010
0001
,
1000
1010
0001
0011
,
1000
0000
0000
0100
0000
0000
2200
0000
0000
0000
0000
0000
3300
0000
0000
0000
,
0002
1000
0000
1000
,
0000
0000
1003
0000
0001
1000
0001
0000
,
0200
0010
0000
0010
,
0000
0000
0310
0000
0100
0010
0100
0000
,
1000
0000
0000
0000
1000
0100
0001
0100
,
1000
0000
0000
0010
0100
0000
0011
0000
,
1000
0100
1000
0100
0001
0010
0001
0010
,
0100
0001
0100
0001
0010
0000
0000
0000
,
0100
1100
0001
0011
,
1000
0100
0010
0001
0100
0000
0110
0000
,
1000
1010
0001
0011
,
1000
0000
0000
0100
0000
0000
2200
0000
0000
0000
0000
0000
3300
0000
0000
0000
,
0101
0000
0000
0000
;

//---------------dance-single - ----------------
#NOTEDATA:;
#CHARTNAME:;
#STEPSTYPE:dance-single;
#DESCRIPTION:;
#CHARTSTYLE:;
#DIFFICULTY:Hard;
#METER:13;
#RADARVALUES:0.456989,0.693180,0.237856,0.174751,0.492702,659.000000,610.000000,49.000000,36.000000,0.000000,0.000000,0.000000,0.000000,0.000000,0.456989,0.693180,0.237856,0.174751,0.492702,659.000000,610.000000,49.000000,36.000000,0.000000,0.000000,0.000000,0.000000,0.000000;
#CREDIT:kater15;
#DISPLAYBPM:125.000000;
#NOTES:
// measure 0
0000
0000
0000
0000
,  // measure 1
0000
0000
0000
0000
,  // measure 2
0000
0000
0000
0000
,  // measure 3
0000
0000
0000
0000
,  // measure 4
1000
0000
0000
0010
0000
0000
1000
0000
0000
0100
0000
0000
0010
0000
0001
0000
,  // measure 5
0100
0000
0000
0010
0000
0000
0100
0000
0000
1000
0000
0000
0010
0000
0010
0000
,  // measure 6
1000
0000
0000
0001
0000
0000
0010
0000
0000
0100
0000
0000
1000
0000
0001
0000
,  // measure 7
0100
0000
0000
0010
0000
0000
0100
0000
0000
0001
0000
0000
0010
0000
0100
0000
,  // measure 8
1000
0000
0000
0001
0000
0000
0100
0000
0000
0010
0000
0000
1000
0000
0001
0000
,  // measure 9
0001
0000
0000
0000
0000
0000
1100
0000
0000
0000
0000
0000
0001
0100
0001
0100
,  // measure 10
0001
0000
0000
0000
0000
0000
1001
0000
0000
0000
0000
0000
0010
0000
1000
0100
,  // measure 11
0002
0000
0000
0000
1003
0000
0000
0000
0000
0000
0100
0010
0001
0000
1000
0001
,  // measure 12
0100
0000
0000
0000
0010
0000
0001
0010
0100
0000
0000
1100
0000
0000
0010
0000
,  // measure 13
0001
1000
0200
0000
0010
0000
0000
0000
0000
0000
0000
0000
0310
0000
0000
0000
,  // measure 14
0001
1000
0001
1000
0100
0010
0100
0010
1000
0100
1000
0100
,  // measure 15
0001
0000
0010
0100
1000
0000
0011
0000
,  // measure 16
1010
0000
0000
0000
0000
0000
0000
0000
0000
0000
0000
0000
0000
0000
0000
0000
0100
0000
0000
0000
0010
0000
0000
0000
0001
0000
0000
0000
0000
0000
0000
0000
0000
0100
0000
0000
0000
0000
0000
0000
0000
0000
1000
0000
0000
0000
0000
0000
,  // measure 17
0010
0000
0100
0001
0020
0000
0000
0000
0000
0000
0000
0000
0130
0000
0000
0000
,  // measure 18
1000
0000
0000
0000
0000
0000
0100
0000
0000
0001
0000
0000
0010
0000
0000
0000
0000
0000
0100
0000
0000
0010
0000
0000
0001
0000
0000
0000
0000
0000
0100
0000
0000
0001
0000
0000
1000
0000
0000
0000
0100
0000
0000
0000
0010
0000
0000
0000
,  // measure 19
0002
0000
0000
0100
0000
0000
1003
0000
0000
0100
0010
0001
,  // measure 20
0010
0000
0000
0000
0000
0000
0100
0000
0000
0010
0000
0001
0000
0100
0000
0000
1000
0000
0000
0000
0100
0000
0000
0000
,  // measure 21
0010
0000
0000
0010
0001
0010
0100
0000
0000
0100
0001
0010
,  // measure 22
0001
0000
0000
0000
0000
0000
0000
0000
0000
0000
0000
0000
0100
0000
0000
1000
0000
0000
0100
0000
0000
1000
0000
0000
0100
0000
0000
0000
0000
0000
0000
0000
0010
0000
0000
0000
0000
0000
0000
0000
0001
0000
0000
0000
0000
0000
0000
0000
,  // measure 23
0100
0000
1000
0000
0010
0000
0101
0000
0000
0100
1000
0010
,  // measure 24
0001
0000
0000
0000
1000
0010
0100
0000
0001
0000
0010
0000
,  // measure 25
1100
0101
0011
1010
,  // measure 26
1000
0001
0000
0100
0000
0010
0100
0000
0000
0000
0100
0000
1000
0100
0001
0000
,  // measure 27
0020
0000
1000
0000
0100
0000
1030
0100
,  // measure 28
0002
0000
0000
0000
0000
0000
1003
0000
0000
0000
0010
0000
0010
0000
0010
0100
,  // measure 29
0002
0000
0010
0000
1000
0000
0013
1000
,  // measure 30
0200
0000
0000
0000
0000
0000
0310
0000
0000
0000
0001
0000
0001
0000
0001
1000
,  // measure 31
0200
0000
0000
0000
0310
0000
0000
0000
0000
0000
1000
0001
0100
0000
0010
0100
,  // measure 32
1000
0000
0000
0000
0001
0000
0100
0001
1000
0000
0000
1010
0000
0000
0001
0000
,  // measure 33
0100
0010
2000
0000
0001
0000
0000
0000
0000
0000
0000
0000
3001
0000
0000
0000
,  // measure 34
0100
0010
0100
0010
1000
0001
1000
0001
0010
1000
0010
1000
,  // measure 35
0100
0000
0001
1000
0010
0000
0101
0000
,  // measure 36
0011
0000
0000
0000
0000
0000
0000
0000
0000
0000
0000
0000
0000
0000
0000
0000
1000
0000
0000
0000
0001
0000
0000
0000
0100
0000
0000
0000
0000
0000
0000
0000
0000
1000
0000
0000
0000
0000
0000
0000
0000
0000
0010
0000
0000
0000
0000
0000
,  // measure 37
0001
0000
1000
0100
0002
0000
0000
0000
0000
0000
0000
0000
1003
0000
0000
0000
,  // measure 38
0010
0000
0000
0000
0000
0000
1000
0000
0000
0100
0000
0000
0001
0000
0000
0000
0000
0000
1000
0000
0000
0001
0000
0000
0100
0000
0000
0000
0000
0000
1000
0000
0000
0100
0000
0000
0010
0000
0000
0000
1000
0000
0000
0000
0001
0000
0000
0000
,  // measure 39
0200
0000
0000
1000
0000
0000
0310
0000
0000
1000
0001
0100
,  // measure 40
0001
0000
0000
0000
0000
0000
1000
0000
0000
0001
0000
0100
0000
1000
0000
0000
0010
0000
0000
0000
1000
0000
0000
0000
,  // measure 41
0001
0000
0000
0001
0100
0001
1000
0000
0000
1000
0100
0001
,  // measure 42
0100
0000
0000
0000
0000
0000
0000
0000
0000
0000
0000
0000
1000
0000
0000
0010
0000
0000
1000
0000
0000
0010
0000
0000
1000
0000
0000
0000
0000
0000
0000
0000
0001
0000
0000
0000
0000
0000
0000
0000
0100
0000
0000
0000
0000
0000
0000
0000
,  // measure 43
1000
0000
0010
0000
0001
0000
1100
0000
0000
1000
0010
0001
,  // measure 44
0100
0000
0000
0000
0010
0001
1000
0000
0100
0000
0001
0000
,  // measure 45
1100
0101
0011
1010
,  // measure 46
1000
0001
0000
0100
0000
0010
0100
0000
0000
0000
0100
0000
1000
0100
0001
0000
,  // measure 47
0020
0000
1000
0000
0100
0000
1030
0100
,  // measure 48
0002
0000
0000
0000
0000
0000
1003
0000
0000
0000
0010
0000
0010
0000
0010
0100
,  // measure 49
0002
0000
0010
0000
1000
0000
0013
1000
,  // measure 50
0200
0000
0000
0310
0000
0000
1001
0000
,  // measure 51
1000
0100
0010
0001
0100
0000
1000
0100
0010
0001
0100
0000
1000
0000
0000
0000
,  // measure 52
0002
0000
0000
0003
,  // measure 53
1000
0100
0000
0010
0000
0100
0001
0000
1100
0000
0000
0000
0010
0000
0000
0000
,  // measure 54
2000
0000
0000
3000
,  // measure 55
0001
0010
0100
1000
0010
0000
0001
0010
0100
1000
0010
0000
0001
0000
0000
0000
,  // measure 56
2000
0000
0000
3000
,  // measure 57
1000
0010
0000
1000
0100
0000
0001
0100
0000
0000
0000
0000
0110
0000
0000
0000
,  // measure 58
1000
0001
0000
0000
1000
0001
0000
0000
0100
0000
0000
0000
0101
0000
0000
0000
,  // measure 59
1000
0100
0010
0001
0100
0000
1000
0100
0010
0001
0100
0000
1000
0000
0000
0000
,  // measure 60
0100
0010
0001
0100
0100
0010
0100
0010
,  // measure 61
1000
0100
0000
0010
0000
0100
0001
0000
1100
0000
0000
0000
0010
0000
0000
0000
,  // measure 62
1000
1000
0100
0001
0010
0001
0100
0010
,  // measure 63
0001
0010
0100
1000
0010
0000
0001
0010
0100
1000
0010
0000
0001
0000
0000
0000
,  // measure 64
2000
0000
0000
0000
0000
0000
0000
0000
3000
0000
0100
0000
0000
0100
0000
0000
,  // measure 65
1001
0000
0100
0000
,  // measure 66
1000
0000
0100
0000
0010
0000
0100
0000
0010
0000
0001
0000
1000
0100
0010
0000
,  // measure 67
0100
0000
0000
1000
0000
0000
0100
0000
0000
0001
0000
0000
1000
0000
0010
0000
,  // measure 68
0001
0000
0000
1000
0000
0000
0001
0000
0000
0100
0000
0000
1000
0000
1000
0000
,  // measure 69
0100
0000
0000
0010
0000
0000
1000
0000
0000
0001
0000
0000
0100
0000
0010
0000
,  // measure 70
0001
0000
0000
1000
0000
0000
0001
0000
0000
0010
0000
0000
1000
0000
0001
0000
,  // measure 71
0100
0000
0000
0010
0000
0000
0001
0000
0000
1000
0000
0000
0100
0000
0010
0000
,  // measure 72
0010
0000
0000
0000
0000
0000
0101
0000
0000
0000
0000
0000
0010
0001
0010
0001
,  // measure 73
0010
0000
0000
0110
0000
0000
0000
0000
,  // measure 74
1010
0000
0000
0020
0000
0000
0000
0000
0000
0000
0000
0000
0000
0000
0000
0000
,  // measure 75
0030
0000
0000
0000
0000
0000
0001
0000
0000
0000
0000
0000
0000
0000
0000
0010
0000
0000
0000
0000
0000
0000
0000
0000
0100
0000
0000
0000
0000
0000
0000
0000
0000
0000
0000
0000
0000
0000
0000
0000
0010
0000
0000
0000
0001
0000
0000
0000
,  // measure 76
2000
0000
0000
0000
3010
0100
0010
0100
,  // measure 77
0002
0000
0000
0000
0000
0000
0000
0000
0003
0000
0010
0000
0000
0101
0000
0000
,  // measure 78
2000
0000
0000
0000
0000
0000
0000
0000
3000
0000
0001
0000
0000
0011
0000
0000
,  // measure 79
0200
0000
0000
0000
0000
0000
0000
0000
0300
0000
1000
0000
0000
1001
0000
0000
,  // measure 80
0020
0000
0000
0000
0000
0000
0000
0000
0030
0000
1000
0100
0010
0000
0001
1000
,  // measure 81
0200
0000
0000
0000
0000
0000
0000
0000
0000
0000
0000
0000
0300
0000
0010
0001
,  // measure 82
0100
0000
1100
1001
,  // measure 83
0011
0000
0100
0000
0000
1000
0000
0000
0010
0000
0000
0000
0100
0000
0010
0001
,  // measure 84
1000
0001
0100
0000
0010
0000
0000
0000
0101
0000
0000
0000
0110
0000
0000
0000
,  // measure 85
2020
0000
0000
0000
3030
0000
1000
0100
,  // measure 86
0001
0000
1001
0101
,  // measure 87
0220
0000
0000
0330
,  // measure 88
1100
0101
0011
1010
,  // measure 89
1000
0001
0000
0100
0000
0010
0100
0000
0000
0000
0100
0000
1000
0100
0001
0000
,  // measure 90
0020
0000
1000
0000
0100
0000
1030
0100
,  // measure 91
0002
0000
0000
0000
0000
0000
1003
0000
0000
0000
0010
0000
0010
0000
0010
0100
,  // measure 92
0002
0000
0010
0000
1000
0000
0013
1000
,  // measure 93
0200
0000
0000
0000
0000
0000
0310
0000
0000
0000
0001
0000
0001
0000
0001
1000
,  // measure 94
0200
0000
0000
0000
0300
0000
0000
0000
0000
0000
0001
0010
1000
0000
0001
0100
,  // measure 95
1000
0000
0000
0000
0000
0000
0000
0000
0000
0000
0000
0000
0101
0000
0000
0000
0000
0000
0001
0000
0000
0100
0000
0000
0001
0000
0000
0000
0000
0000
0000
0000
0100
0000
0000
0000
0000
0000
0000
0000
0010
0000
0000
0000
0000
0000
0000
0000
,  // measure 96
1000
0001
1000
0001
1000
0001
1000
0001
0100
0001
0100
0001
0010
0001
0010
0001
,  // measure 97
1000
0000
0000
0001
0000
0000
1000
0000
0000
0001
0000
0000
0010
0000
0000
0001
0000
0000
0010
0000
0000
0001
0000
0000
0100
0000
0000
0000
0000
0000
0000
0000
0000
0000
0000
0000
0000
0000
0000
0000
0010
0000
0000
0000
0001
0000
0000
0000
,  // measure 98
1000
0000
0000
0100
0010
0001
0100
0000
0000
1000
0100
0010
,  // measure 99
0001
0100
0100
0010
0001
0100
0010
0000
0000
1000
0000
0000
,  // measure 100
1100
0101
0011
1010
,  // measure 101
1000
0001
0000
0100
0000
0010
0100
0000
0000
0000
0100
0000
1000
0100
0001
0000
,  // measure 102
1001
0000
0000
0000
;
