#TITLE:I Wanna Be Free;
#SUBTITLE:;
#ARTIST:Mumm feat. dhany;
#TITLETRANSLIT:;
#SUBTITLETRANSLIT:;
#ARTISTTRANSLIT:;
#GENRE:;
#CREDIT:;
#BANNER:I Wanna Be Free.png;
#BACKGROUND:I Wanna Be Free-bg.png;
#LYRICSPATH:;
#CDTITLE:cdtitle.png;
#MUSIC:I Wanna Be Free.ogg;
#OFFSET:-0.729000;
#SAMPLESTART:60.723999;
#SAMPLELENGTH:15.000000;
#SELECTABLE:YES;
#DISPLAYBPM:132.000000;
#BPMS:0.000000=132.009995
;
#STOPS:
;
#BGCHANGES:;
#KEYSOUNDS:;
#ATTACKS:;

//---------------dance-single - ----------------
#NOTES:
     dance-single:
     :
     Easy:
     3:
     0.177582,0.207713,0.032079,0.096238,0.000000,155.000000,151.000000,4.000000,12.000000,0.000000,0.000000,0.177582,0.207713,0.032079,0.096238,0.000000,155.000000,151.000000,4.000000,12.000000,0.000000,0.000000:
0000
0000
0000
0000
,
0000
0000
0000
0000
,
0000
0000
0000
0000
,
0000
0000
0000
0000
,
0000
0000
0000
0000
,
1000
0000
1000
0000
,
0001
0000
0001
0000
,
0100
0000
0100
0000
,
0010
0000
0010
0000
,
1000
0100
0100
0000
,
1000
0001
0010
0100
,
0010
0000
0010
0000
,
1000
0001
0010
0010
,
0100
0000
1000
0000
,
0001
1000
0001
0100
,
0001
0000
0001
0000
,
0200
0000
0000
0300
,
0000
0000
0100
0000
,
1000
0000
0001
0000
,
1000
0000
0010
0001
,
0100
0010
1000
0100
,
0010
0000
1000
0000
,
0100
0000
1001
0000
,
1000
0000
0001
0000
,
0010
0010
0100
0000
,
0001
0000
0000
0000
,
1000
0000
0100
0001
,
0020
0030
0010
0000
,
0100
0010
0110
1000
,
0001
0000
1000
0000
,
0100
0000
0002
0000
,
1003
0000
0001
0000
,
1000
0000
0001
0000
,
0100
0000
0001
0001
,
0001
0000
1000
0100
,
0001
0000
0001
0001
,
0002
0000
2003
0000
,
3100
0000
0001
0001
,
0001
0000
1000
0100
,
0001
0000
0001
0001
,
0002
0000
2003
0000
,
3100
0000
0001
0001
,
0001
0000
0100
1001
,
0010
0000
0001
0001
,
0002
0000
2003
0000
,
3010
0000
0001
0001
,
0001
0000
1000
0100
,
0001
0000
0001
0001
,
0002
0000
1003
0000
,
1000
0100
0100
0000
,
1000
0001
0010
0100
,
0010
0000
0010
0000
,
1000
0001
0010
0010
,
0100
0000
1000
0000
,
0001
1000
0001
0100
,
0001
0000
0001
0000
,
0100
0001
0100
0010
,
1000
0000
1000
0000
,
0100
0000
0100
0000
,
0001
0000
0001
0000
,
0010
0000
0010
0000
,
0100
0000
0100
0000
,
1000
0000
1000
0000
,
0001
0000
0001
0000
,
0220
0000
0000
0330
;

//---------------dance-single - ----------------
#NOTES:
     dance-single:
     :
     Beginner:
     1:
     0.084781,0.129821,0.032079,0.048119,0.000000,74.000000,70.000000,4.000000,6.000000,0.000000,0.000000,0.084781,0.129821,0.032079,0.048119,0.000000,74.000000,70.000000,4.000000,6.000000,0.000000,0.000000:
0000
0000
0000
0000
,
0000
0000
0000
0000
,
0000
0000
0000
0000
,
0000
0000
0000
0000
,
0000
0000
0000
0000
,
1000
0000
0000
0000
,
0001
0000
0000
0000
,
1000
0000
0000
0000
,
0001
0000
0000
0000
,
0100
0000
0000
0000
,
0100
0000
0100
0000
,
0010
0000
0000
0000
,
0010
0000
0010
0000
,
0001
0000
0000
0000
,
0001
0000
0001
0000
,
1000
0000
0000
0000
,
2000
0000
0000
0000
,
3000
0000
0000
0000
,
1000
0000
0000
0000
,
0010
0000
0000
0000
,
0100
0000
0001
0000
,
0010
0000
0000
0000
,
0100
0000
0000
0000
,
0001
0000
0000
0000
,
0010
0000
1000
0000
,
0100
0000
0000
0000
,
0020
0000
0000
0000
,
0030
0000
0000
0000
,
1000
0000
0001
0000
,
0001
0000
0000
0000
,
0100
0000
0000
0000
,
1000
0000
0000
0000
,
0100
0000
0010
0000
,
0010
0000
0000
0000
,
1001
0000
0000
0000
,
0010
0000
0000
0000
,
0010
0000
0100
0000
,
1000
0000
0000
0000
,
0110
0000
0000
0000
,
0001
0000
0000
0000
,
0200
0000
0300
0000
,
0010
0000
0000
0000
,
1001
0000
0000
0000
,
0010
0000
0000
0000
,
0010
0000
0100
0000
,
1000
0000
0000
0000
,
0110
0000
0000
0000
,
0001
0000
0000
0000
,
0200
0000
0300
0000
,
0100
0000
0000
0000
,
0100
0000
0100
0000
,
0010
0000
0000
0000
,
0010
0000
0010
0000
,
0001
0000
0000
0000
,
0001
0000
0001
0000
,
1000
0000
0000
0000
,
2000
0000
3000
0000
,
0100
0000
0000
0000
,
0010
0000
0000
0000
,
0100
0000
0000
0000
,
0010
0000
0000
0000
,
1000
0000
0000
0000
,
0001
0000
0000
0000
,
1000
0000
0000
0000
,
0002
0000
0000
0003
;

//---------------dance-single - ----------------
#NOTES:
     dance-single:
     :
     Medium:
     5:
     0.300171,0.311570,0.072178,0.048119,0.060149,262.000000,253.000000,9.000000,6.000000,0.000000,0.000000,0.300171,0.311570,0.072178,0.048119,0.060149,262.000000,253.000000,9.000000,6.000000,0.000000,0.000000:
0000
0000
0000
0000
,
0000
0000
0000
0000
,
0000
0000
0000
0000
,
0000
0000
0000
0000
,
0000
0000
0000
0000
,
1000
0100
1000
0100
,
0001
0010
0001
0010
,
0100
0010
0100
0010
,
2000
0001
0001
3001
,
0000
0000
0100
0000
0000
0100
0000
0000
0100
0000
0000
0000
0010
0000
0100
0000
,
0000
0000
1000
0000
0000
1000
0000
0000
1000
0000
0000
0000
0001
0000
1000
0000
,
0000
0000
0010
0000
0000
0010
0000
0000
0010
0000
0000
0000
0100
0000
0010
0000
,
0000
0000
0001
0000
0000
0001
0000
0000
0001
0000
0000
0000
1000
0000
0001
0000
,
0000
0000
1000
0000
0000
0100
0000
0000
0001
0000
0000
0000
1000
0000
0100
0000
,
0000
0000
0001
0000
0000
0100
0000
0000
1000
0000
0000
0000
0001
0000
0100
0000
,
0000
0000
0010
0000
0000
1000
0000
0000
0100
0000
0000
0000
1000
0000
0010
0000
,
0002
0000
0000
0003
,
0001
0000
0101
0000
0000
0100
0000
1000
,
0000
0010
0000
0101
0000
0001
0000
1000
,
0000
0010
0000
0010
0000
0100
0001
0100
,
0000
1000
0000
1100
0000
0001
0001
0001
,
0000
0100
0000
0100
0000
0010
1000
0100
,
0000
0010
0000
0002
0000
1000
0000
1003
,
0000
0100
0000
0100
0000
0010
1000
0100
,
0000
0001
0000
0010
0000
0001
0010
0000
,
1000
0000
1100
0000
0000
1000
0000
0200
,
0000
0001
0000
1300
0000
0100
0010
1000
,
0000
0001
0000
1000
0000
0010
0010
0001
,
0000
0010
0000
1000
0000
0010
0100
1000
,
0000
0101
0000
0010
0000
1000
0001
1000
,
0000
0010
0000
0001
0000
0100
0000
0011
,
0000
0100
0000
0100
0000
0010
0000
0100
,
0001
0000
1000
0100
1000
0000
0010
0001
,
1000
0000
0000
0000
0000
0000
0001
0100
,
1000
0000
0000
0000
0000
0000
0001
0010
,
1000
0000
0000
0000
0000
0000
0001
0100
,
1000
0000
0010
0010
0100
0000
0001
0010
,
1000
0000
0000
0000
0000
0000
0001
0100
,
1000
0000
0000
0000
0000
0000
0001
0010
,
1000
0000
0000
0000
0000
0000
0001
0100
,
1000
0010
1100
0101
,
1001
0000
0000
0000
0000
0000
0001
0100
,
1000
0000
0000
0000
0000
0000
0001
0010
,
1000
0000
0000
0000
0000
0000
0001
0100
,
1000
0000
0010
0010
0100
0000
0001
0010
,
1000
0000
0000
0000
0000
0000
0001
0100
,
1000
0000
0000
0000
0000
0000
0001
0010
,
1000
0000
0000
0000
0000
0000
0001
0100
,
2000
0000
0001
3001
,
0000
0000
0100
0000
0000
0100
0000
0000
0100
0000
0000
0000
0010
0000
0100
0000
,
0000
0000
1000
0000
0000
1000
0000
0000
1000
0000
0000
0000
0001
0000
1000
0000
,
0000
0000
0010
0000
0000
0010
0000
0000
0010
0000
0000
0000
0100
0000
0010
0000
,
0000
0000
0001
0000
0000
0001
0000
0000
0001
0000
0000
0000
1000
0000
0001
0000
,
0000
0000
1000
0000
0000
0100
0000
0000
0001
0000
0000
0000
1000
0000
0100
0000
,
0000
0000
0001
0000
0000
0100
0000
0000
1000
0000
0000
0000
0001
0000
0100
0000
,
0000
0000
0010
0000
0000
1000
0000
0000
0100
0000
0000
0000
1000
0000
0010
0000
,
0000
0000
0100
0000
0000
0001
0000
0000
1000
0000
0000
0000
0100
0000
0001
0000
,
1000
0001
1000
0001
,
0010
1000
0010
1000
,
0100
0001
0100
0001
,
0010
0100
0010
0100
,
1000
0100
1000
0100
,
0001
0010
0001
0010
,
0100
0010
0100
0010
,
2000
0001
0001
3001
;

//---------------dance-single - ----------------
#NOTES:
     dance-single:
     :
     Hard:
     7:
     0.411302,0.416229,0.176436,0.032079,0.064159,359.000000,337.000000,22.000000,4.000000,0.000000,0.000000,0.411302,0.416229,0.176436,0.032079,0.064159,359.000000,337.000000,22.000000,4.000000,0.000000,0.000000:
// measure 0
0000
0000
0000
0000
,  // measure 1
0000
0000
0000
0000
,  // measure 2
0000
0000
0000
0000
,  // measure 3
0000
0000
0000
0000
,  // measure 4
0000
0000
0000
0000
0000
0000
0001
0010
,  // measure 5
0100
0000
0100
0000
0100
0000
0010
0100
,  // measure 6
0001
0000
0001
0000
0001
0000
0100
1000
,  // measure 7
0010
0000
0010
0000
0010
0000
1000
0001
,  // measure 8
0100
0000
0100
0000
0100
1000
0010
0100
,  // measure 9
0001
0000
0100
0000
0000
0100
0000
0000
1000
0000
0100
0000
0010
0000
0001
0000
,  // measure 10
0000
0000
0100
0000
0000
0001
0000
0000
1000
0000
1000
0000
0001
0000
0100
0000
,  // measure 11
0000
0000
0010
0000
0000
0001
0000
0000
1000
0000
1000
0000
0001
0000
1000
0000
,  // measure 12
0000
0000
0100
0000
0000
1010
0000
0000
0010
0000
0001
0000
1000
0000
1000
0000
,  // measure 13
0000
0000
0100
0000
0000
0100
0000
0000
0001
0000
0010
0000
0001
0000
1000
0000
,  // measure 14
0000
0000
0010
0000
0000
0010
0000
0000
0001
0000
0100
0000
0001
0000
1000
0000
,  // measure 15
0000
0000
1000
0000
0000
0010
0000
0000
1000
0000
0010
0000
0100
0000
1000
0000
,  // measure 16
0000
0000
0011
0000
0000
0101
0000
0000
0100
0000
0100
0000
0010
0000
0100
0000
,  // measure 17
0000
0000
0011
0000
0000
1000
0100
0010
,  // measure 18
0000
0001
1000
0200
0000
0010
0000
0310
,  // measure 19
0000
0101
0000
1100
0000
1000
0100
0001
,  // measure 20
0010
0001
0100
0010
1000
0001
0001
1000
,  // measure 21
0000
0100
0000
0101
0000
0010
1000
0100
,  // measure 22
0000
0001
1000
0020
0000
1000
0000
0031
,  // measure 23
0000
0001
0000
1001
0000
1000
0100
0010
,  // measure 24
0010
1000
0001
0010
0100
0100
0001
1000
,  // measure 25
0100
0000
1001
0000
0000
1000
1000
0010
,  // measure 26
0000
1000
1000
0010
0100
0001
0010
0200
,  // measure 27
0000
1000
0000
1300
0000
0010
0001
0100
,  // measure 28
0010
0010
0001
0010
1000
1000
1000
0001
,  // measure 29
0000
1000
0000
1100
0000
0010
0001
0100
,  // measure 30
0000
0010
1000
0100
0100
0001
0000
0101
,  // measure 31
0000
1000
0000
0010
0000
1000
0100
0001
,  // measure 32
0010
0001
0010
0100
1000
0010
0100
0001
,  // measure 33
1000
0000
0000
0010
0100
0100
0001
1000
,  // measure 34
0000
0000
0000
0100
0010
0010
0001
1000
,  // measure 35
0000
0000
0000
0010
0100
0100
0001
1000
,  // measure 36
0010
0001
0100
0000
0011
0000
0101
0000
,  // measure 37
0001
0000
0000
0100
0010
0010
1000
0001
,  // measure 38
0000
0000
0000
0010
0100
0100
1000
0001
,  // measure 39
0000
0000
0000
0100
0010
0010
1000
0001
,  // measure 40
0100
1000
0010
0000
1100
0000
1010
0000
,  // measure 41
1000
0000
0000
0010
0100
0100
0001
1000
,  // measure 42
0000
0000
0000
0100
0010
0010
0001
1000
,  // measure 43
0000
0000
0000
0010
0100
0100
0001
1000
,  // measure 44
0010
0001
0100
0000
0011
0000
0101
0000
,  // measure 45
0001
0000
0000
0100
0010
0010
1000
0001
,  // measure 46
0000
0000
0000
0010
0100
0100
1000
0001
,  // measure 47
0000
0000
0000
0100
0010
0010
1000
0001
,  // measure 48
0100
1000
0010
0000
1100
0000
1010
0000
,  // measure 49
0001
0000
0100
0000
0000
0100
0000
0000
1000
0000
0100
0000
0010
0000
0001
0000
,  // measure 50
0000
0000
0100
0000
0000
0001
0000
0000
1000
0000
1000
0000
0001
0000
0100
0000
,  // measure 51
0000
0000
0010
0000
0000
0001
0000
0000
1000
0000
1000
0000
0001
0000
1000
0000
,  // measure 52
0000
0000
0100
0000
0000
1010
0000
0000
0010
0000
0001
0000
1000
0000
1000
0000
,  // measure 53
0000
0000
0100
0000
0000
0100
0000
0000
0001
0000
0010
0000
0001
0000
1000
0000
,  // measure 54
0000
0000
0010
0000
0000
0010
0000
0000
0001
0000
0100
0000
0001
0000
1000
0000
,  // measure 55
0000
0000
1000
0000
0000
0010
0000
0000
1000
0000
0010
0000
0100
0000
1000
0000
,  // measure 56
0000
0000
0011
0000
0000
0101
0000
0000
0100
0000
0100
0000
0010
0000
0100
0000
,  // measure 57
1000
0000
1000
0000
1000
0000
0001
1000
,  // measure 58
0100
0000
0100
0000
0100
0000
1000
0010
,  // measure 59
0001
0000
0001
0000
0001
0000
0010
0100
,  // measure 60
1000
0000
1000
0000
1000
0000
0001
0010
,  // measure 61
0100
0000
0100
0000
0100
0000
0010
0100
,  // measure 62
0001
0000
0001
0000
0001
0000
0100
1000
,  // measure 63
0010
0000
0010
0000
0010
0000
1000
0001
,  // measure 64
0200
0000
0000
0000
0000
0000
0310
0100
;
