#TITLE:I Don't Wanna Miss A Thing;
#SUBTITLE:(Dance Remix);
#ARTIST:DJ Mistik;
#TITLETRANSLIT:;
#SUBTITLETRANSLIT:;
#ARTISTTRANSLIT:;
#GENRE:;
#CREDIT:;
#BANNER:I Don't Wanna Miss A Thing (Dance Remix).png;
#BACKGROUND:I Don't Wanna Miss A Thing (Dance Remix)-bg.png;
#LYRICSPATH:;
#CDTITLE:cdtitle.png;
#MUSIC:I Don't Wanna Miss A Thing (Dance Remix).ogg;
#OFFSET:0.604000;
#SAMPLESTART:35.276001;
#SAMPLELENGTH:15.000000;
#SELECTABLE:YES;
#DISPLAYBPM:140.000000;
#BPMS:0.000000=140.470001
;
#STOPS:
;
#BGCHANGES:;
#KEYSOUNDS:;
#ATTACKS:;

//---------------dance-single - ----------------
#NOTES:
     dance-single:
     :
     Easy:
     3:
     0.160188,0.252297,0.060379,0.060379,0.000000,130.000000,123.000000,7.000000,7.000000,0.000000,0.000000,0.160188,0.252297,0.060379,0.060379,0.000000,130.000000,123.000000,7.000000,7.000000,0.000000,0.000000:
0000
0000
0000
0000
,
0000
0000
0000
0000
,
0000
0000
0000
0000
,
0000
0000
0000
0000
,
0000
0000
0000
0000
,
0000
0000
0000
0000
,
0000
0000
0000
0000
,
0000
0000
0000
0000
,
0000
0000
0000
0000
,
1000
0000
0000
0000
,
0000
0000
0000
0000
,
0001
0000
0000
0000
,
0000
0000
0000
0000
,
1000
0000
0000
0000
,
0000
0000
0000
0000
,
0001
0000
0000
0000
,
0000
0000
0000
0000
,
0100
0100
1000
0010
,
0100
0010
0001
0001
,
1000
0000
0001
0000
,
0220
0000
0000
0330
,
0000
0000
0100
0000
,
1000
0000
0010
0000
,
0000
0000
0100
0000
,
0001
0000
0010
0000
,
1000
0000
0001
0000
,
0100
1001
0010
0100
,
0010
0000
0100
0000
,
1000
0000
0010
0000
,
0000
0000
0100
0000
,
0001
0000
0010
0000
,
1000
0000
0001
0000
,
0100
1001
0010
0100
,
0010
0000
0000
1000
,
0100
0100
0001
0100
,
2000
0000
3200
0000
,
0320
0000
0030
0000
,
1001
0000
0100
0000
,
1000
0100
0010
0100
,
0100
0001
0000
1000
,
0000
0100
0000
0010
,
0001
0001
0010
1000
,
0100
0010
0010
0100
,
0001
0000
1000
0000
,
0100
0000
0000
0000
0000
0000
0100
0100
,
0100
0000
1000
0000
,
0010
0010
0001
1000
,
0001
0100
0001
0001
,
0100
0000
1000
0000
,
0001
0000
0010
0000
,
1000
0100
0010
0001
,
0100
0010
0100
0000
,
0220
0000
0000
0330
,
0000
0000
0100
0000
,
1000
0000
0010
0000
,
0000
0000
0100
0000
,
0001
0000
0010
0000
,
1000
0000
0001
0000
,
0100
1001
0010
0100
,
0010
0000
1000
1000
,
1000
0000
0001
0000
,
0000
0000
0001
0001
,
0001
0000
1000
0000
,
0010
0000
0100
0000
,
1000
0110
0001
1000
,
0010
0000
0000
0000
;

//---------------dance-single - ----------------
#NOTES:
     dance-single:
     :
     Beginner:
     1:
     0.054218,0.112132,0.008626,0.025877,0.000000,44.000000,43.000000,1.000000,3.000000,0.000000,0.000000,0.054218,0.112132,0.008626,0.025877,0.000000,44.000000,43.000000,1.000000,3.000000,0.000000,0.000000:
0000
0000
0000
0000
,
0000
0000
0000
0000
,
0000
0000
0000
0000
,
0000
0000
0000
0000
,
0000
0000
0000
0000
,
0000
0000
0000
0000
,
0000
0000
0000
0000
,
0000
0000
0000
0000
,
0000
0000
0000
0000
,
0000
0000
0000
0000
,
0000
0000
0000
0000
,
0000
0000
0000
0000
,
0000
0000
0000
0000
,
0000
0000
0000
0000
,
0000
0000
0000
0000
,
0000
0000
0000
0000
,
0000
0000
0000
0000
,
1000
0000
0000
0000
,
0001
0000
0000
0000
,
0100
0000
0100
0000
,
0200
0000
0000
0300
,
0000
0000
1000
0000
,
0000
0000
0000
0000
,
0000
0000
0001
0000
,
0000
0000
0000
0000
,
1000
0000
0000
0000
,
0010
0000
0010
0000
,
0000
0000
1000
0000
,
0000
0000
0000
0000
,
0000
0000
0001
0000
,
0000
0000
0000
0000
,
1000
0000
0000
0000
,
0010
0000
0010
0000
,
0100
0000
0000
0000
,
1000
0000
0000
0000
,
0002
0000
0000
0000
,
0003
0000
0000
0000
,
1001
0000
0000
0000
,
0010
0000
0000
0000
,
0000
0000
0000
0000
,
0100
0000
0000
0000
,
0000
0000
0000
0000
,
1000
0000
0000
0000
,
0001
0000
0000
0000
,
0000
0000
0000
0100
,
0100
0000
0000
0000
,
1000
0000
0000
0000
,
0001
0000
0000
0000
,
0100
0000
0000
0000
,
0010
0000
0000
0000
,
1000
0000
0000
0000
,
0001
0000
0000
0000
,
0002
0000
0000
0003
,
0000
0000
1000
0000
,
0000
0000
0000
0000
,
0000
0000
0001
0000
,
0000
0000
0000
0000
,
1000
0000
0000
0000
,
0010
0000
0010
0000
,
0000
0000
0100
0000
,
0000
0000
0000
0000
,
0000
0000
0010
0000
,
0000
0000
0000
0000
,
0100
0000
0000
0000
,
1000
0000
0001
0000
,
1000
0000
0000
0000
;

//---------------dance-single - ----------------
#NOTES:
     dance-single:
     :
     Medium:
     5:
     0.235354,0.336395,0.069004,0.146634,0.000000,191.000000,183.000000,8.000000,17.000000,0.000000,0.000000,0.235354,0.336395,0.069004,0.146634,0.000000,191.000000,183.000000,8.000000,17.000000,0.000000,0.000000:
0000
0000
0000
0000
,
0000
0000
0000
0000
,
0000
0000
0000
0000
,
0000
0000
0000
0000
,
0000
0000
0000
0000
,
0000
0000
0000
0000
,
0000
0000
0000
0000
,
0000
0000
0000
0000
,
0000
0000
0000
0000
,
1000
0000
0000
0000
,
0001
0000
1000
0000
,
0100
0000
0000
0000
,
0010
0000
0000
0000
,
0100
0000
0000
0000
,
0001
0000
0000
0000
,
0020
0000
0000
0030
,
0000
0000
0000
0000
,
0100
0001
0001
1000
,
0010
0000
1000
0000
0100
0010
0100
0000
,
0002
0000
2000
0003
,
0020
0000
0000
0000
,
3030
0000
0000
0000
0100
0000
0000
0100
,
0000
0000
0010
0100
0000
0000
0000
0000
,
0110
0000
0000
0000
0001
0000
0000
0001
,
0000
0000
1000
0001
0000
0010
0000
0001
,
0100
0000
0100
1000
0000
0000
0010
0000
,
0200
0000
0301
0000
0010
1000
0100
0000
,
0100
0000
0001
0001
,
0100
0000
0010
1000
0100
0000
1000
0000
,
0011
0000
1000
1000
,
0010
0000
0100
1000
0001
0000
0010
0000
,
1000
0000
0000
0100
0000
0000
0010
0000
,
0200
0000
0301
0000
0010
1000
0100
0000
,
0100
0000
0000
0000
1000
0000
0010
0001
,
0010
0100
0001
1000
,
0200
1000
0001
1300
,
0220
0000
0000
0330
,
0100
0000
1000
0000
,
1000
0100
0100
0010
,
1000
0100
0010
0000
0100
0100
0010
0000
,
1000
0000
0001
0000
,
0100
0000
0100
0000
0001
0001
1000
0000
,
0100
0010
1000
0100
,
0010
0000
0010
0000
1000
0100
0100
0000
,
0002
0000
0000
0000
0003
0000
1000
0001
,
1000
0100
0011
0000
,
1000
0000
1010
0000
0100
0000
0001
0010
,
1000
0200
0000
0020
,
0000
0000
0330
0000
1000
0000
0010
0100
,
0010
0001
2000
0010
,
3100
0000
0001
0000
1000
0100
1000
0000
,
0010
0000
0001
0100
1000
0000
0000
0000
,
0220
0000
0000
0000
,
0330
0000
0000
0000
0100
0000
0000
0100
,
0000
0000
0010
0100
0000
0000
0000
0000
,
0110
0000
0000
0000
0001
0000
0000
0001
,
0000
0000
1000
0001
0000
0010
0000
0001
,
0100
0000
0100
1000
0000
0000
0010
0000
,
0200
0000
0301
0000
0010
1000
0100
0000
,
0001
0001
0001
1000
,
0001
0000
0001
1000
0100
0000
0000
0000
,
1000
1000
1000
0001
,
1000
0000
1000
0001
0010
0000
0000
0000
,
0100
0000
0001
0010
0100
0000
0010
0000
,
0200
0000
0301
0000
0010
1000
0001
0000
,
1001
0000
0000
0000
;

//---------------dance-single - ----------------
#NOTES:
     dance-single:
     :
     Hard:
     7:
     0.349950,0.448527,0.129383,0.181136,0.000000,284.000000,269.000000,15.000000,21.000000,0.000000,0.000000,0.349950,0.448527,0.129383,0.181136,0.000000,284.000000,269.000000,15.000000,21.000000,0.000000,0.000000:
0000
0000
0000
0000
,
0000
0000
0000
0000
,
0000
0000
0000
0000
,
0000
0000
0000
0000
,
0000
0000
0000
0000
,
0000
0000
0000
0000
,
0000
0000
0000
0000
,
0000
0000
0000
0000
,
0000
0000
0000
0000
,
1000
0000
0000
0000
,
0001
0010
0100
0000
,
2000
0000
0002
0000
,
3003
0000
0000
0000
,
1000
0100
0100
0010
,
0100
0000
0001
0000
,
0200
0000
0020
0000
,
0330
0000
0000
0000
,
0001
1000
0011
0101
,
1000
0000
0010
0100
1000
0100
0001
0000
,
1100
0000
0001
0001
0001
0000
1000
1000
,
1000
0000
0010
0001
0100
0010
1000
0100
,
0001
0000
0000
0000
1000
1000
0100
0010
,
0100
0001
0010
0100
0010
0000
1000
0000
,
1100
0000
0000
0000
0010
0001
0001
0100
,
0010
1000
0010
0010
0001
0000
0000
0000
,
1001
0000
0010
0100
0001
0000
1000
0100
,
0020
0000
0130
0000
1000
0100
0010
0100
,
0001
0000
0000
0000
1000
1000
0100
0010
,
0100
0001
0010
0100
0010
0000
1000
0000
,
1100
0000
0000
0000
0010
0001
0001
0100
,
0010
1000
0010
0010
0001
0000
0000
0000
,
1001
0000
0010
0100
0001
0000
1000
0100
,
0020
0000
0130
0000
1000
0100
0010
0100
,
0001
0000
0100
0000
0010
0000
1000
0100
,
1000
0000
0010
0100
0000
0010
0100
0000
,
0001
1000
0010
0000
0100
0000
0011
0000
,
2000
0000
0002
3003
,
1001
0000
0100
0000
,
1000
0000
0010
0100
0001
0000
1000
0100
,
0100
0010
1000
0010
0100
0000
0002
0000
,
2000
0000
3003
0000
,
1000
0000
0010
0010
0100
0001
0010
0100
,
1000
0001
1000
0000
0002
0000
0013
0000
,
0001
0000
0100
0100
0010
0100
1000
0010
,
0100
0001
1000
0000
0200
0000
0301
0010
,
0100
0000
0010
0100
1000
0000
1100
0000
,
0001
1000
0001
0100
1000
0100
0001
0000
,
0010
0000
0100
1000
0001
0000
0220
0000
,
0000
0000
0330
0000
1000
1000
1000
0000
,
0010
0100
0002
0000
2003
0000
3100
0000
,
0010
0100
0001
0010
0100
0000
1000
0001
,
0001
0000
1000
0100
0010
0001
0100
0000
,
0220
0000
0000
0330
,
0001
0000
0000
0000
1000
1000
0100
0010
,
0100
0001
0010
0100
0010
0000
1000
0000
,
1100
0000
0000
0000
0010
0001
0001
0100
,
0010
1000
0010
0010
0001
0000
0000
0000
,
1001
0000
0010
0100
0001
0000
1000
0100
,
0020
0000
0130
0000
1000
0100
0010
0100
,
0001
0000
1000
0100
1000
0010
0100
0001
,
0010
1000
1000
0010
0002
0000
0003
0000
,
1000
0000
0001
0010
0001
0100
0001
0010
,
0010
1000
0100
1000
0010
0000
0000
0000
,
0110
0000
1000
0100
0001
0000
1000
0010
,
0200
0000
1300
0000
0010
1000
0100
1000
,
0001
0000
0000
0000
;

//---------------dance-single - ----------------
#NOTES:
     dance-single:
     :
     Challenge:
     4:
     0.160188,0.252297,0.060379,0.060379,0.000000,130.000000,123.000000,7.000000,7.000000,40.000000,0.000000,0.160188,0.252297,0.060379,0.060379,0.000000,130.000000,123.000000,7.000000,7.000000,40.000000,0.000000:
// measure 0
0000
0000
0000
0000
,  // measure 1
0000
0000
0000
0000
,  // measure 2
0000
0000
0000
0000
,  // measure 3
0000
0000
0000
0000
,  // measure 4
0000
0000
0000
0000
,  // measure 5
0000
0000
0000
0000
,  // measure 6
0000
0000
0000
0000
,  // measure 7
0000
0000
0000
0000
,  // measure 8
0000
0000
0000
0000
,  // measure 9
1000
0000
0000
0000
,  // measure 10
0000
0000
0000
0000
,  // measure 11
0001
0000
0000
0000
,  // measure 12
0000
0000
0000
0000
,  // measure 13
1000
0000
0000
0000
,  // measure 14
0000
0000
0000
0000
,  // measure 15
0001
0000
0000
0000
,  // measure 16
MMMM
0000
0000
0000
,  // measure 17
0100
0100
1000
0010
,  // measure 18
0100
0010
0001
0001
,  // measure 19
1000
0000
0001
0000
,  // measure 20
0220
0000
0000
0330
,  // measure 21
MMMM
0000
0100
0000
,  // measure 22
1000
0000
0010
0000
,  // measure 23
MMMM
0000
0100
0000
,  // measure 24
0001
0000
0010
0000
,  // measure 25
1000
0000
0001
0000
,  // measure 26
0100
1001
0010
0100
,  // measure 27
0010
0000
0100
0000
,  // measure 28
1000
0000
0010
0000
,  // measure 29
MMMM
0000
0100
0000
,  // measure 30
0001
0000
0010
0000
,  // measure 31
1000
0000
0001
0000
,  // measure 32
0100
1001
0010
0100
,  // measure 33
0010
0000
0000
1000
,  // measure 34
0100
0100
0001
0100
,  // measure 35
2000
0000
3200
0000
,  // measure 36
0320
0000
0030
MMMM
,  // measure 37
1001
0000
0100
0000
,  // measure 38
1000
0100
0010
0100
,  // measure 39
0100
0001
0000
1000
,  // measure 40
0000
0100
MMMM
0010
,  // measure 41
0001
0001
0010
1000
,  // measure 42
0100
0010
0010
0100
,  // measure 43
0001
0000
1000
0000
,  // measure 44
0100
0000
0000
0000
0000
0000
0100
0100
,  // measure 45
0100
0000
1000
0000
,  // measure 46
0010
0010
0001
1000
,  // measure 47
0001
0100
0001
0001
,  // measure 48
0100
0000
1000
MMMM
,  // measure 49
0001
0000
0010
0000
,  // measure 50
1000
0100
0010
0001
,  // measure 51
0100
0010
0100
0000
,  // measure 52
0220
0000
0000
0330
,  // measure 53
MMMM
0000
0100
0000
,  // measure 54
1000
0000
0010
0000
,  // measure 55
MMMM
0000
0100
0000
,  // measure 56
0001
0000
0010
0000
,  // measure 57
1000
0000
0001
0000
,  // measure 58
0100
1001
0010
0100
,  // measure 59
0010
0000
1000
1000
,  // measure 60
1000
0000
0001
0000
,  // measure 61
MMMM
0000
0001
0001
,  // measure 62
0001
0000
1000
0000
,  // measure 63
0010
0000
0100
0000
,  // measure 64
1000
0110
0001
1000
,  // measure 65
0010
0000
0000
0000
;
