#VERSION:0.83;
#TITLE:HOUSE ON FIRE;
#SUBTITLE:;
#ARTIST:Ryan Cabrera;
#TITLETRANSLIT:;
#SUBTITLETRANSLIT:;
#ARTISTTRANSLIT:;
#GENRE:;
#ORIGIN:;
#CREDIT:;
#BANNER:House on Fire.png;
#BACKGROUND:House on Fire-bg.png;
#PREVIEWVID:;
#JACKET:House on Fire-jacket.png;
#CDIMAGE:;
#DISCIMAGE:;
#LYRICSPATH:;
#CDTITLE:cdtitle.png;
#MUSIC:House on Fire.ogg;
#OFFSET:-0.117000;
#SAMPLESTART:40.419998;
#SAMPLELENGTH:15.000000;
#SELECTABLE:YES;
#DISPLAYBPM:128.000000;
#BPMS:0.000=128.030;
#STOPS:;
#DELAYS:;
#WARPS:;
#TIMESIGNATURES:0.000=4=4;
#TICKCOUNTS:0.000=4;
#COMBOS:0.000=1;
#SPEEDS:0.000=1.000=0.000=0;
#SCROLLS:0.000=1.000;
#FAKES:;
#LABELS:0.000=Song Start;
#BGCHANGES:;
#KEYSOUNDS:;
#ATTACKS:
;

//---------------dance-single - ----------------
#NOTEDATA:;
#CHARTNAME:;
#STEPSTYPE:dance-single;
#DESCRIPTION:;
#CHARTSTYLE:;
#DIFFICULTY:Easy;
#METER:3;
#RADARVALUES:0.168414,0.259155,0.040652,0.121955,0.000000,145.000000,140.000000,5.000000,15.000000,0.000000,0.000000,0.000000,0.000000,0.000000,0.168414,0.259155,0.040652,0.121955,0.000000,145.000000,140.000000,5.000000,15.000000,0.000000,0.000000,0.000000,0.000000,0.000000;
#CREDIT:kater15;
#DISPLAYBPM:128.000000;
#NOTES:
0000
0000
0000
0000
,
0000
0000
0000
0000
,
0000
0000
0000
0000
,
0000
0000
0000
0000
,
1000
1000
0001
0001
,
0100
0010
0000
0000
,
0001
0001
1000
1000
,
0100
0010
0000
0000
,
1000
0100
0001
0000
,
1000
0000
0000
0000
,
0100
0000
0000
0000
,
0010
0000
0000
0000
,
0010
0100
1000
0000
,
0010
0000
0000
0000
,
0001
0000
0000
0000
,
0100
0000
0000
0000
,
2000
3000
0002
0003
,
1000
0100
0010
0010
,
0002
0003
2000
3000
,
0010
0001
0100
0100
,
0020
0030
0200
0300
,
0000
0000
0100
0100
,
0002
0000
0000
0003
,
1000
0000
0100
0000
,
2000
0000
0000
3000
,
0001
0000
0100
0000
,
0002
0000
0000
0003
,
1000
0000
0010
0000
,
0100
0000
0001
0000
,
1000
0000
0000
0000
,
0001
0000
0000
0001
0000
0000
0001
0000
,
0000
0000
0100
0100
,
1000
0000
0000
1000
0000
0000
1000
0000
,
0000
0000
0110
0110
,
1000
1000
0001
0001
,
0100
0010
0000
0000
,
0001
0001
1000
1000
,
0100
0010
0000
0000
,
1000
0000
0100
0100
,
0001
0000
0100
0100
,
1000
0000
0100
0100
,
0001
0010
0001
1000
,
0010
0000
1000
1000
,
0010
0000
0001
0001
,
0010
0000
1000
1000
,
0010
0001
0010
1000
,
0200
0000
0010
0310
,
0002
0000
0000
0003
,
1000
0000
0100
0000
,
2000
0000
0010
3000
,
0001
0000
0100
0000
,
0002
0000
0010
0003
,
1000
0000
0100
0000
,
0010
0000
0001
0000
,
0100
0000
0000
0000
,
1000
0000
0000
1000
0000
0000
1000
0000
,
0000
0000
0100
0100
,
0001
0000
0000
0001
0000
0000
0001
0000
,
0000
0000
0110
0110
,
1000
1000
0001
0001
,
0100
0010
0000
0000
,
0001
0001
1000
1000
,
0100
0010
0000
0000
,
2002
0000
0000
3003
;

//---------------dance-single - ----------------
#NOTEDATA:;
#CHARTNAME:;
#STEPSTYPE:dance-single;
#DESCRIPTION:;
#CHARTSTYLE:;
#DIFFICULTY:Beginner;
#METER:1;
#RADARVALUES:0.074335,0.129577,0.008130,0.089434,0.000000,64.000000,63.000000,1.000000,11.000000,0.000000,0.000000,0.000000,0.000000,0.000000,0.074335,0.129577,0.008130,0.089434,0.000000,64.000000,63.000000,1.000000,11.000000,0.000000,0.000000,0.000000,0.000000,0.000000;
#CREDIT:kater15;
#DISPLAYBPM:128.000000;
#NOTES:
0000
0000
0000
0000
,
0000
0000
0000
0000
,
0000
0000
0000
0000
,
0000
0000
0000
0000
,
1000
0000
0100
0000
,
0001
0000
0000
0000
,
1000
0000
0100
0000
,
0001
0000
0000
0000
,
1000
0000
0000
0000
,
0000
0000
0000
0000
,
0001
0000
0000
0000
,
0000
0000
0000
0000
,
0100
0000
0000
0000
,
0000
0000
0000
0000
,
0010
0000
0000
0000
,
0010
0000
0000
0000
,
1000
0000
1000
0000
,
1000
0000
0000
0000
,
0001
0000
0001
0000
,
0001
0000
0000
0000
,
0200
0000
0000
0300
,
0000
0000
0000
0000
,
0002
0000
0000
0003
,
0000
0000
0000
0000
,
0020
0000
0000
0030
,
0000
0000
0000
0000
,
0200
0000
0000
0300
,
0000
0000
0000
0000
,
2000
0000
0000
3000
,
0000
0000
0000
0000
,
0100
0000
0000
0100
,
0000
0000
0000
0000
,
0100
0000
0000
0100
,
0000
0000
0000
0000
,
1000
0000
0100
0000
,
0001
0000
0000
0000
,
1000
0000
0100
0000
,
0001
0000
0000
0000
,
1000
0000
0001
0000
,
1000
0000
0001
0000
,
1000
0000
0001
0000
,
1000
0000
0001
0000
,
0100
0000
0010
0000
,
0100
0000
0010
0000
,
0100
0000
0010
0000
,
0100
0000
0010
0000
,
0000
0000
0000
0000
,
0002
0000
0000
0003
,
0000
0000
0000
0000
,
0020
0000
0000
0030
,
0000
0000
0000
0000
,
0200
0000
0000
0300
,
0000
0000
0000
0000
,
2000
0000
0000
3000
,
0000
0000
0000
0000
,
0100
0000
0000
0100
,
0000
0000
0000
0000
,
0100
0000
0000
0100
,
0000
0000
0000
0000
,
1000
0000
0100
0000
,
0001
0000
0000
0000
,
1000
0000
0100
0000
,
0001
0000
0000
0000
,
2002
0000
0000
3003
;

//---------------dance-single - ----------------
#NOTEDATA:;
#CHARTNAME:;
#STEPSTYPE:dance-single;
#DESCRIPTION:;
#CHARTSTYLE:;
#DIFFICULTY:Medium;
#METER:4;
#RADARVALUES:0.255525,0.285070,0.178868,0.138216,0.024391,220.000000,198.000000,22.000000,17.000000,0.000000,0.000000,0.000000,0.000000,0.000000,0.255525,0.285070,0.178868,0.138216,0.024391,220.000000,198.000000,22.000000,17.000000,0.000000,0.000000,0.000000,0.000000,0.000000;
#CREDIT:kater15;
#DISPLAYBPM:128.000000;
#NOTES:
0000
0000
0000
0000
,
0000
0000
0000
0000
,
0000
0000
0000
0000
,
0000
0000
0000
0000
,
1000
0100
1000
0001
,
1000
0000
0010
1000
0000
1100
0000
0000
,
1000
0010
1000
0001
,
1000
0000
0100
1000
0000
1010
0000
0000
,
0100
0100
0001
0010
,
1000
0000
0000
0000
0000
0000
0010
0100
,
0100
0001
1000
0100
,
0010
0000
0010
0000
0001
0000
1000
0100
,
1000
0001
0010
0110
,
1000
0000
0000
0000
0000
0000
0100
0100
,
0010
0001
0100
0010
,
2000
0100
0001
3100
,
0110
0000
0110
0000
,
1000
0100
0002
1003
,
1001
0000
1001
0100
,
0010
0002
0100
0100
,
1003
0000
0100
0000
,
0010
0000
1000
0100
,
2002
0000
0000
3003
,
0100
0000
0010
0000
0100
0000
0001
1000
,
0000
0220
0000
0000
0000
0000
0330
0000
,
0010
0000
0100
0000
0010
0000
1000
0001
,
0000
0220
0000
0000
0000
0000
0330
0000
,
1000
0000
0001
0000
1000
0000
0000
0001
,
0000
0100
0000
0001
0000
0010
0000
0100
,
0000
1000
0000
0000
0100
0000
1000
0100
,
0001
0000
0000
1000
0000
0000
0001
0000
,
0000
0000
0000
0000
0100
0000
0001
0100
,
1000
0000
0000
0001
0000
0000
1000
0000
,
0000
0000
1100
0101
,
1000
0100
1000
0001
,
1000
0000
0010
1000
0000
1100
0000
0000
,
1000
0010
1000
0001
,
1000
0000
0100
1000
0000
1010
0000
0000
,
1000
0000
0000
1000
0000
0000
1000
0000
0000
0000
0000
0000
0000
0000
0000
0000
,
0001
0000
0000
0001
0000
0000
0001
0000
0000
0000
0000
0000
0000
0000
0000
0000
,
1000
0000
0000
1000
0000
0000
1000
0000
0000
0000
0000
0000
0000
0000
0000
0000
,
1000
0100
0001
1000
,
0010
0000
0000
0010
0000
0000
0010
0000
0000
0000
0000
0000
0000
0000
0000
0000
,
0100
0000
0000
0100
0000
0000
0100
0000
0000
0000
0000
0000
0000
0000
0000
0000
,
0010
0000
0000
0010
0000
0000
0010
0000
0000
0000
0000
0000
0000
0000
0000
0000
,
0010
0001
0100
0010
,
0000
0000
1000
0100
,
2002
0000
0000
3003
,
0100
0000
0010
0000
0100
0000
0001
1000
,
0000
0220
0000
0000
0000
0000
0330
0000
,
0010
0000
0100
0000
0010
0000
1000
0001
,
0000
0220
0000
0000
0000
0000
0330
0000
,
1000
0000
0001
0000
1000
0000
0000
0001
,
0000
0100
0000
0001
0000
0010
0000
0100
,
0000
1000
0000
0000
0100
0000
1000
0100
,
0001
0000
0000
1000
0000
0000
0001
0000
,
0000
0000
0000
0000
0100
0000
0001
0100
,
1000
0000
0000
0001
0000
0000
1000
0000
,
0000
0000
1100
0101
,
1000
0100
1000
0001
,
1000
0000
0010
1000
0000
1100
0000
0000
,
1000
0010
1000
0001
,
1000
0000
0100
1000
0000
1010
0000
0000
,
0220
0000
0000
0330
;

//---------------dance-single - ----------------
#NOTEDATA:;
#CHARTNAME:;
#STEPSTYPE:dance-single;
#DESCRIPTION:;
#CHARTSTYLE:;
#DIFFICULTY:Hard;
#METER:6;
#RADARVALUES:0.362381,0.388732,0.227650,0.097564,0.036587,312.000000,284.000000,28.000000,12.000000,0.000000,0.000000,0.000000,0.000000,0.000000,0.362381,0.388732,0.227650,0.097564,0.036587,312.000000,284.000000,28.000000,12.000000,0.000000,0.000000,0.000000,0.000000,0.000000;
#CREDIT:kater15;
#DISPLAYBPM:128.000000;
#NOTES:
// measure 0
0000
0000
0000
0000
,  // measure 1
0000
0000
0000
0000
,  // measure 2
0000
0000
0000
0000
,  // measure 3
0000
0000
0000
0000
,  // measure 4
1000
0100
1000
0000
0001
0100
0001
0000
,  // measure 5
1000
0100
0010
0001
0000
0110
0000
0000
,  // measure 6
0001
0100
0001
0000
1000
0100
1000
0000
,  // measure 7
0001
0100
0010
1000
0000
0110
0000
0000
,  // measure 8
1000
0000
0100
0000
0100
0000
0001
0001
,  // measure 9
0100
0000
0010
0000
0011
0000
1000
1000
,  // measure 10
0100
0000
0001
1000
0010
0000
0100
0000
,  // measure 11
0001
0000
0000
0000
0100
0000
0001
0010
,  // measure 12
0100
1000
0001
0001
,  // measure 13
0010
0000
1100
0000
0010
0000
0100
0001
,  // measure 14
0100
0010
0001
0100
,  // measure 15
0002
0100
1000
0013
,  // measure 16
1001
0000
0000
0001
1000
0000
0000
1000
,  // measure 17
0001
0000
0010
0000
0100
0100
1000
0000
,  // measure 18
0110
0000
0010
0010
,  // measure 19
1001
0200
0010
0310
,  // measure 20
1000
0000
0000
1000
0000
0000
1000
0000
0001
0000
0000
0001
0000
0000
0001
0000
,  // measure 21
0100
0000
0000
0100
0000
0000
0100
0000
0010
0000
0000
0000
0001
0000
0000
0000
,  // measure 22
2002
0000
0000
3003
,  // measure 23
0100
0100
0001
0010
0100
0000
1000
0001
,  // measure 24
0000
0220
0000
0000
0000
0000
0330
0000
,  // measure 25
0010
0010
0001
0100
0010
0000
1000
0001
,  // measure 26
0000
0220
0000
0000
0000
0000
0330
0000
,  // measure 27
0001
0001
0010
1000
0001
0000
0100
0010
,  // measure 28
0000
1001
0000
0100
0000
0001
0000
0110
,  // measure 29
0000
0010
0000
0000
0100
0000
1000
0100
,  // measure 30
0001
0000
0001
0010
0000
0010
0100
0000
,  // measure 31
1000
0000
1010
0000
0010
0000
1000
0010
,  // measure 32
0001
0000
0001
0100
0000
0100
0010
0000
,  // measure 33
1000
1100
1001
0101
,  // measure 34
1000
0100
1000
0000
0001
0100
0001
0000
,  // measure 35
1000
0100
0010
0001
0000
0110
0000
0000
,  // measure 36
0001
0100
0001
0000
1000
0100
1000
0000
,  // measure 37
0001
0100
0010
1000
0000
0110
0000
0000
,  // measure 38
1000
0000
0000
0001
0000
0000
1000
0000
0001
0000
0000
0000
1000
0000
0000
0000
,  // measure 39
0001
0000
0000
1000
0000
0000
0001
0000
1000
0000
0000
0000
0001
0000
0000
0000
,  // measure 40
1000
0000
0000
0001
0000
0000
1000
0000
0001
0000
0000
0000
1000
0000
0100
0000
,  // measure 41
0010
0000
0100
0000
1000
0001
0010
0000
,  // measure 42
0100
0000
0000
0010
0000
0000
0100
0000
0010
0000
0000
0000
0100
0000
0000
0000
,  // measure 43
0010
0000
0000
0100
0000
0000
0010
0000
0100
0000
0000
0000
0010
0000
0000
0000
,  // measure 44
0100
0000
0000
0010
0000
0000
0100
0000
0010
0000
0000
0000
0100
0000
1000
0000
,  // measure 45
0001
0000
1000
0000
0100
0010
0001
0000
,  // measure 46
0000
0000
0010
0001
,  // measure 47
2002
0000
0000
3003
,  // measure 48
0100
0100
0001
0010
0100
0000
1000
0000
,  // measure 49
0100
0100
0001
0010
0100
0000
1000
0000
,  // measure 50
0010
0010
0001
0100
0010
0000
1000
0000
,  // measure 51
0010
0010
0001
0100
0010
0000
1000
0000
,  // measure 52
0001
0001
0010
1000
0001
0000
0100
0010
,  // measure 53
0000
1001
0000
0100
0000
0001
0000
0110
,  // measure 54
0000
0010
0000
0000
0100
0000
1000
0100
,  // measure 55
0001
0000
0001
0010
0000
0010
0100
0000
,  // measure 56
1000
0000
1010
0000
0010
0000
1000
0010
,  // measure 57
0001
0000
0001
0100
0000
0100
0010
0000
,  // measure 58
1000
1100
1001
0101
,  // measure 59
1000
0100
1000
0000
0001
0100
0001
0000
,  // measure 60
1000
0100
0010
0001
0000
0110
0000
0000
,  // measure 61
0001
0100
0001
0000
1000
0100
1000
0000
,  // measure 62
0001
0100
0010
1000
0000
0110
0000
0000
,  // measure 63
2002
0000
0000
3003
;
