#VERSION:0.83;
#TITLE:Hotel Mario Remix (Ver.B);
#SUBTITLE:;
#ARTIST:Funtastic Power!;
#TITLETRANSLIT:;
#SUBTITLETRANSLIT:;
#ARTISTTRANSLIT:;
#GENRE:;
#ORIGIN:;
#CREDIT:;
#BANNER:Hotel Mario Remix (Ver.B).png;
#BACKGROUND:Hotel Mario Remix (Ver.B)-bg.png;
#PREVIEWVID:;
#JACKET:Hotel Mario Remix (Ver.B)-jacket.png;
#CDIMAGE:;
#DISCIMAGE:;
#LYRICSPATH:;
#CDTITLE:cdtitle.png;
#MUSIC:Hotel Mario Remix (Ver.B).ogg;
#OFFSET:-0.057000;
#SAMPLESTART:5.200000;
#SAMPLELENGTH:15.000000;
#SELECTABLE:YES;
#DISPLAYBPM:140.000000;
#BPMS:0.000=140.000;
#STOPS:;
#DELAYS:;
#WARPS:;
#TIMESIGNATURES:0.000=4=4;
#TICKCOUNTS:0.000=4;
#COMBOS:0.000=1;
#SPEEDS:0.000=1.000=0.000=0;
#SCROLLS:0.000=1.000;
#FAKES:;
#LABELS:0.000=Song Start;
#BGCHANGES:;
#KEYSOUNDS:;
#ATTACKS:
;

//---------------dance-single - ----------------
#NOTEDATA:;
#CHARTNAME:;
#STEPSTYPE:dance-single;
#DESCRIPTION:;
#CHARTSTYLE:;
#DIFFICULTY:Easy;
#METER:3;
#RADARVALUES:0.208050,0.248839,0.120450,0.229951,0.000000,133.000000,122.000000,11.000000,21.000000,0.000000,0.000000,0.000000,0.000000,0.000000,0.208050,0.248839,0.120450,0.229951,0.000000,133.000000,122.000000,11.000000,21.000000,0.000000,0.000000,0.000000,0.000000,0.000000;
#CREDIT:kater15;
#DISPLAYBPM:140.000000;
#NOTES:
0000
0000
0000
0000
,
0000
0000
0000
0000
,
0000
0000
0000
0000
,
1000
0000
1000
0000
,
0100
0000
0100
0000
,
1000
0100
1000
0100
,
0001
0010
0200
0300
,
0220
0330
1000
0000
,
0001
0000
1000
0100
,
0100
0001
0010
0001
,
0100
0010
0200
0300
,
1000
0000
1000
0000
,
0100
0000
0100
0000
,
0001
0000
1000
0000
,
0010
0000
2002
3003
,
0220
0330
1000
0000
,
0100
0100
0001
0000
,
0010
0000
0100
0000
,
0010
0000
0002
0003
,
1000
0100
0001
0000
,
0100
0000
0100
0000
,
1000
0010
0001
0000
,
0010
0000
0010
0000
,
2002
3003
1000
0100
,
0001
0100
1000
0000
,
0100
0001
1000
0000
,
0110
0000
2002
3003
,
1000
0000
1000
0000
,
0100
0000
0100
0000
,
1000
0100
1000
0100
,
0001
0010
0200
0300
,
0220
0330
1000
0000
,
0001
0000
1000
0100
,
0100
0001
0010
0001
,
0100
0010
0200
0300
,
1000
0000
0110
0000
,
0100
0000
0010
0000
,
1000
0001
1000
0100
,
0010
0001
0100
0000
,
0220
0330
0010
0000
,
1000
0100
0010
0100
,
1000
0000
0100
0000
,
0100
0000
0010
0001
,
0100
0000
1001
0000
,
0010
0000
0100
0000
,
1000
0000
1000
0000
,
0001
0000
0010
0000
,
0220
0330
1000
0000
,
0010
0000
1000
0000
,
0001
0000
0010
0000
,
0100
0000
1000
0000
;

//---------------dance-single - ----------------
#NOTEDATA:;
#CHARTNAME:;
#STEPSTYPE:dance-single;
#DESCRIPTION:;
#CHARTSTYLE:;
#DIFFICULTY:Beginner;
#METER:1;
#RADARVALUES:0.090729,0.110595,0.000000,0.065700,0.000000,58.000000,58.000000,0.000000,6.000000,0.000000,0.000000,0.000000,0.000000,0.000000,0.090729,0.110595,0.000000,0.065700,0.000000,58.000000,58.000000,0.000000,6.000000,0.000000,0.000000,0.000000,0.000000,0.000000;
#CREDIT:kater15;
#DISPLAYBPM:140.000000;
#NOTES:
0000
0000
0000
0000
,
0000
0000
0000
0000
,
0000
0000
0000
0000
,
1000
0000
0000
0000
,
1000
0000
0000
0000
,
0001
0000
0000
0000
,
0001
0000
0000
0000
,
2000
3000
0000
0000
,
1000
0000
0000
0000
,
0001
0000
0000
0000
,
0001
0000
0000
0000
,
0100
0000
0000
0000
,
0100
0000
0000
0000
,
0010
0000
0000
0000
,
0010
0000
0000
0000
,
0200
0300
0000
0000
,
0100
0000
0000
0000
,
0010
0000
0000
0000
,
0010
0000
0000
0000
,
1000
0000
1000
0000
,
1000
0000
0000
0000
,
0001
0000
0001
0000
,
0001
0000
0000
0000
,
2000
3000
1000
0000
,
1000
0000
0000
0000
,
0001
0000
0001
0000
,
0001
0000
0000
0000
,
0100
0000
0000
0000
,
0100
0000
0000
0000
,
0010
0000
0000
0000
,
0010
0000
0000
0000
,
0200
0300
0000
0000
,
0100
0000
0000
0000
,
0010
0000
0000
0000
,
0010
0000
0000
0000
,
0100
0000
1000
0000
,
0010
0000
0000
0000
,
0100
0000
0001
0000
,
0010
0000
0000
0000
,
2000
3000
0000
0000
,
1000
0000
0001
0000
,
0100
0000
0000
0000
,
0010
0000
1000
0000
,
0001
0000
0000
0000
,
0001
0000
0000
0000
,
1000
0000
0000
0000
,
0010
0000
0000
0000
,
2000
3000
0000
0000
,
0001
0000
0000
0000
,
0010
0000
0100
0000
,
0010
0000
0100
0000
;

//---------------dance-single - ----------------
#NOTEDATA:;
#CHARTNAME:;
#STEPSTYPE:dance-single;
#DESCRIPTION:;
#CHARTSTYLE:;
#DIFFICULTY:Medium;
#METER:5;
#RADARVALUES:0.337886,0.331786,0.120450,0.273751,0.049275,216.000000,205.000000,11.000000,25.000000,0.000000,0.000000,0.000000,0.000000,0.000000,0.337886,0.331786,0.120450,0.273751,0.049275,216.000000,205.000000,11.000000,25.000000,0.000000,0.000000,0.000000,0.000000,0.000000;
#CREDIT:kater15;
#DISPLAYBPM:140.000000;
#NOTES:
0000
0000
0000
0000
,
0000
0000
0000
0000
,
0000
0000
0000
0000
,
1000
0100
0010
0100
,
0100
0000
0001
0000
0010
0000
0100
1000
,
0001
0010
0100
0010
,
0010
1000
0200
0300
,
2000
0001
3001
0000
0100
0000
0100
0000
,
0010
0000
0001
0000
0100
0000
0010
0100
,
1000
0001
0001
1000
,
0100
1000
2002
3003
,
0100
0010
0100
0000
1000
0000
0100
0000
,
1000
0000
0010
0000
0100
0000
0001
1000
,
0001
0010
0001
0100
,
0010
0010
0022
0033
,
0002
1000
1003
0000
0100
0000
0100
0000
,
0001
0000
0100
0000
0010
0000
0100
0010
,
0001
1000
1000
0001
,
0100
0010
2000
3000
,
0010
0000
0000
0010
0000
0000
0010
0000
0001
0000
0000
0000
0010
0000
0000
0000
,
1000
0000
0000
1000
0000
0000
1000
0000
0010
0000
0000
0000
1000
0000
0000
0000
,
0001
1000
0100
0100
,
0010
0100
0022
0033
,
0200
1000
0301
0000
0010
0000
0100
0000
,
0100
0001
0100
0010
,
1000
0000
0000
1000
0000
0000
0000
0000
0001
0000
0000
0001
0000
0000
0000
0000
,
0100
0000
0000
0100
0000
0000
0000
0000
2002
0000
0000
0000
3003
0000
0000
0000
,
1000
0100
0010
0100
,
0100
0000
0001
0000
0010
0000
0100
1000
,
0001
0010
0100
0010
,
0010
1000
0200
0300
,
2000
0001
3001
0000
0100
0000
0100
0000
,
0010
0000
0001
0000
0100
0000
0010
0100
,
1000
0001
0001
1000
,
0100
1000
2002
3003
,
1000
0000
0000
0001
0100
0000
0000
0000
1000
0000
0000
0000
0001
0000
0000
0000
,
0010
0010
0101
1000
,
0010
0000
0000
0100
0001
0000
0000
0000
1000
0000
0000
0000
0001
0000
0000
0000
,
0100
1000
0202
0303
,
0200
0000
1000
0000
0310
0000
0000
0000
0010
0000
0000
1000
0001
0000
0000
0000
,
0010
0010
1000
0011
,
0001
0000
0000
0001
1000
0000
0000
0000
0100
0000
0000
0000
0100
0000
0000
0000
,
0010
1000
2020
3030
,
0100
0001
0010
0000
1000
0000
0001
0000
,
1000
0100
1000
0000
0001
0000
0010
0000
,
0010
0100
0001
0000
0001
0000
1000
0010
,
0100
0001
2002
3003
,
0020
0001
0130
0000
1000
0000
1000
0000
,
0100
0000
0010
0000
0100
0010
0100
0001
,
1000
0010
0001
0100
,
0010
0100
1001
0000
;

//---------------dance-single - ----------------
#NOTEDATA:;
#CHARTNAME:;
#STEPSTYPE:dance-single;
#DESCRIPTION:;
#CHARTSTYLE:;
#DIFFICULTY:Hard;
#METER:8;
#RADARVALUES:0.583480,0.635923,0.208050,0.131400,0.120450,373.000000,354.000000,19.000000,12.000000,0.000000,0.000000,0.000000,0.000000,0.000000,0.583480,0.635923,0.208050,0.131400,0.120450,373.000000,354.000000,19.000000,12.000000,0.000000,0.000000,0.000000,0.000000,0.000000;
#CREDIT:kater15;
#DISPLAYBPM:140.000000;
#NOTES:
// measure 0
0000
0000
0000
0000
,  // measure 1
0000
0000
0000
0000
,  // measure 2
0000
0000
0000
0000
,  // measure 3
1000
0100
0100
0010
0100
0001
0010
1000
,  // measure 4
0010
0000
0100
0000
0001
0000
0010
0000
0100
0000
0001
0000
1000
0000
0010
0001
,  // measure 5
0010
0100
1000
0100
0001
0100
1000
0100
,  // measure 6
0010
1000
0100
0010
0002
0000
1003
0000
,  // measure 7
1001
0110
1001
0000
1000
0100
0010
0001
,  // measure 8
0010
0000
0010
0000
0001
0000
0100
0000
0010
0000
1000
0000
0100
0000
0010
0001
,  // measure 9
0100
1000
0001
1000
0100
0001
0010
0010
,  // measure 10
0001
0100
0010
1000
0200
0000
0300
0000
,  // measure 11
1000
1000
1000
0000
0001
0010
0001
0000
,  // measure 12
0100
0010
0100
0000
0001
0001
0001
0000
,  // measure 13
0010
1000
0010
0000
0100
0001
0100
0000
,  // measure 14
1000
0001
1000
0000
0220
0000
0330
0000
,  // measure 15
1001
0110
1001
0000
0100
0100
0100
0000
,  // measure 16
0001
0010
0001
0000
0100
0010
0100
0000
,  // measure 17
1000
1000
1000
0000
0001
0001
0001
0000
,  // measure 18
0100
0010
0100
0000
0020
0000
0030
0000
,  // measure 19
0001
0000
0100
0000
1000
0000
0001
1000
0001
0000
0010
0000
1000
0000
0100
0000
,  // measure 20
0001
0000
0100
0000
1000
0000
0001
1000
0001
0000
0010
0000
1000
0000
0100
0001
,  // measure 21
0100
0000
0010
0000
0010
0000
0100
1000
0100
0000
0010
0000
0010
0000
0100
0001
,  // measure 22
0100
0000
0010
0000
0010
0000
0100
1000
0200
0000
0000
0000
0300
0000
0000
0000
,  // measure 23
0101
0000
1100
0000
0101
0000
0000
0000
1000
0000
0100
0000
0100
0000
1000
0010
,  // measure 24
0001
0000
1000
0000
0100
0000
0010
0000
0100
0000
0001
0000
0001
0000
0010
1000
,  // measure 25
0100
0001
0001
0010
0100
0010
1000
0100
,  // measure 26
0001
0000
1000
0000
0100
0001
1000
0000
0002
0000
0000
0000
0003
0000
0000
0000
,  // measure 27
1000
0100
0100
0010
0100
0001
0010
1000
,  // measure 28
0010
0000
0100
0000
0001
0000
0010
0000
0100
0000
0001
0000
1000
0000
0010
0001
,  // measure 29
0010
0100
1000
0100
0001
0100
1000
0100
,  // measure 30
0010
1000
0100
0010
0002
0000
1003
0000
,  // measure 31
1001
0110
1001
0000
1000
0100
0010
0001
,  // measure 32
0010
0000
0010
0000
0001
0000
0100
0000
0010
0000
1000
0000
0100
0000
0010
0001
,  // measure 33
0100
1000
0001
1000
0100
0001
0010
0010
,  // measure 34
0001
0100
0010
1000
0200
0000
0300
0000
,  // measure 35
0010
1000
0100
0001
0001
1000
0100
0010
,  // measure 36
0100
0000
0010
0000
0001
0000
1000
0000
0010
0000
0001
0000
1000
0000
0001
0010
,  // measure 37
0100
1000
0001
1000
0100
0100
0001
0010
,  // measure 38
0001
1000
0100
0000
0010
1000
0001
0000
0200
0000
0000
0000
0300
0000
0000
0000
,  // measure 39
1100
0101
1100
0000
1000
0100
0100
0001
,  // measure 40
0100
0000
1000
0000
1000
0000
0001
0000
0010
0000
1000
0000
0001
0000
0010
0001
,  // measure 41
0100
0010
0100
1000
1000
0001
0010
1000
,  // measure 42
0001
1000
0100
0010
0200
0000
0301
0000
,  // measure 43
0010
1000
0001
0100
0010
0010
1000
0001
,  // measure 44
0010
0000
0100
0000
0010
0000
1000
0000
1000
0000
0100
0000
0010
0000
0100
1000
,  // measure 45
0001
0010
0100
0010
1000
0100
0010
0001
,  // measure 46
0001
0100
0010
1000
0200
0000
0300
0000
,  // measure 47
0011
1010
0011
0000
1000
0100
0001
0010
,  // measure 48
0010
0000
0001
0000
0100
0000
0010
0000
0100
0001
0100
0001
0100
0001
0100
0001
,  // measure 49
0100
0010
0010
0001
1000
0100
0100
0001
,  // measure 50
0100
1000
0001
0010
0100
0000
0000
0000
;
