#TITLE:Hotel Mario Remix (Ver.A);
#SUBTITLE:;
#ARTIST:Funtastic Power!;
#TITLETRANSLIT:;
#SUBTITLETRANSLIT:;
#ARTISTTRANSLIT:;
#GENRE:;
#CREDIT:;
#BANNER:Hotel Mario Remix (Ver.A).png;
#BACKGROUND:Hotel Mario Remix (Ver.A)-bg.png;
#LYRICSPATH:;
#CDTITLE:cdtitle.png;
#MUSIC:Hotel Mario Remix (Ver.A).ogg;
#OFFSET:-0.057000;
#SAMPLESTART:5.200000;
#SAMPLELENGTH:15.000000;
#SELECTABLE:YES;
#DISPLAYBPM:140.000000;
#BPMS:0.000000=140.000000
;
#STOPS:
;
#BGCHANGES:;
#KEYSOUNDS:;
#ATTACKS:;

//---------------dance-single - ----------------
#NOTES:
     dance-single:
     :
     Easy:
     3:
     0.190397,0.261755,0.090358,0.248484,0.000000,118.000000,110.000000,8.000000,22.000000,0.000000,0.000000,0.190397,0.261755,0.090358,0.248484,0.000000,118.000000,110.000000,8.000000,22.000000,0.000000,0.000000:
0000
0000
0000
0000
,
0000
0000
0000
0000
,
0000
0000
0000
0000
,
1000
0000
1000
0000
,
0100
0000
0100
0000
,
1000
0100
1000
0100
,
0001
0010
0200
0300
,
0220
0330
1000
0000
,
0001
0000
1000
0100
,
0100
0001
0010
0001
,
0100
0010
0200
0300
,
1000
0000
1000
0000
,
0100
0000
0100
0000
,
0001
0000
1000
0000
,
0010
0000
2002
3003
,
0220
0330
1000
0000
,
0100
0100
0001
0000
,
0010
0000
0100
0000
,
0010
0000
0002
0003
,
1000
0000
1000
0000
,
0100
0000
0100
0000
,
1000
0100
1000
0100
,
0001
0010
0200
0300
,
0220
0330
1000
0000
,
0001
0000
1000
0100
,
0100
0001
0010
0001
,
0100
0010
0200
0300
,
1000
0000
0000
0000
,
0001
0000
0000
0000
,
0100
0000
0000
0000
,
0010
0000
0000
0000
,
0220
0330
0000
0000
,
1000
0000
0100
0000
,
0010
0000
0000
0000
,
1000
0000
0001
0000
,
1000
1000
0100
0000
,
0100
0000
0100
0000
,
1000
1000
0001
0000
,
0010
0000
0100
0000
,
2002
3003
0001
0000
,
0100
0100
0010
0000
,
1000
0000
0001
0000
,
0001
0000
0100
0000
,
1000
0000
1000
0000
,
0100
0000
0100
0000
,
1000
0000
0001
0000
,
0100
0000
0020
0030
,
0220
0330
1000
0100
,
0010
0000
1000
0000
,
1000
0000
0001
0000
,
0100
0000
0100
0000
,
2002
0000
3003
0000
;

//---------------dance-single - ----------------
#NOTES:
     dance-single:
     :
     Beginner:
     1:
     0.080677,0.116336,0.011295,0.090358,0.000000,50.000000,49.000000,1.000000,8.000000,0.000000,0.000000,0.080677,0.116336,0.011295,0.090358,0.000000,50.000000,49.000000,1.000000,8.000000,0.000000,0.000000:
0000
0000
0000
0000
,
0000
0000
0000
0000
,
0000
0000
0000
0000
,
1000
0000
0000
0000
,
1000
0000
0000
0000
,
0001
0000
0000
0000
,
0001
0000
0000
0000
,
2000
3000
0000
0000
,
1000
0000
0000
0000
,
0001
0000
0000
0000
,
0001
0000
0000
0000
,
0100
0000
0000
0000
,
0100
0000
0000
0000
,
0010
0000
0000
0000
,
0010
0000
0000
0000
,
0200
0300
0000
0000
,
0100
0000
0000
0000
,
0010
0000
0000
0000
,
0010
0000
0000
0000
,
1000
0000
0000
0000
,
1000
0000
0000
0000
,
0100
0000
0000
0000
,
0100
0000
0000
0000
,
0020
0030
0000
0000
,
0010
0000
0000
0000
,
0001
0000
0000
0000
,
0001
0000
0000
0000
,
0100
0000
0000
0000
,
1000
0000
0000
0000
,
0100
0000
0000
0000
,
0001
0000
0000
0000
,
0020
0030
0000
0000
,
1000
0000
0000
0000
,
0010
0000
0000
0000
,
0001
0000
0000
0000
,
0100
0000
0000
0000
,
0010
0000
0000
0000
,
1000
0000
0000
0000
,
0100
0000
0000
0000
,
2000
3000
0000
0000
,
1000
0000
0000
0000
,
0100
0000
0000
0000
,
0010
0000
0000
0000
,
0001
0000
0000
0000
,
1000
0000
0000
0000
,
0100
0000
0000
0000
,
0010
0000
0000
0000
,
0200
0300
0000
0000
,
0001
0000
0000
0000
,
0010
0000
0000
0000
,
0100
0000
0000
0000
,
0220
0000
0330
0000
;

//---------------dance-single - ----------------
#NOTES:
     dance-single:
     :
     Medium:
     5:
     0.337228,0.319923,0.158126,0.282368,0.000000,209.000000,195.000000,14.000000,25.000000,0.000000,0.000000,0.337228,0.319923,0.158126,0.282368,0.000000,209.000000,195.000000,14.000000,25.000000,0.000000,0.000000:
0000
0000
0000
0000
,
0000
0000
0000
0000
,
0000
0000
0000
0000
,
1000
0100
0010
0100
,
0100
0000
0001
0000
0010
0000
0100
1000
,
0001
0010
0100
0010
,
0010
1000
0200
0300
,
2000
0001
3001
0000
0100
0000
0100
0000
,
0010
0000
0001
0000
0100
0000
0010
0100
,
1000
0001
0001
1000
,
0100
1000
2002
3003
,
0100
0010
0100
0000
1000
0000
0100
0000
,
1000
0000
0010
0000
0100
0000
0001
1000
,
0001
0010
0001
0100
,
0010
0010
0022
0033
,
0002
1000
1003
0000
0100
0000
0100
0000
,
0001
0000
0100
0000
0010
0000
0100
0010
,
0001
1000
1000
0001
,
0100
0010
2000
3000
,
1000
0100
0010
0100
,
0100
0000
0001
0000
0010
0000
0100
1000
,
0001
0010
0100
0010
,
0010
1000
0200
0300
,
2000
0001
3001
0000
0100
0000
0100
0000
,
0010
0000
0001
0000
0100
0000
0010
0100
,
1000
0001
0001
1000
,
0100
1000
2002
3003
,
0000
1100
0000
0101
,
0000
1100
0000
0101
,
0000
0110
0000
1010
,
0000
1001
2000
0000
,
0001
0001
3001
0000
0100
0000
0100
0000
,
0010
0000
0100
0000
0001
0000
0010
0001
,
0100
0100
1000
0001
,
0010
0010
2000
3001
,
1000
0100
0001
0000
0100
0000
0100
0000
,
0010
0000
0100
0000
0001
0000
0010
0100
,
0010
0100
0001
0001
,
1000
0001
0220
0330
,
0200
1000
1300
0000
0010
0000
0001
0000
,
0010
0000
0010
0000
1000
0000
0100
1000
,
1000
0001
0001
1000
,
0100
1000
0022
0033
,
0100
0001
1000
0000
0100
0000
0100
0000
,
0010
0000
1000
0000
0100
0000
0010
0100
,
1000
0001
0001
1000
,
0100
0100
0202
0303
,
0200
0010
0310
0000
0001
0000
0100
0000
,
0100
0010
1000
0100
,
0010
0001
1000
1000
,
0100
0010
0200
0301
,
0220
0000
0330
0000
;

//---------------dance-single - ----------------
#NOTES:
     dance-single:
     :
     Hard:
     8:
     0.559895,0.581678,0.271073,0.124242,0.079063,347.000000,323.000000,24.000000,11.000000,0.000000,0.000000,0.559895,0.581678,0.271073,0.124242,0.079063,347.000000,323.000000,24.000000,11.000000,0.000000,0.000000:
// measure 0
0000
0000
0000
0000
,  // measure 1
0000
0000
0000
0000
,  // measure 2
0000
0000
0000
0000
,  // measure 3
1000
0100
0100
0010
0100
0001
0010
1000
,  // measure 4
0010
0000
0100
0000
0001
0000
0010
0000
0100
0000
0001
0000
1000
0000
0010
0001
,  // measure 5
0010
0100
1000
0100
0001
0100
1000
0100
,  // measure 6
0010
1000
0100
0010
0002
0000
1003
0000
,  // measure 7
1001
0110
1001
0000
1000
0100
0010
0001
,  // measure 8
0010
0000
0010
0000
0001
0000
0100
0000
0010
0000
1000
0000
0100
0000
0010
0001
,  // measure 9
0100
1000
0001
1000
0100
0001
0010
0010
,  // measure 10
0001
0100
0010
1000
0200
0000
0300
0000
,  // measure 11
1000
1000
1000
0000
0001
0010
0001
0000
,  // measure 12
0100
0010
0100
0000
0001
0001
0001
0000
,  // measure 13
0010
1000
0010
0000
0100
0001
0100
0000
,  // measure 14
1000
0001
1000
0000
0220
0000
0330
0000
,  // measure 15
1001
0110
1001
0000
0100
0100
0100
0000
,  // measure 16
0001
0010
0001
0000
0100
0010
0100
0000
,  // measure 17
1000
1000
1000
0000
0001
0001
0001
0000
,  // measure 18
0100
0010
0100
0000
0020
0000
0030
0000
,  // measure 19
1000
0100
0100
0010
0100
0001
0010
1000
,  // measure 20
0010
0000
0100
0000
0001
0000
0010
0000
0100
0000
0001
0000
1000
0000
0010
0001
,  // measure 21
0010
0100
1000
0100
0001
0100
1000
0100
,  // measure 22
0010
1000
0100
0010
0002
0000
1003
0000
,  // measure 23
1001
0110
1001
0000
1000
0100
0010
0001
,  // measure 24
0010
0000
0010
0000
0001
0000
0100
0000
0010
0000
1000
0000
0100
0000
0010
0001
,  // measure 25
0100
1000
0001
1000
0100
0001
0010
0010
,  // measure 26
0001
0100
0010
1000
0200
0000
0300
0000
,  // measure 27
1000
1100
0001
0101
,  // measure 28
0010
0110
1000
1001
,  // measure 29
0001
0011
1000
1010
,  // measure 30
0001
0000
0000
0000
1001
0000
0000
0000
1000
0001
1000
0001
1000
0001
1000
0001
,  // measure 31
1000
0001
1000
0000
0100
0010
0100
0000
,  // measure 32
1000
0100
0010
0000
1000
0100
0001
0100
,  // measure 33
1000
0000
0010
1000
0010
0100
0001
0000
,  // measure 34
1000
0100
1000
0100
0001
0000
0011
0000
,  // measure 35
1000
0100
0100
0010
0100
0100
0001
0010
,  // measure 36
1000
0000
0001
0000
0010
0000
0100
0000
1000
0000
0010
0000
0100
0000
0010
1000
,  // measure 37
0001
0100
0010
0100
0001
0001
0010
1000
,  // measure 38
0010
0100
0100
0010
0002
0000
0003
0000
,  // measure 39
1001
0110
1001
0000
0100
0001
0001
0010
,  // measure 40
0001
0000
0100
0000
0100
0000
0010
0000
1000
0000
0100
0000
0010
0000
0100
0010
,  // measure 41
0001
1000
0001
0100
0100
0010
1000
0100
,  // measure 42
0010
0100
0001
1000
0002
0000
0013
0000
,  // measure 43
1000
0100
0010
0000
0100
0100
0100
0000
,  // measure 44
0001
0010
0100
0000
0010
0010
0010
0000
,  // measure 45
1000
0001
0100
0000
0001
0001
0001
0000
,  // measure 46
1000
0000
0100
0010
0200
0000
0310
0000
,  // measure 47
0110
1001
0110
0000
1000
1000
1000
0000
,  // measure 48
0010
0001
0010
0000
0100
0100
0100
0000
,  // measure 49
0010
1000
0010
0000
0100
0000
0010
0000
,  // measure 50
0001
0000
0000
0000
0010
0000
1000
0000
0001
1000
0001
1000
0001
1000
0001
1000
,  // measure 51
0002
0000
0003
0000
;
