#TITLE:Hizashi no oku no;
#SUBTITLE:;
#ARTIST:Aie;
#TITLETRANSLIT:;
#SUBTITLETRANSLIT:;
#ARTISTTRANSLIT:;
#GENRE:;
#CREDIT:;
#BANNER:Hizashi no oku no.png;
#BACKGROUND:Hizashi no oku no-bg.png;
#LYRICSPATH:;
#CDTITLE:cdtitle.png;
#MUSIC:Hizashi no oku no.ogg;
#OFFSET:0.000000;
#SAMPLESTART:15.950000;
#SAMPLELENGTH:15.000000;
#SELECTABLE:YES;
#DISPLAYBPM:120.000000;
#BPMS:0.000000=19.277000
,4.000000=120.000000
,172.000000=121.500008
,236.000000=121.099991
;
#STOPS:
;
#BGCHANGES:;
#KEYSOUNDS:;
#ATTACKS:;

//---------------dance-single - ----------------
#NOTES:
     dance-single:
     :
     Easy:
     1:
     0.090974,0.132670,0.005896,0.070757,0.000000,108.000000,107.000000,1.000000,12.000000,0.000000,0.000000,0.090974,0.132670,0.005896,0.070757,0.000000,108.000000,107.000000,1.000000,12.000000,0.000000,0.000000:
0000
0000
0000
0000
,
0000
0000
0000
0000
,
0000
0000
0000
0000
,
1000
0000
0000
0000
,
1000
0000
0100
0000
,
0002
0000
0003
0000
,
2000
0000
3000
0000
,
0001
0000
0000
0000
,
0001
0000
0100
0000
,
2000
0000
3000
0000
,
0100
0000
0100
0000
,
0010
0000
0000
0000
,
1000
0000
0000
0000
,
0001
0000
0000
0000
,
1000
0000
0000
0000
,
0010
0000
0000
0000
,
0001
0000
1000
0000
,
0100
0000
0000
0000
,
0001
0000
1000
1000
,
0100
0000
0000
0000
,
0001
0000
0000
0000
,
0010
0000
0100
0000
,
0001
0000
0100
0100
,
0010
0000
0000
0000
,
0010
0000
0001
0000
,
0200
0000
0300
0000
,
0020
0000
0030
0000
,
0100
0000
0000
0000
,
0100
0000
1000
0000
,
0020
0000
0030
0000
,
0001
0000
0001
0000
,
1000
0000
0000
0000
,
0010
0000
0000
0000
,
0001
0000
0000
0000
,
0100
0000
0000
0000
,
0100
0000
1000
0100
,
1000
0000
0000
0000
,
0100
0000
0000
0000
,
1000
0000
0000
0000
,
0010
0000
0001
0010
,
0001
0000
0000
0000
,
0010
0000
0000
0000
,
0001
0000
0000
0000
,
0010
0000
0000
0000
,
0001
0000
1000
0000
,
0100
0000
0000
0000
,
0001
0000
1000
1000
,
0100
0000
0000
0000
,
0001
0000
0000
0000
,
0010
0000
0100
0000
,
0001
0000
0100
0100
,
1000
0000
0000
0000
,
1000
0000
0100
0000
,
0002
0000
0003
0000
,
2000
0000
3000
0000
,
0001
0000
0000
0000
,
0001
0000
0100
0000
,
2000
0000
3000
0000
,
0100
0000
0100
0000
,
0010
0000
0000
0000
,
0010
0000
0001
0000
,
0200
0000
0300
0000
,
0020
0000
0030
0000
,
0100
0000
0000
0000
,
0100
0000
1000
0000
,
0020
0000
0030
0000
,
0001
0000
0001
0000
,
1000
0000
0000
0000
,
1000
0000
0100
0100
,
0001
0000
0000
0000
,
1000
0000
0100
0100
,
0001
0000
0000
0000
,
1000
0000
0100
0100
,
0001
0000
0000
0000
,
1000
0000
0000
0000
,
1001
0000
0000
0000
;

//---------------dance-single - ----------------
#NOTES:
     dance-single:
     :
     Beginner:
     1:
     0.065703,0.088447,0.000000,0.023586,0.000000,78.000000,78.000000,0.000000,4.000000,0.000000,0.000000,0.065703,0.088447,0.000000,0.023586,0.000000,78.000000,78.000000,0.000000,4.000000,0.000000,0.000000:
// measure 0
0000
0000
0000
0000
,  // measure 1
0000
0000
0000
0000
,  // measure 2
0000
0000
0000
0000
,  // measure 3
0001
0000
0000
0000
,  // measure 4
1000
0000
0000
0000
,  // measure 5
0001
0000
0000
0000
,  // measure 6
0001
0000
0000
0000
,  // measure 7
1000
0000
0000
0000
,  // measure 8
0001
0000
0000
0000
,  // measure 9
1000
0000
0000
0000
,  // measure 10
1000
0000
0000
0000
,  // measure 11
0200
0000
0000
0300
,  // measure 12
0000
0000
0000
0000
,  // measure 13
0020
0000
0000
0030
,  // measure 14
0000
0000
0000
0000
,  // measure 15
0100
0000
0000
0000
,  // measure 16
0100
0000
0000
0000
,  // measure 17
0010
0000
0000
0000
,  // measure 18
0010
0000
0100
0000
,  // measure 19
1000
0000
0000
0000
,  // measure 20
1000
0000
0000
0000
,  // measure 21
0001
0000
0000
0000
,  // measure 22
0001
0000
0010
0000
,  // measure 23
1000
0000
0000
0000
,  // measure 24
0001
0000
0000
0000
,  // measure 25
1000
0000
0000
0000
,  // measure 26
1000
0000
0000
0000
,  // measure 27
0001
0000
0000
0000
,  // measure 28
1000
0000
0000
0000
,  // measure 29
0001
0000
0000
0000
,  // measure 30
0001
0000
0000
0000
,  // measure 31
0020
0000
0000
0030
,  // measure 32
0000
0000
0000
0000
,  // measure 33
0200
0000
0000
0300
,  // measure 34
0000
0000
0000
0000
,  // measure 35
0100
0000
0000
0000
,  // measure 36
0010
0000
0100
0000
,  // measure 37
0010
0000
0000
0000
,  // measure 38
0100
0000
0000
0000
,  // measure 39
0001
0000
0000
0000
,  // measure 40
1000
0000
0001
0000
,  // measure 41
1000
0000
0000
0000
,  // measure 42
0001
0000
0000
0000
,  // measure 43
0010
0000
0000
0000
,  // measure 44
0010
0000
0000
0000
,  // measure 45
0100
0000
0000
0000
,  // measure 46
0100
0000
0010
0000
,  // measure 47
0001
0000
0000
0000
,  // measure 48
0001
0000
0000
0000
,  // measure 49
1000
0000
0000
0000
,  // measure 50
1000
0000
0100
0000
,  // measure 51
0001
0000
0000
0000
,  // measure 52
1000
0000
0000
0000
,  // measure 53
0001
0000
0000
0000
,  // measure 54
0001
0000
0000
0000
,  // measure 55
1000
0000
0000
0000
,  // measure 56
0001
0000
0000
0000
,  // measure 57
1000
0000
0000
0000
,  // measure 58
1000
0000
0000
0000
,  // measure 59
1000
0000
0000
0000
,  // measure 60
0001
0000
0000
0000
,  // measure 61
1000
0000
0000
0000
,  // measure 62
1000
0000
0000
0000
,  // measure 63
0001
0000
0000
0000
,  // measure 64
1000
0000
0000
0000
,  // measure 65
0001
0000
0000
0000
,  // measure 66
0001
0000
0000
0000
,  // measure 67
0100
0000
0000
0000
,  // measure 68
0100
0000
0100
0000
,  // measure 69
0100
0000
0000
0000
,  // measure 70
1000
0000
1000
0000
,  // measure 71
1000
0000
0000
0000
,  // measure 72
0010
0000
0010
0000
,  // measure 73
0010
0000
0000
0000
,  // measure 74
0001
0000
0000
0000
,  // measure 75
0001
0000
0000
0000
;

//---------------dance-single - ----------------
#NOTES:
     dance-single:
     :
     Medium:
     3:
     0.183632,0.199005,0.100239,0.100239,0.000000,218.000000,201.000000,17.000000,17.000000,0.000000,0.000000,0.183632,0.199005,0.100239,0.100239,0.000000,218.000000,201.000000,17.000000,17.000000,0.000000,0.000000:
0000
0000
0000
0000
,
0000
0000
0000
0000
,
0000
0000
0000
0000
,
0100
0000
1000
0100
,
1000
0010
0001
0000
,
2000
0100
3100
0000
,
0002
0100
0103
0000
,
1001
0000
0010
1000
,
0010
0001
0100
0000
,
0010
0001
0100
0000
,
0010
1001
0100
0001
,
2000
0000
0010
0000
,
0001
0000
0010
3000
,
0100
0000
0001
0000
,
0100
0000
1000
0000
,
0110
0000
0010
0000
,
1001
0100
0100
0000
,
1000
0000
0001
0000
,
0010
0010
1000
0010
,
0110
0000
1000
0000
,
0001
0000
0010
0000
,
0010
0000
0100
0000
,
1000
1000
0010
1000
,
0010
0000
0001
0010
,
0001
0100
1000
0000
,
0002
0010
0013
0000
,
2000
0010
3010
0000
,
1001
0000
0100
0001
,
0100
1000
0010
0000
,
0100
1000
0010
0000
,
0100
1001
0010
1000
,
0002
0000
0100
0000
,
1000
0000
0100
0003
,
0010
0000
1000
0000
,
0010
0000
0001
0000
,
1001
0100
0100
0001
,
1000
0000
0000
0000
,
0010
0000
0010
0001
,
0010
0100
0100
0010
,
0110
0000
0010
0001
,
0100
0000
0000
0000
,
1000
0000
0001
0001
,
0200
0020
0000
0330
,
0110
0000
0100
0000
,
1001
0010
0010
0000
,
0001
0000
1000
0000
,
0100
0100
0001
0100
,
0110
0000
0001
0000
,
1000
0000
0100
0000
,
0100
0000
0010
0000
,
0001
0001
0100
0001
,
0100
0000
1000
0100
,
1000
0010
0001
0000
,
2000
0100
3100
0000
,
0002
0100
0103
0000
,
1001
0000
0010
1000
,
0010
0001
0100
0000
,
0010
0001
0100
0000
,
0010
1001
0100
0001
,
0010
0000
0001
0010
,
0001
0100
1000
0000
,
0002
0010
0013
0000
,
2000
0010
3010
0000
,
1001
0000
0100
0001
,
0100
1000
0010
0000
,
0100
1000
0010
0000
,
0100
1001
0010
1000
,
0200
0000
0000
0300
,
0001
1000
0001
1000
,
0020
0000
0000
0030
,
1000
0001
1000
0001
,
0200
0000
0000
0300
,
0001
1000
0001
1000
,
0020
0001
0031
0000
,
0020
1000
1030
0000
,
0110
0000
0000
0000
;

//---------------dance-single - ----------------
#NOTES:
     dance-single:
     :
     Hard:
     6:
     0.287241,0.287451,0.088447,0.047171,0.058964,341.000000,326.000000,15.000000,8.000000,0.000000,0.000000,0.287241,0.287451,0.088447,0.047171,0.058964,341.000000,326.000000,15.000000,8.000000,0.000000,0.000000:
0000
0000
0000
0000
,
0000
0000
0000
0000
,
0000
0000
0000
0000
,
0101
0000
1000
0100
,
1000
0001
1000
0100
0000
0000
0000
0000
,
0001
0000
0001
0000
0001
1000
0001
0000
,
1000
0000
1000
0000
1000
0001
1000
0000
,
0011
0000
0001
0100
,
0001
1000
0001
0010
0000
0000
0000
0000
,
0100
0000
0010
0000
1000
0010
0100
0000
,
0001
0000
0001
0000
1000
0100
0010
0000
,
2001
0010
0010
0010
,
0000
0001
0001
3001
,
0100
0000
0000
0000
0010
0000
0000
0000
1000
0000
0000
1000
0000
0000
1000
0000
,
0100
0000
0000
0000
1001
0000
0000
0000
0010
0000
0000
0010
0000
0000
0010
0000
,
0001
0000
0000
0000
1000
0000
0100
0000
0000
0100
0000
0000
0000
0000
0000
0000
,
1000
0000
0000
1000
0000
0000
1000
0000
0000
0000
0001
0000
1000
0000
0000
0000
,
0100
0000
0000
0001
0000
0000
0100
0000
0001
0000
0000
0010
0000
0000
0000
0000
,
1000
0000
0001
0000
1000
0100
0001
0000
,
0010
0000
0000
0000
0100
0000
0001
0000
0000
0001
0000
0000
0000
0000
0000
0000
,
0010
0000
0000
0010
0000
0000
0010
0000
0000
0000
0001
0000
1000
0000
0000
0000
,
0010
0000
0000
0001
0000
0000
0010
0000
1000
0000
0000
0100
0000
0000
0000
0000
,
0001
0000
1000
0000
0001
0010
1000
0000
,
1010
0000
0001
0010
,
0001
1000
0001
0010
0000
0000
0000
0000
,
1000
0000
1000
0000
1000
0001
1000
0000
,
0001
0000
0001
0000
0001
1000
0001
0000
,
1100
0000
1000
0010
,
1000
0001
1000
0100
0000
0000
0000
0000
,
0010
0000
0100
0000
0001
0100
0010
0000
,
1000
0000
1000
0000
0001
0010
0100
0000
,
1002
0100
0100
0100
,
0003
0000
1000
0100
1000
0100
1000
0000
,
0010
0000
0000
0000
0100
0000
0000
0000
0001
0000
0000
0001
0000
0000
0001
0000
,
0010
0000
0000
0000
1001
0000
0000
0000
0100
0000
0000
0100
0000
0000
0100
0000
,
0010
0000
1000
0000
1000
0100
0001
0000
,
0010
0000
0001
0100
1000
0000
0000
0000
,
0010
0000
1000
0100
0010
0100
0010
0010
,
0002
1000
0100
0103
,
1100
0000
0010
0000
0001
0100
1000
0000
,
0010
0000
1000
0100
0001
0000
0000
0000
,
1000
1000
0001
0010
0001
0100
0010
0000
,
0020
0000
0000
0030
,
1000
0000
0000
0000
0001
0000
0010
0000
0000
0010
0000
0000
0000
0000
0000
0000
,
0001
0000
0000
0001
0000
0000
0001
0000
0000
0000
1000
0000
0001
0000
0000
0000
,
0010
0000
0000
1000
0000
0000
0010
0000
1000
0000
0000
0100
0000
0000
0000
0000
,
0001
0000
1000
0000
0001
0010
1000
0000
,
0100
0000
0000
0000
0010
0000
1000
0000
0000
1000
0000
0000
0000
0000
0000
0000
,
0100
0000
0000
0100
0000
0000
0100
0000
0000
0000
1000
0000
0001
0000
0000
0000
,
0100
0000
0000
1000
0000
0000
0100
0000
0001
0000
0000
0010
0000
0000
0000
0000
,
1000
0000
0001
0000
1000
0100
0001
0000
,
0101
0000
1000
0100
,
1000
0001
1000
0100
0000
0000
0000
0000
,
0001
0000
0001
0000
0001
1000
0001
0000
,
1000
0000
1000
0000
1000
0001
1000
0000
,
0011
0000
0001
0100
,
0001
1000
0001
0010
0000
0000
0000
0000
,
0100
0000
0010
0000
1000
0010
0100
0000
,
0001
0000
0001
0000
1000
0100
0010
0000
,
1010
0000
0001
0010
,
0001
1000
0001
0010
0000
0000
0000
0000
,
1000
0000
1000
0000
1000
0001
1000
0000
,
0001
0000
0001
0000
0001
1000
0001
0000
,
1100
0000
1000
0010
,
1000
0001
1000
0100
0000
0000
0000
0000
,
0010
0000
0100
0000
0001
0100
0010
0000
,
1000
0000
1000
0000
0001
0010
0100
0000
,
2001
0010
0010
3010
,
1000
0100
1000
0100
0001
0010
0001
0000
,
0020
0100
0100
0130
,
0001
0010
0001
0010
1000
0100
1000
0000
,
0200
0010
0010
0310
,
1000
0100
1000
0100
0001
0010
0001
0000
,
2000
0001
0001
0001
,
0000
0010
0010
3010
,
1001
0000
0000
0000
;
