#TITLE:HERE COMES TROUBLE;
#SUBTITLE:;
#ARTIST:DJ RAA-DEE;
#TITLETRANSLIT:;
#SUBTITLETRANSLIT:;
#ARTISTTRANSLIT:;
#GENRE:;
#CREDIT:;
#BANNER:Here Comes Trouble.png;
#BACKGROUND:Here Comes Trouble-bg.png;
#LYRICSPATH:;
#CDTITLE:cdtitle.png;
#MUSIC:Here Comes Trouble.ogg;
#OFFSET:0.000000;
#SAMPLESTART:13.591000;
#SAMPLELENGTH:15.000000;
#SELECTABLE:YES;
#DISPLAYBPM:114.000000;
#BPMS:0.000000=33.029999
,4.000000=113.839996
;
#STOPS:
;
#BGCHANGES:;
#KEYSOUNDS:;
#ATTACKS:;

//---------------dance-single - ----------------
#NOTES:
     dance-single:
     :
     Easy:
     3:
     0.162565,0.212041,0.021204,0.120157,0.000000,161.000000,158.000000,3.000000,17.000000,0.000000,0.000000,0.162565,0.212041,0.021204,0.120157,0.000000,161.000000,158.000000,3.000000,17.000000,0.000000,0.000000:
0000
0000
0000
0000
,
0000
0000
0000
0000
,
0000
0000
0000
0000
,
0000
0000
0000
0000
,
1000
0100
0010
0000
,
0100
0000
0010
0000
,
0001
0100
0010
0000
,
0100
0000
0010
0000
,
1000
0100
0010
0000
,
1000
0000
0001
0000
,
0001
0100
0010
0000
,
0100
0100
0100
0100
,
0001
0000
0100
0000
,
1000
0000
0001
0000
,
1000
1000
0001
0001
,
0200
0300
0200
0300
,
0010
0100
0100
0010
,
0001
0100
0001
1000
,
1001
0100
0010
0010
,
0200
0300
0200
0300
,
1000
0000
2000
3001
,
0100
0100
0001
0000
,
1000
0100
1000
0001
,
0200
0300
0200
0300
,
1000
0010
1000
0001
,
0001
0010
1000
0000
,
0100
0100
0001
1000
,
0200
0300
0200
0300
,
1000
0100
0010
0000
,
0100
0000
0010
0000
,
0001
0100
0010
0000
,
0100
0000
0010
0000
,
1000
0100
0010
0000
,
1000
0000
0001
0000
,
0001
0100
0010
0000
,
0100
0100
0100
0100
,
1000
0000
0000
0000
0000
0001
0001
0000
,
1000
0000
0100
0000
,
1000
0000
0001
0000
,
0200
0300
0200
0300
,
0010
0000
0000
0000
0000
1000
1000
0000
,
0010
0000
0001
0000
,
1000
0000
0010
0000
,
0200
0300
0200
0300
,
1000
0100
1000
0000
,
0001
0100
0001
0000
,
0010
1000
0010
0001
,
0200
0300
0200
0300
,
0010
1000
0100
0010
,
0100
0100
0001
1000
,
1001
0010
1000
0001
,
0200
0300
0200
0300
,
1000
0100
0010
0000
,
0100
0000
0010
0000
,
0001
0100
0010
0000
,
0100
0000
0010
0000
,
1000
0100
0010
0000
,
1000
0000
0001
0000
,
0001
0100
0010
0000
,
0100
0000
0010
0000
,
0110
0000
0000
0000
;

//---------------dance-single - ----------------
#NOTES:
     dance-single:
     :
     Beginner:
     1:
     0.071690,0.106021,0.014136,0.014136,0.000000,71.000000,69.000000,2.000000,2.000000,0.000000,0.000000,0.071690,0.106021,0.014136,0.014136,0.000000,71.000000,69.000000,2.000000,2.000000,0.000000,0.000000:
0000
0000
0000
0000
,
0000
0000
0000
0000
,
0000
0000
0000
0000
,
0000
0000
0000
0000
,
1000
0000
0000
0000
,
1000
0000
0000
0000
,
0100
0000
0000
0000
,
0100
0000
0000
0000
,
0010
0000
0000
0000
,
0010
0000
0000
0000
,
0001
0000
0000
0000
,
0002
0000
0000
0003
,
1000
0000
0000
0000
,
0001
0000
0000
0000
,
0100
0000
0000
0000
,
0010
0000
0010
0000
,
0001
0000
0000
0000
,
0010
0000
0000
0000
,
0100
0000
0000
0000
,
0010
0000
0010
0000
,
0100
0000
0000
0000
,
1000
0000
0100
0000
,
1000
0000
0000
0000
,
0010
0000
0000
0000
,
0100
0000
0100
0000
,
0001
0000
0010
0000
,
0100
0000
0000
0000
,
0010
0000
0010
0000
,
1000
0000
0000
0000
,
1000
0000
0000
0000
,
0100
0000
0000
0000
,
0100
0000
0000
0000
,
0010
0000
0000
0000
,
0010
0000
0000
0000
,
0001
0000
0000
0000
,
0002
0000
0000
0003
,
0001
0000
0000
0100
,
0100
0000
0000
0000
,
1000
0000
0000
0000
,
0010
0000
0010
0000
,
0001
0000
0000
0100
,
0100
0000
0000
0000
,
1000
0000
0000
0000
,
0010
0000
0010
0000
,
0001
0000
0000
0000
,
1000
0000
0000
0000
,
0001
0000
0000
0000
,
0010
0000
0010
0000
,
0001
0000
0000
0000
,
0100
0000
0000
0000
,
1001
0000
0000
0000
,
0010
0000
0010
0000
,
1000
0000
0000
0000
,
1000
0000
0000
0000
,
0100
0000
0000
0000
,
0100
0000
0000
0000
,
0010
0000
0000
0000
,
0010
0000
0000
0000
,
0001
0000
0000
0000
,
0001
0000
0000
0000
,
1001
0000
0000
0000
;

//---------------dance-single - ----------------
#NOTES:
     dance-single:
     :
     Medium:
     6:
     0.282721,0.318062,0.219109,0.084816,0.035340,280.000000,249.000000,31.000000,12.000000,0.000000,0.000000,0.282721,0.318062,0.219109,0.084816,0.035340,280.000000,249.000000,31.000000,12.000000,0.000000,0.000000:
0000
0000
0000
0000
,
0000
0000
0000
0000
,
0000
0000
0000
0000
,
0000
0000
0000
0000
,
0010
0000
1000
0010
1000
0000
0000
0000
,
0010
0000
0000
0010
0000
0000
0010
0000
0100
0000
0000
0000
0000
0000
0000
0000
,
0010
0000
1000
0010
1000
0000
0000
0000
,
0010
0000
0000
0010
0000
0000
0010
0000
0100
0000
0000
0000
0000
0000
0000
0000
,
0100
0000
1000
0100
1000
0000
0000
0000
,
0100
0000
0000
0100
0000
0000
0100
0000
0010
0000
0000
0000
0000
0000
0000
0000
,
0100
0000
1000
0100
1000
0000
0000
0000
,
1100
0101
1100
0101
,
1000
0100
0100
0001
,
0010
0000
0001
0000
0100
1000
0001
0000
,
0101
0000
1000
0000
0010
1000
0100
0000
,
2001
3100
2001
3100
,
0010
0100
0010
0010
,
1000
0000
0100
0000
1000
0000
0010
0001
,
0100
0010
0010
0100
,
2001
3100
2001
3100
,
0010
0000
0110
0000
0010
0010
0010
0000
,
1000
0100
0001
0000
1000
0010
0001
0000
,
1100
0001
0100
0010
,
1000
0100
1000
0000
0001
0100
0001
0000
,
1100
1001
0010
0010
,
0011
0000
1001
0000
0010
1000
0001
0000
,
0100
0100
0100
0000
0001
0010
0100
0000
,
1000
0010
1000
0010
0001
0100
0001
0100
,
0010
0000
1000
0010
1000
0000
0000
0000
,
0010
0000
0000
0010
0000
0000
0010
0000
0100
0000
0000
0000
0000
0000
0000
0000
,
0010
0000
1000
0010
1000
0000
0000
0000
,
0010
0000
0000
0010
0000
0000
0010
0000
0100
0000
0000
0000
0000
0000
0000
0000
,
0100
0000
1000
0100
1000
0000
0000
0000
,
0100
0000
0000
0100
0000
0000
0100
0000
0010
0000
0000
0000
0000
0000
0000
0000
,
0100
0000
1000
0100
1000
0000
0000
0000
,
1100
0101
1100
0101
,
0010
0000
0010
0000
0010
1000
0001
0000
,
0100
0010
0100
0010
,
0110
1000
0100
0010
,
2001
3100
2001
3100
,
0010
0000
0010
0000
0010
1000
0001
0000
,
0100
0010
0100
0010
,
0110
1000
0100
0010
,
2001
3100
2001
3100
,
0010
0000
0010
0000
0001
0100
1000
0000
,
0100
0100
1000
0000
0100
0100
0001
0000
,
1000
0010
0100
0000
0001
0010
0100
0000
,
2001
3100
2001
3100
,
0010
0001
0100
0010
,
1000
0100
0010
0000
0100
0000
0010
0000
,
0011
0000
1000
0000
0010
0001
0100
0000
,
2001
3100
2001
3100
,
0010
0000
1000
0010
1000
0000
0000
0000
,
0010
0000
0000
0010
0000
0000
0010
0000
0100
0000
0000
0000
0000
0000
0000
0000
,
0010
0000
1000
0010
1000
0000
0000
0000
,
0010
0000
0000
0010
0000
0000
0010
0000
0100
0000
0000
0000
0000
0000
0000
0000
,
0100
0000
1000
0100
1000
0000
0000
0000
,
0100
0000
0000
0100
0000
0000
0100
0000
0010
0000
0000
0000
0000
0000
0000
0000
,
0100
0000
1000
0100
1000
0000
0000
0000
,
0100
0000
0000
0100
0000
0000
0100
0000
0010
0000
0000
0000
0000
0000
0000
0000
,
0110
0000
0000
0000
;

//---------------dance-single - ----------------
#NOTES:
     dance-single:
     :
     Hard:
     11:
     0.470529,0.487695,0.261517,0.014136,0.332198,466.000000,429.000000,37.000000,2.000000,0.000000,0.000000,0.470529,0.487695,0.261517,0.014136,0.332198,466.000000,429.000000,37.000000,2.000000,0.000000,0.000000:
0000
0000
0000
0000
,
0000
0000
0000
0000
,
0000
0000
0000
0000
,
0000
0000
0000
0000
,
1000
0001
0000
1000
0000
0001
0000
1000
0001
0000
1000
0000
0010
0000
0000
0000
,
0100
0000
0010
0100
0000
0010
0100
0000
0001
0000
0000
0000
0100
0000
0100
0000
,
1000
0001
0000
1000
0000
0001
0000
1000
0001
0000
1000
0000
0010
0000
0000
0000
,
0100
0000
0010
0100
0000
0010
0100
0000
0001
0000
0000
0000
0100
0000
0100
0000
,
0001
1000
0000
0001
0000
1000
0000
0001
1000
0000
0001
0000
0010
0000
0000
0000
,
0100
0000
0010
0100
0000
0010
0100
0000
0001
0000
0000
0000
0100
0000
0100
0000
,
0001
1000
0000
0001
0000
1000
0000
0001
1000
0000
0001
0000
0010
0000
0000
0000
,
1000
0010
1000
0010
1000
0010
1000
0010
,
0100
0000
0010
0001
0100
0010
1000
0000
,
0001
0000
0010
0010
0001
0100
0001
0000
,
1001
1001
0100
0001
0010
1000
0100
0000
,
1100
1100
0100
0000
1100
1100
0100
0000
,
1000
0100
1000
0001
0010
0001
1000
0000
,
0010
0000
0100
0010
0000
0100
0001
0000
1000
0000
0001
1000
0000
0010
0100
0000
,
0001
0000
1000
0100
1000
0001
1000
0000
,
1100
1100
0100
0000
1100
1100
0100
0000
,
2001
0100
3100
0000
2001
0100
3100
0000
,
0100
0001
0100
1000
0100
0001
0100
0000
,
0010
0001
0010
1000
0010
0001
0010
0000
,
1000
0010
0100
0001
1000
0010
0100
0000
,
1000
0000
0001
1000
0000
0001
1000
0000
0001
0000
1000
0000
0001
0000
0000
0000
,
1000
0010
0001
0010
1000
0100
0001
0000
,
1000
0100
1000
0100
1000
0000
0001
0000
0010
0000
0100
0000
1000
0000
0000
0000
,
1100
0001
0010
0001
0101
0010
1000
0001
,
1000
0001
0000
1000
0000
0001
0000
1000
0001
0000
1000
0000
0010
0000
0000
0000
,
0100
0000
0010
0100
0000
0010
0100
0000
0001
0000
0000
0000
0100
0000
0100
0000
,
1000
0001
0000
1000
0000
0001
0000
1000
0001
0000
1000
0000
0010
0000
0000
0000
,
0100
0000
0010
0100
0000
0010
0100
0000
0001
0000
0000
0000
0100
0000
0100
0000
,
0001
1000
0000
0001
0000
1000
0000
0001
1000
0000
0001
0000
0010
0000
0000
0000
,
0100
0000
0010
0100
0000
0010
0100
0000
0001
0000
0000
0000
0100
0000
0100
0000
,
0001
1000
0000
0001
0000
1000
0000
0001
1000
0000
0001
0000
0010
0000
0000
0000
,
1000
0010
1000
0010
1000
0010
1000
0010
,
0100
0000
1000
0001
1000
0001
1000
0000
0100
0000
0010
0000
0010
0000
0000
0000
,
1000
0000
0001
1000
0000
0001
1000
0000
0001
0100
0001
0000
1000
0000
0001
0000
,
1000
0010
1000
0010
1000
0000
0001
0100
0001
0000
1000
0000
0100
0000
0000
0000
,
1100
1100
0100
0000
1100
1100
0100
0000
,
1001
0000
0000
0100
0000
0000
0001
0000
0010
0000
0100
0100
0000
0000
0000
0000
,
1000
0000
0001
1000
0000
0001
1000
0000
0001
0100
0001
0000
1000
0000
0100
0000
,
0010
0000
0001
1000
0001
0000
0100
1000
0100
0000
0010
1000
0010
0000
0000
0000
,
1100
1100
0100
0000
1100
1100
0100
0000
,
1001
0100
0001
0010
0100
0001
1000
0000
,
0101
0001
1000
0001
0001
0010
0100
0000
,
1000
0010
1000
0001
1000
0000
0100
0000
0010
0000
0010
0000
0100
0000
0000
0000
,
1100
1100
0100
0000
1100
1100
0100
0000
,
0101
0010
1000
0100
0100
1000
0001
0000
,
0110
0010
1000
0010
0100
0001
0010
0000
,
1100
1000
0001
0010
0001
1000
1000
0000
,
1100
1100
0100
0000
1100
1100
0100
0000
,
1000
0001
0000
1000
0000
0001
0000
1000
0001
0000
1000
0000
0010
0000
0000
0000
,
0100
0000
0010
0100
0000
0010
0100
0000
0001
0000
0000
0000
0100
0000
0100
0000
,
1000
0001
0000
1000
0000
0001
0000
1000
0001
0000
1000
0000
0010
0000
0000
0000
,
0100
0000
0010
0100
0000
0010
0100
0000
0001
0000
0000
0000
0100
0000
0100
0000
,
0001
1000
0000
0001
0000
1000
0000
0001
1000
0000
0001
0000
0010
0000
0000
0000
,
0100
0000
0010
0100
0000
0010
0100
0000
0001
0000
0000
0000
0100
0000
0100
0000
,
0001
1000
0000
0001
0000
1000
0000
0001
1000
0000
0001
0000
0010
0000
0000
0000
,
0100
0000
0010
0100
0000
0010
0100
0000
0001
0000
0000
0000
0100
0000
0100
0000
,
0110
0000
0000
0000
;

//---------------dance-single - ----------------
#NOTES:
     dance-single:
     :
     Challenge:
     7:
     0.260508,0.318062,0.190837,0.084816,0.035340,258.000000,231.000000,27.000000,12.000000,72.000000,0.000000,0.260508,0.318062,0.190837,0.084816,0.035340,258.000000,231.000000,27.000000,12.000000,72.000000,0.000000:
// measure 0
0000
0000
0000
0000
,  // measure 1
0000
0000
0000
0000
,  // measure 2
0000
0000
0000
0000
,  // measure 3
0000
0000
0000
0000
,  // measure 4
0010
0000
MMMM
0010
1000
0000
0000
0000
,  // measure 5
0010
0000
0000
0010
0000
0000
0010
0000
0100
0000
0000
0000
0000
0000
0000
0000
,  // measure 6
0010
0000
MMMM
0010
1000
0000
0000
0000
,  // measure 7
0010
0000
0000
0010
0000
0000
0010
0000
0100
0000
0000
0000
0000
0000
0000
0000
,  // measure 8
0100
0000
MMMM
0100
1000
0000
0000
0000
,  // measure 9
0100
0000
0000
0100
0000
0000
0100
0000
0010
0000
0000
0000
0000
0000
0000
0000
,  // measure 10
0100
0000
MMMM
0100
1000
0000
0000
0000
,  // measure 11
1100
0101
1100
0101
,  // measure 12
1000
0100
0100
0001
,  // measure 13
0010
0000
0001
0000
0100
1000
0001
0000
,  // measure 14
0101
0000
1000
0000
0010
1000
0100
0000
,  // measure 15
2001
3100
2001
3100
,  // measure 16
0010
0100
0010
0010
,  // measure 17
1000
0000
0100
0000
1000
0000
0010
0001
,  // measure 18
0100
0010
0010
0100
,  // measure 19
2001
3100
2001
3100
,  // measure 20
0010
0000
MMMM
0000
0010
0010
0010
0000
,  // measure 21
1000
0100
0001
0000
1000
0010
0001
0000
,  // measure 22
1100
0001
0100
0010
,  // measure 23
1000
0100
1000
0000
0001
0100
0001
0000
,  // measure 24
MMMM
1001
0010
0010
,  // measure 25
MMMM
0000
1001
0000
0010
1000
0001
0000
,  // measure 26
0100
0100
0100
0000
0001
0010
0100
0000
,  // measure 27
1000
0010
1000
0010
0001
0100
0001
0100
,  // measure 28
0010
0000
MMMM
0010
1000
0000
0000
0000
,  // measure 29
0010
0000
0000
0010
0000
0000
0010
0000
0100
0000
0000
0000
0000
0000
0000
0000
,  // measure 30
0010
0000
MMMM
0010
1000
0000
0000
0000
,  // measure 31
0010
0000
0000
0010
0000
0000
0010
0000
0100
0000
0000
0000
0000
0000
0000
0000
,  // measure 32
0100
0000
MMMM
0100
1000
0000
0000
0000
,  // measure 33
0100
0000
0000
0100
0000
0000
0100
0000
0010
0000
0000
0000
0000
0000
0000
0000
,  // measure 34
0100
0000
MMMM
0100
1000
0000
0000
0000
,  // measure 35
1100
0101
1100
0101
,  // measure 36
0010
0000
0010
0000
MMMM
1000
0001
0000
,  // measure 37
0100
0010
0100
0010
,  // measure 38
0110
1000
0100
0010
,  // measure 39
2001
3100
2001
3100
,  // measure 40
0010
0000
0010
0000
MMMM
1000
0001
0000
,  // measure 41
0100
0010
0100
0010
,  // measure 42
0110
1000
0100
0010
,  // measure 43
2001
3100
2001
3100
,  // measure 44
0010
0000
0010
0000
0001
0100
1000
0000
,  // measure 45
0100
0100
1000
0000
0100
0100
0001
0000
,  // measure 46
1000
0010
0100
0000
0001
0010
0100
0000
,  // measure 47
2001
3100
2001
3100
,  // measure 48
0010
0001
0100
0010
,  // measure 49
1000
0100
0010
0000
0100
0000
0010
0000
,  // measure 50
MMMM
0000
1000
0000
0010
0001
0100
0000
,  // measure 51
2001
3100
2001
3100
,  // measure 52
0010
0000
MMMM
0010
1000
0000
0000
0000
,  // measure 53
0010
0000
0000
0010
0000
0000
0010
0000
0100
0000
0000
0000
0000
0000
0000
0000
,  // measure 54
0010
0000
MMMM
0010
1000
0000
0000
0000
,  // measure 55
0010
0000
0000
0010
0000
0000
0010
0000
0100
0000
0000
0000
0000
0000
0000
0000
,  // measure 56
0100
0000
MMMM
0100
1000
0000
0000
0000
,  // measure 57
0100
0000
0000
0100
0000
0000
0100
0000
0010
0000
0000
0000
0000
0000
0000
0000
,  // measure 58
0100
0000
MMMM
0100
1000
0000
0000
0000
,  // measure 59
0100
0000
0000
0100
0000
0000
0100
0000
0010
0000
0000
0000
0000
0000
0000
0000
,  // measure 60
0110
0000
0000
0000
;
