#TITLE:Got To Be Happy;
#SUBTITLE:;
#ARTIST:Bust A Groove 2 OST;
#TITLETRANSLIT:;
#SUBTITLETRANSLIT:;
#ARTISTTRANSLIT:;
#GENRE:;
#CREDIT:;
#BANNER:Got To Be Happy.png;
#BACKGROUND:Got To Be Happy-bg.png;
#LYRICSPATH:;
#CDTITLE:;
#MUSIC:Got To Be Happy.ogg;
#OFFSET:0.000000;
#SAMPLESTART:105.278999;
#SAMPLELENGTH:15.000000;
#SELECTABLE:YES;
#DISPLAYBPM:130.000000;
#BPMS:0.000000=18.309999
,4.000000=130.000000
,184.000000=133.250000
,196.000000=130.080002
,204.000000=131.149002
;
#STOPS:
;
#BGCHANGES:;
#KEYSOUNDS:;
#ATTACKS:;

//---------------dance-single - ----------------
#NOTES:
     dance-single:
     :
     Easy:
     4:
     0.222678,0.295965,0.118386,0.039462,0.000000,237.000000,219.000000,18.000000,6.000000,0.000000,0.000000,0.222678,0.295965,0.118386,0.039462,0.000000,237.000000,219.000000,18.000000,6.000000,0.000000,0.000000:
0000
0000
0000
0000
,
0000
0000
0000
0000
,
0000
0000
0000
0000
,
1000
0000
0100
0000
,
1000
0000
0010
0000
,
0001
0100
0001
0010
,
0100
0100
1000
0000
,
0001
0000
0100
0000
,
0001
0000
0010
0000
,
1000
0100
1000
0010
,
0100
0100
0001
0000
,
0100
0000
0001
0000
,
0100
0000
1000
0000
,
0010
0001
0010
1000
,
0001
0001
0100
0000
,
0010
0000
0001
0000
,
0010
0000
1000
0000
,
0100
0001
0100
1000
,
0001
0001
0010
0000
,
1000
0000
0001
0000
,
1000
0001
1000
0000
,
0001
0000
1000
0000
,
0001
1000
0001
1000
,
0100
0000
0010
0000
,
0100
0010
0100
0000
,
0010
0000
0100
0000
,
0010
0010
0110
0110
,
1000
0100
0001
0000
,
1000
0010
0001
0000
,
1000
0100
0001
0000
,
0010
0010
1001
0000
,
1000
0100
0001
0000
,
1000
0010
0001
0000
,
1000
0100
0001
0000
,
1000
1000
1001
1001
,
0100
0001
0010
0000
,
0100
1000
0010
0000
,
0100
0001
0010
0000
,
0001
0001
0110
0000
,
0100
0001
0010
0000
,
0100
1000
0010
0000
,
0100
0001
0010
0000
,
0100
0100
0110
0110
,
1000
0000
0100
0001
,
0010
0100
0001
0000
,
0100
0001
0000
1000
,
0000
0100
0000
0001
,
1000
0000
0000
1000
,
0100
0010
0010
0001
,
0200
0000
0000
0300
,
0010
0010
0110
0110
,
1000
0100
0001
0000
,
1000
0010
0001
0000
,
1000
0100
0001
0000
,
0010
0010
1001
0000
,
1000
0100
0001
0000
,
1000
0010
0001
0000
,
1000
0100
0001
0000
,
0001
0001
1001
1001
,
0010
0010
0100
0010
,
1000
0100
0100
0110
,
0001
1000
0001
0010
,
2000
0100
0010
3100
,
0001
0001
0010
0001
,
0100
0010
0100
1001
,
0010
0001
0100
0010
,
2000
0001
0010
3001
,
1000
0100
0001
0010
,
0200
0000
0000
0300
,
0001
0010
1000
0100
,
0020
0000
0000
0030
,
0100
1000
0010
0001
,
2000
0000
0000
3000
,
0010
0001
0100
1000
,
0001
0001
1001
1001
,
0110
0000
0000
0000
;

//---------------dance-single - ----------------
#NOTES:
     dance-single:
     :
     Beginner:
     2:
     0.087380,0.147489,0.000000,0.098655,0.000000,93.000000,93.000000,0.000000,15.000000,0.000000,0.000000,0.087380,0.147489,0.000000,0.098655,0.000000,93.000000,93.000000,0.000000,15.000000,0.000000,0.000000:
0000
0000
0000
0000
,
0000
0000
0000
0000
,
0000
0000
0000
0000
,
0100
0000
0000
0000
,
0100
0000
0000
0000
,
0010
0000
0010
0000
,
0100
0000
0000
0000
,
0010
0000
0000
0000
,
0010
0000
0000
0000
,
0100
0000
0100
0000
,
0010
0000
0000
0000
,
0001
0000
0000
0000
,
0001
0000
0000
0000
,
1000
0000
1000
0000
,
0001
0000
0000
0000
,
1000
0000
0000
0000
,
1000
0000
0000
0000
,
0001
0000
0001
0000
,
1000
0000
0000
0000
,
0100
0000
0000
0000
,
0001
0000
0000
0000
,
0100
0000
0000
0000
,
1000
0000
0000
0000
,
0100
0000
0000
0000
,
0001
0000
0000
0000
,
0100
0000
0000
0000
,
1000
1000
1000
1000
,
2000
0000
0000
0000
,
3001
0000
0000
0000
,
0002
0000
0000
0000
,
1003
0000
0000
0000
,
2000
0000
0000
0000
,
3001
0000
0000
0000
,
0002
0000
0000
0000
,
1003
0000
0001
0000
,
0200
0000
0000
0000
,
0310
0000
0000
0000
,
0020
0000
0000
0000
,
0130
0000
0000
0000
,
0200
0000
0000
0000
,
0310
0000
0000
0000
,
0020
0000
0000
0000
,
0130
0000
0010
0000
,
0001
0000
0000
0000
,
0001
0000
0000
0000
,
0100
0000
0000
0000
,
0100
0000
0000
0000
,
0010
0000
0000
0000
,
0010
0000
0000
0000
,
1000
0000
0000
0000
,
1000
1000
1000
1000
,
2000
0000
0000
0000
,
3001
0000
0000
0000
,
0002
0000
0000
0000
,
1003
0000
0000
0000
,
2000
0000
0000
0000
,
3001
0000
0000
0000
,
0002
0000
0000
0000
,
1003
0000
0001
0000
,
0100
0000
0100
0000
,
0100
0000
0000
0000
,
0001
0000
0001
0000
,
0001
0000
0000
0000
,
1000
0000
1000
0000
,
1000
0000
0000
0000
,
0010
0000
0010
0000
,
0010
0000
0100
0000
,
0010
0000
0000
0000
,
0002
0000
0000
0003
,
0001
0000
0000
0000
,
0200
0000
0000
0300
,
0100
0000
0000
0000
,
0020
0000
0000
0030
,
0010
0000
0000
0000
,
1000
1000
1000
1000
;

//---------------dance-single - ----------------
#NOTES:
     dance-single:
     :
     Medium:
     7:
     0.334487,0.394620,0.217041,0.065770,0.042751,356.000000,323.000000,33.000000,10.000000,0.000000,0.000000,0.334487,0.394620,0.217041,0.065770,0.042751,356.000000,323.000000,33.000000,10.000000,0.000000,0.000000:
0000
0000
0000
0000
,
0000
0000
0000
0000
,
0000
0000
0000
0000
,
1000
1001
0001
1001
,
0100
0100
0010
1000
,
0100
0001
0100
0000
0100
1000
0100
0000
,
0001
0000
0000
0000
0010
0010
0100
0000
,
0001
1001
1000
1001
,
0100
0100
0010
0001
,
0100
1000
0100
0000
0100
0001
0100
0000
,
1000
0000
0000
0000
0010
0010
0100
0000
,
0100
0110
0010
0110
,
0001
0001
1000
0100
,
0001
0010
0001
0000
0001
0100
0001
0000
,
0010
0000
0000
0000
1000
1000
0001
0000
,
0010
0110
0100
0110
,
0001
0001
1000
0010
,
0001
0100
0001
0000
0001
0010
0001
0000
,
0100
0000
0000
0000
1000
1000
0001
0000
,
1000
0000
0000
0000
0010
0000
0000
0010
0000
0000
0010
0000
0100
0000
0000
0100
,
0000
0000
0100
0000
0010
0000
0000
0010
0000
0000
0010
0000
0100
0000
0000
0100
,
0000
0000
0100
0000
0010
0000
0000
0010
0000
0000
0010
0000
0100
0000
0000
0100
,
0000
0000
0100
0000
0010
0000
0000
0010
0000
0000
0010
0000
0100
0000
0000
0100
,
0000
0000
0100
0000
0001
0000
0000
0001
0000
0000
0001
0000
1000
0000
0000
1000
,
0000
0000
1000
0000
0001
0000
0000
0001
0000
0000
0001
0000
1000
0000
0000
1000
,
0000
0000
1000
0000
0001
0000
0000
0001
0000
0000
0001
0000
1000
0000
0000
0000
,
1001
0110
1001
0110
,
1000
0000
1000
0100
0001
0000
0000
0000
,
1000
0000
1000
0010
0001
0000
0000
0000
,
1000
0000
1000
0100
0001
0000
0000
0000
,
1000
0100
0010
0001
0100
0000
0000
0000
,
1000
0000
1000
0100
0001
0000
0000
0000
,
1000
0000
1000
0010
0001
0000
0000
0000
,
1000
0000
1000
0100
0001
0000
0000
0000
,
1001
1001
0110
0110
,
0100
0000
0100
0001
0010
0000
0000
0000
,
0100
0000
0100
1000
0010
0000
0000
0000
,
0100
0000
0100
0001
0010
0000
0000
0000
,
0100
0001
1000
0010
0001
0000
0000
0000
,
0100
0000
0100
0001
0010
0000
0000
0000
,
0100
0000
0100
1000
0010
0000
0000
0000
,
0100
0000
0100
0001
0010
0000
0000
0000
,
0110
0110
1001
1001
,
1000
0000
0100
0000
0000
0000
0010
1000
,
0100
0000
1000
0000
1000
0000
0010
0001
,
0001
2000
0000
3001
,
0100
0000
0010
0010
0000
0001
0001
0000
,
2000
3100
0010
0010
,
1000
0100
1000
0010
0100
0000
0001
0000
,
0020
0000
0000
0030
,
1001
0110
1001
0110
,
1000
0000
1000
0100
0001
0000
0000
0000
,
1000
0000
1000
0010
0001
0000
0000
0000
,
1000
0000
1000
0100
0001
0000
0000
0000
,
1000
0100
0010
0001
0100
0000
0000
0000
,
1000
0000
1000
0100
0001
0000
0000
0000
,
1000
0000
1000
0010
0001
0000
0000
0000
,
1000
0000
1000
0100
0001
0000
0000
0000
,
1001
1001
0110
0110
,
1000
0000
0100
0000
0010
0001
0010
0001
,
0100
0000
0010
0000
1000
0010
1000
0010
,
0100
0000
0100
0000
0010
0100
0010
0100
,
0002
0000
2003
0000
,
3010
0000
0001
0000
0100
0010
0001
0010
,
0001
0000
0100
0000
0010
1000
0001
1000
,
0001
0000
1000
0000
1000
0010
0100
0010
,
0200
0000
0320
0000
,
1030
0000
0100
0000
0010
0001
0100
0010
,
2000
0000
0000
3001
,
0100
0000
0010
0000
0100
0010
1000
0001
,
0200
0000
0000
0310
,
0010
0000
1000
0000
0001
0100
1000
0001
,
0020
0000
0000
0130
,
0001
0000
1000
0000
0001
1000
0100
0010
,
0101
1100
1010
0011
,
1001
0000
0000
0000
;

//---------------dance-single - ----------------
#NOTES:
     dance-single:
     :
     Hard:
     12:
     0.427505,0.493275,0.256503,0.078924,0.391332,455.000000,416.000000,39.000000,12.000000,0.000000,0.000000,0.427505,0.493275,0.256503,0.078924,0.391332,455.000000,416.000000,39.000000,12.000000,0.000000,0.000000:
// measure 0
0000
0000
0000
0000
,  // measure 1
0000
0000
0000
0000
,  // measure 2
0000
0000
0000
0000
,  // measure 3
2000
3100
0002
0103
,  // measure 4
1000
0100
0001
0000
0100
0000
0100
0000
,  // measure 5
1000
0100
0100
0010
0001
0100
0010
0000
,  // measure 6
1000
0000
0011
0000
1000
0100
0010
0001
,  // measure 7
2000
3010
0002
0013
,  // measure 8
1000
0010
0001
0000
0010
0000
0010
0000
,  // measure 9
1000
0010
0010
0100
0001
0010
0100
1000
,  // measure 10
0000
1100
0000
0101
0000
0001
0000
1000
,  // measure 11
0200
0301
0020
0031
,  // measure 12
0100
0001
0010
0000
0001
0000
0001
0000
,  // measure 13
0100
0001
0001
1000
0010
0001
1000
0000
,  // measure 14
0100
0000
1010
0000
0100
0001
1000
0010
,  // measure 15
0200
1300
0020
1030
,  // measure 16
0100
1000
0010
0000
1000
0000
1000
0000
,  // measure 17
0100
1000
1000
0001
0010
1000
0001
0100
,  // measure 18
0000
0101
0000
0011
0000
0010
0000
0100
,  // measure 19
0000
0000
1000
0000
0001
0000
1000
0001
0000
0000
0001
0000
0100
0000
1000
0100
,  // measure 20
0000
0000
0100
0000
0010
0000
0001
0010
0000
0000
0010
0000
1000
0000
0001
1000
,  // measure 21
0000
0000
1000
0000
0100
0000
0010
0100
0000
0000
0100
0000
0001
0000
0010
0001
,  // measure 22
0000
0000
0001
0000
0010
0000
1000
0010
0000
0000
0010
0000
0100
0000
1000
0100
,  // measure 23
0000
0000
0100
0000
0001
0000
0010
0100
0000
0000
0001
0000
0010
0000
1000
0010
,  // measure 24
0000
0000
0100
0000
0010
0000
1000
0100
0000
0000
0010
0000
1000
0000
0100
0010
,  // measure 25
0000
0000
0001
0000
0001
0000
1000
0100
0000
0000
0010
0000
1000
0000
0100
0000
,  // measure 26
0011
1100
0101
1010
,  // measure 27
0010
0000
1000
0000
0100
0001
0000
1000
0000
0000
0000
0000
0000
0000
0000
0000
,  // measure 28
1000
0000
1000
0000
0001
0010
0000
0100
0000
0000
0000
0000
0000
0000
0000
0000
,  // measure 29
0100
0000
1000
0000
0001
1000
0000
0100
0000
0000
0000
0000
0000
0000
0000
0000
,  // measure 30
1000
0000
0001
0100
0000
0100
0000
0000
0010
0000
0000
0010
0000
0000
0000
0000
,  // measure 31
0100
0000
0100
0000
0010
0001
0000
0100
0000
0000
0000
0000
0000
0000
0000
0000
,  // measure 32
0010
0000
1000
0000
1000
0100
0000
0010
0000
0000
0000
0000
0000
0000
0000
0000
,  // measure 33
1000
0000
0001
0000
0100
0010
0000
0010
0000
0000
0000
0000
0000
0000
0000
0000
,  // measure 34
1100
0101
0011
1010
,  // measure 35
1000
0000
0100
0000
0001
0010
0000
0100
0000
0000
0000
0000
0000
0000
0000
0000
,  // measure 36
0100
0000
0100
0000
0010
1000
0000
0001
0000
0000
0000
0000
0000
0000
0000
0000
,  // measure 37
0001
0000
0100
0000
0010
0100
0000
0001
0000
0000
0000
0000
0000
0000
0000
0000
,  // measure 38
0100
0000
0010
0001
0000
0001
0000
0000
1000
0000
0000
1000
0000
0000
0000
0000
,  // measure 39
0001
0000
0001
0000
1000
0010
0000
0001
0000
0000
0000
0000
0000
0000
0000
0000
,  // measure 40
1000
0000
0100
0000
0100
0001
0000
1000
0000
0000
0000
0000
0000
0000
0000
0000
,  // measure 41
0100
0000
0010
0000
0001
1000
0000
1000
0000
0000
0000
0000
0000
0000
0000
0000
,  // measure 42
0101
0011
1010
1100
,  // measure 43
1000
0000
0000
1001
0000
0000
0000
0000
0000
0000
0000
0000
0100
0000
0010
0000
,  // measure 44
0001
0000
1000
0100
0000
0010
0000
0010
0000
1000
0000
0100
0000
0000
0010
0000
,  // measure 45
0000
0000
0000
0000
1001
0000
0000
0010
0000
0000
0110
0000
0000
0000
0000
0000
,  // measure 46
1000
0000
0010
0001
0000
0001
0010
0100
,  // measure 47
0010
0000
0000
0110
0000
0000
0000
0000
0000
0000
0000
0000
1000
0000
1000
0000
,  // measure 48
0001
0000
0010
1000
0000
0001
0000
0010
0000
0000
1000
0100
1000
0100
1000
0100
,  // measure 49
2000
0000
0000
3000
,  // measure 50
0011
1100
1010
0101
,  // measure 51
0010
0000
1000
0000
0100
0001
0000
1000
0000
0000
0000
0000
0000
0000
0000
0000
,  // measure 52
1000
0000
1000
0000
0001
0010
0000
0100
0000
0000
0000
0000
0000
0000
0000
0000
,  // measure 53
0100
0000
1000
0000
0001
1000
0000
0100
0000
0000
0000
0000
0000
0000
0000
0000
,  // measure 54
1000
0000
0001
0100
0000
0100
0000
0000
0010
0000
0000
0010
0000
0000
0000
0000
,  // measure 55
0100
0000
0100
0000
0010
0001
0000
0100
0000
0000
0000
0000
0000
0000
0000
0000
,  // measure 56
0010
0000
1000
0000
1000
0100
0000
0010
0000
0000
0000
0000
0000
0000
0000
0000
,  // measure 57
1000
0000
0001
0000
0100
0010
0000
0010
0000
0000
0000
0000
0000
0000
0000
0000
,  // measure 58
1100
0101
0011
1010
,  // measure 59
0100
0000
0001
0000
0010
1000
0000
0100
0000
0100
0000
0010
0001
0000
0000
0000
,  // measure 60
0100
0000
0100
0000
1000
0001
0000
0010
0000
1000
0000
0010
0100
0000
0000
0000
,  // measure 61
0001
0000
0010
0000
0100
0001
0000
1000
0000
1000
0000
0010
0100
0000
0000
0000
,  // measure 62
0010
0000
0001
0100
0000
0100
0000
0000
0010
0000
0001
0100
0000
0000
0000
0000
,  // measure 63
0001
0000
1000
0000
1000
0001
0000
0100
0000
0010
0000
1000
0100
0000
0000
0000
,  // measure 64
0010
0000
1000
0000
1000
0100
0000
0100
0000
0001
0000
0010
0001
0000
0000
0000
,  // measure 65
0100
0000
0100
0000
1000
0001
0000
1000
0000
0100
0000
0010
0100
0000
0000
0000
,  // measure 66
0011
0101
1100
1010
,  // measure 67
0100
0000
0010
0000
0100
0010
0000
0001
0000
0001
0000
1000
0100
0000
0010
0001
,  // measure 68
2000
0000
0000
3001
,  // measure 69
0001
0000
1000
0000
0001
1000
0000
0010
0000
0010
0000
0100
0001
0000
1000
0010
,  // measure 70
0200
0000
0000
0310
,  // measure 71
0010
0000
0100
0000
0010
0100
0000
1000
0000
1000
0000
0001
0010
0000
0100
1000
,  // measure 72
0002
0000
0000
1003
,  // measure 73
1000
0000
0001
0000
1000
0001
0000
0100
0000
0100
0000
0010
1000
0000
0001
0100
,  // measure 74
0011
1100
1010
0101
,  // measure 75
1001
0000
0000
0000
;
