#TITLE:Getting Away With Muder;
#SUBTITLE:(Vrenna Walsh Mix);
#ARTIST:Papa Roach;
#TITLETRANSLIT:;
#SUBTITLETRANSLIT:;
#ARTISTTRANSLIT:;
#GENRE:;
#CREDIT:;
#BANNER:Getting Away With Muder (Vrenna Walsh Mix).png;
#BACKGROUND:Getting Away With Muder (Vrenna Walsh Mix)-bg.png;
#LYRICSPATH:;
#CDTITLE:cdtitle.png;
#MUSIC:Getting Away With Muder (Vrenna Walsh Mix).ogg;
#OFFSET:-0.220000;
#SAMPLESTART:46.299999;
#SAMPLELENGTH:15.360000;
#SELECTABLE:YES;
#DISPLAYBPM:62.500000:250.000000;
#BPMS:0.000000=124.999992
,96.000000=249.999985
,168.000000=124.999992
,230.000000=249.999985
,344.000000=124.999992
,357.000000=166.667007
,358.000000=249.999985
,358.500000=166.667007
,359.000000=124.999992
,359.500000=62.499996
,359.750000=50.000000
,360.000000=249.999985
,424.000000=124.999992
,456.000000=62.499996
,472.000000=249.999985
,536.000000=124.999992
,552.000000=249.999985
,640.000000=124.999992
;
#STOPS:230.000000=0.120000,
230.500000=0.120000,
231.000000=0.120000,
231.500000=0.120000
;
#BGCHANGES:;
#KEYSOUNDS:;
#ATTACKS:;

//---------------dance-single - ----------------
#NOTES:
     dance-single:
     :
     Easy:
     6:
     0.227066,0.433551,0.075477,0.226432,0.000000,358.000000,341.000000,17.000000,51.000000,0.000000,0.000000,0.227066,0.433551,0.075477,0.226432,0.000000,358.000000,341.000000,17.000000,51.000000,0.000000,0.000000:
0000
0000
0000
0000
,
0000
0000
0000
0000
,
0000
0000
0000
0000
,
0000
0000
0000
0000
,
0001
1000
0000
0010
,
0001
0010
0000
0100
,
0001
0100
0000
0001
,
0010
1000
0100
0010
,
1001
0100
0000
0010
,
0001
1000
0000
0100
,
1000
0010
0000
0100
,
0001
1000
0010
0100
,
0002
0000
2003
0000
,
3010
0010
0000
0100
,
0001
0000
0001
0000
0000
1000
0000
0000
,
0010
0000
0100
0000
,
0002
0000
2003
0000
,
3010
0010
0000
0100
,
0001
0001
0000
0000
,
0010
0000
0100
0000
,
2002
0000
0000
0000
,
0000
0000
0000
3003
,
0220
0000
0000
0000
,
0000
0000
0000
0330
,
0001
0000
0010
0000
,
1000
1000
1000
0000
,
0010
0000
0100
0000
,
0001
0001
0001
0000
,
1000
0000
0010
0000
,
0100
0100
0100
0000
,
0001
0000
1000
0000
,
0020
0000
0001
0030
,
0010
0000
0100
0000
,
0010
0010
0010
0000
,
0100
0000
1000
0000
,
0001
0001
0001
0000
,
0100
0000
0001
0000
,
1000
1000
1000
0000
,
0100
0000
0010
0000
,
2000
0000
0001
3000
,
0010
0000
1000
0000
,
0002
0000
1000
0003
,
0220
0000
0000
0000
,
0000
0000
0000
0330
,
2002
0000
0000
0000
,
0000
0000
0000
3003
,
1000
0010
0010
0000
,
1000
0001
0001
0000
,
0001
0100
0100
0000
,
0010
1000
1000
0000
,
0100
0010
0100
0010
,
1100
1100
0000
0001
,
0011
0000
0011
0000
0000
1000
0000
0000
,
0100
0001
0100
0010
,
2000
3001
0010
0100
,
1001
1001
0000
1000
,
0110
0110
0002
0003
,
0002
0000
0003
0000
0001
0001
0001
0001
,
0020
0000
0000
0000
,
0000
0000
0030
0000
,
0200
0000
0000
0000
,
0000
0000
0300
0000
,
0002
0000
0000
0000
,
0000
0000
0003
0000
,
2000
0000
0000
0000
,
0000
0000
3000
0000
,
0001
0000
0010
0000
,
1000
1000
1000
0000
,
0010
0000
0100
0000
,
0001
0001
0001
0000
,
1000
0000
0010
0000
,
0100
0100
0100
0000
,
0001
0000
1000
0000
,
0020
0000
0001
0030
,
0010
0000
0100
0000
,
0010
0010
0010
0000
,
0100
0000
1000
0000
,
0001
0001
0001
0000
,
0100
0000
0001
0000
,
1000
1000
1000
0000
,
0100
0000
0010
0000
,
2000
0000
0001
3000
,
0010
0000
1000
0000
,
0002
0000
1000
0003
,
0001
0000
1000
0000
,
0200
0000
0010
0300
,
2002
0000
0000
3003
,
0001
0001
0000
0000
,
0010
0010
0000
0000
,
0100
0100
0100
0000
,
0002
0000
0000
0000
,
0000
0000
0000
0000
,
0203
0000
0000
0000
,
2300
0000
0000
0000
,
3020
0000
0000
0000
,
0000
0000
0000
0000
,
2030
0000
0000
0000
,
3200
0000
0000
0000
,
0302
0000
0000
0000
,
0000
0000
0000
0000
,
0203
0000
0000
0000
,
2300
0000
0000
0000
,
3020
0000
0000
0000
,
0000
0000
0000
0000
,
2030
0000
0000
0000
,
3200
0000
0000
0000
,
0301
0010
0010
0000
,
0001
0100
0100
0000
,
0010
1000
1000
0000
,
0010
0001
0001
0000
,
1000
0100
0100
0000
,
1000
0010
0010
0000
,
0100
0001
0001
0000
,
0100
1000
1000
0000
,
0001
0000
0001
0000
0100
0100
0000
0000
,
0001
1000
0100
0010
,
0001
0000
0100
0000
0010
0010
0000
0000
,
0001
1000
0100
0010
,
0001
0000
0010
0000
,
1000
1000
1000
0000
,
0010
0000
0100
0000
,
0001
0001
0001
0000
,
1000
0000
0010
0000
,
0100
0100
0100
0000
,
0001
0000
1000
0000
,
0020
0000
0001
0030
,
0010
0000
0100
0000
,
0010
0010
0010
0000
,
0100
0000
1000
0000
,
0001
0001
0001
0000
,
0100
0000
0001
0000
,
1000
1000
1000
0000
,
0100
0000
0010
0000
,
2000
0000
0001
3000
,
0220
0000
0000
0000
,
0000
0000
0000
0330
,
2002
0000
0000
0000
,
0000
0000
0000
3003
,
0001
0000
0010
0000
,
1000
1000
1000
0000
,
0010
0000
0100
0000
,
0001
0001
0001
0000
,
1000
0000
0010
0000
,
0100
0100
0100
0000
,
0001
0000
1000
0000
,
0020
0000
0001
0030
,
0010
0000
0100
0000
,
0010
0010
0010
0000
,
0100
0000
1000
0000
,
0001
0001
0001
0000
,
0100
0000
0001
0000
,
1000
1000
1000
0000
,
0100
0000
0010
0000
,
2000
0000
0001
3000
,
0010
0000
1000
0000
,
0002
0000
1000
0003
,
1000
0000
0001
0000
,
0020
0000
0100
0030
,
0001
0000
0010
0000
,
0200
0000
0010
0300
,
0010
0001
0000
0010
,
1000
0100
0000
0010
,
0100
0010
0000
1001
;

//---------------dance-single - ----------------
#NOTES:
     dance-single:
     :
     Beginner:
     4:
     0.133830,0.216776,0.013320,0.075477,0.000000,211.000000,208.000000,3.000000,17.000000,0.000000,0.000000,0.133830,0.216776,0.013320,0.075477,0.000000,211.000000,208.000000,3.000000,17.000000,0.000000,0.000000:
0000
0000
0000
0000
,
0000
0000
0000
0000
,
0000
0000
0000
0000
,
0000
0000
0000
0000
,
0001
0000
0000
0000
,
0001
0000
0000
0000
,
1000
0000
0000
0000
,
1000
0000
0000
0000
,
0100
0000
0000
0000
,
0100
0000
0000
0000
,
0010
0000
0000
0000
,
0010
0000
0000
0000
,
1000
0000
0100
0000
,
0001
0001
0000
0000
,
1000
1000
0000
0000
,
0010
0000
0100
0000
,
2000
0000
3000
0000
,
0001
0001
0000
0000
,
1000
1000
0000
0000
,
0010
0000
0001
0000
,
0200
0000
0000
0300
,
0000
0000
0000
0000
,
0200
0000
0000
0300
,
0000
0000
0000
0000
,
1000
0000
0000
0000
,
0001
0000
0001
0000
,
1000
0000
0000
0000
,
0100
0000
0100
0000
,
1000
0000
0000
0000
,
0010
0000
0010
0000
,
1000
0000
0000
0000
,
0100
0000
0000
0000
,
0001
0000
0000
0000
,
1000
0000
1000
0000
,
0001
0000
0000
0000
,
0010
0000
0010
0000
,
0001
0000
0000
0000
,
0100
0000
0100
0000
,
0001
0000
0000
0000
,
0010
0000
0000
0000
,
0001
0000
0000
0000
,
0100
0000
0000
0000
,
2000
0000
0000
3000
,
0000
0000
0000
0000
,
0002
0000
0000
0003
,
0000
0000
0000
0000
,
0100
0000
0001
0000
,
0100
0000
1000
0000
,
0010
0000
0001
0000
,
0010
0000
1000
0000
,
0001
0000
1000
0000
,
0010
0010
0000
0000
,
0100
0100
0000
0000
,
0001
0000
1000
0000
,
0220
0000
0330
0000
,
1000
1000
0000
0000
,
0100
0000
0001
0000
,
0001
0000
0002
0000
,
0003
0000
0100
0000
,
0000
0000
0010
0000
,
0100
0000
0010
0000
,
0000
0000
1000
0000
,
0100
0000
1000
0000
,
0000
0000
0010
0000
,
0001
0000
0010
0000
,
0000
0000
0100
0000
,
1000
0000
0000
0000
,
0001
0000
0001
0000
,
1000
0000
0000
0000
,
0100
0000
0100
0000
,
1000
0000
0000
0000
,
0010
0000
0010
0000
,
1000
0000
0000
0000
,
0100
0000
0000
0000
,
0001
0000
0000
0000
,
1000
0000
1000
0000
,
0001
0000
0000
0000
,
0010
0000
0010
0000
,
0001
0000
0000
0000
,
0100
0000
0100
0000
,
0001
0000
0000
0000
,
0010
0000
0000
0000
,
0001
0000
0000
0000
,
0100
0000
0000
0000
,
1000
0000
0000
0000
,
0010
0000
0000
0000
,
2000
0000
3000
0000
,
0001
0000
0000
0000
,
1000
0000
0000
0000
,
0010
0000
0010
0000
,
0001
0000
0000
0000
,
0000
0000
0000
0000
,
0100
0000
0000
0000
,
1000
0000
0000
0000
,
0010
0000
0000
0000
,
0000
0000
0000
0000
,
1000
0000
0000
0000
,
0100
0000
0000
0000
,
0001
0000
0000
0000
,
0000
0000
0000
0000
,
0100
0000
0000
0000
,
1000
0000
0000
0000
,
0010
0000
0000
0000
,
0000
0000
0000
0000
,
1000
0000
0000
0000
,
0100
0000
0000
0000
,
0001
0000
0100
0000
,
1000
0000
0100
0000
,
0001
0000
0010
0000
,
1000
0000
0010
0000
,
0001
0000
1000
0000
,
0001
0000
1000
0000
,
0010
0000
0100
0000
,
0010
0000
0100
0000
,
2000
3000
0001
0001
,
0100
0000
0010
0000
,
0002
0003
1000
1000
,
0100
0000
0010
0000
,
1000
0000
0000
0000
,
0001
0000
0001
0000
,
1000
0000
0000
0000
,
0100
0000
0100
0000
,
1000
0000
0000
0000
,
0010
0000
0010
0000
,
1000
0000
0000
0000
,
0100
0000
0000
0000
,
0001
0000
0000
0000
,
1000
0000
1000
0000
,
0001
0000
0000
0000
,
0010
0000
0010
0000
,
0001
0000
0000
0000
,
0100
0000
0100
0000
,
0001
0000
0000
0000
,
0010
0000
0000
0000
,
2000
0000
0000
3000
,
0000
0000
0000
0000
,
0002
0000
0000
0003
,
0000
0000
0000
0000
,
1000
0000
0000
0000
,
0001
0000
0001
0000
,
1000
0000
0000
0000
,
0100
0000
0100
0000
,
1000
0000
0000
0000
,
0010
0000
0010
0000
,
1000
0000
0000
0000
,
0100
0000
0000
0000
,
0001
0000
0000
0000
,
1000
0000
1000
0000
,
0001
0000
0000
0000
,
0010
0000
0010
0000
,
0001
0000
0000
0000
,
0100
0000
0100
0000
,
0001
0000
0000
0000
,
0010
0000
0000
0000
,
0001
0000
0000
0000
,
0100
0000
0000
0000
,
1000
0000
0000
0000
,
0100
0000
0000
0000
,
1000
0000
0000
0000
,
0010
0000
0000
0000
,
2002
0000
0000
3003
,
0000
0000
0000
0000
,
0220
0000
0000
0330
;

//---------------dance-single - ----------------
#NOTES:
     dance-single:
     :
     Medium:
     10:
     0.344405,0.723418,0.208673,0.248631,0.019979,543.000000,496.000000,47.000000,56.000000,0.000000,0.000000,0.344405,0.723418,0.208673,0.248631,0.019979,543.000000,496.000000,47.000000,56.000000,0.000000,0.000000:
0000
0000
0000
0000
,
0000
0000
0000
0000
,
0000
0000
0000
0000
,
0000
0000
0000
0000
,
1000
1100
0000
1000
,
0001
0011
0000
0100
,
0010
1010
0000
0100
,
1000
1001
0000
1000
,
0010
0110
0000
0001
,
0010
0011
0000
0100
,
1000
1001
0000
0001
,
0010
1010
0000
0010
,
0001
0010
0100
0000
0010
0000
0010
0000
,
2000
3001
0000
0010
,
0100
0100
0100
0000
0000
1000
0000
0000
,
0001
0000
0000
0001
0000
0000
0001
0000
0100
0000
0000
0000
0010
0000
0000
0000
,
1100
0000
1000
0010
0100
0000
1000
0000
,
0001
0001
0001
0000
0000
0000
0100
0000
,
0002
0013
0000
0100
,
1001
0000
0001
1000
0001
0000
0100
0000
,
0020
0100
0000
0130
,
2000
0001
0000
3001
,
0200
1000
0000
1300
,
0002
0010
0000
0013
,
0100
0000
0010
0000
,
1000
0100
0010
0010
,
0001
0000
0100
0000
,
0010
1000
0100
0010
,
0001
0000
0100
0000
,
1000
0001
0010
0100
,
0001
0000
1001
0000
,
1000
0001
1000
0001
,
0010
0000
0100
0000
,
0001
0010
0100
0100
,
1000
0000
0010
0000
,
0100
0001
0010
0100
,
1000
0000
0010
0000
,
0001
1000
0100
0010
,
1000
0000
1001
0000
,
0001
1000
0001
1000
,
0100
0000
0110
0000
,
0010
0100
0010
0100
,
2000
0000
0000
3000
,
0200
0000
0000
0300
,
0020
0000
0000
0030
,
0002
0000
0000
0003
,
0100
0000
1000
0100
1000
0000
0000
0000
,
0010
0000
0100
0010
0100
0000
0000
0000
,
0001
0000
0010
0001
0010
0000
0000
0000
,
1000
0000
0001
1000
0001
0000
0000
0000
,
0100
1000
0001
0000
0010
0000
0100
0000
,
0020
1030
0000
0100
,
0002
0000
0013
0000
0000
0100
0000
1001
,
0000
0100
0000
0001
0010
0000
0010
0000
,
2000
0000
3010
0001
0100
0000
0010
0000
,
0200
0301
0000
0110
,
2000
3002
2003
3002
,
2003
0000
3002
0000
0023
2030
3200
0320
,
0031
0000
0010
0000
,
0100
1000
0001
0000
,
0100
1000
0100
0010
,
0010
0001
1000
0001
,
0010
0000
0100
0000
,
1000
0100
0010
0000
,
0100
0001
0010
1000
,
0100
0010
0100
1000
,
0100
0000
0010
0000
,
1000
0100
0010
0010
,
0001
0000
0100
0000
,
0010
1000
0100
0010
,
0001
0000
0100
0000
,
1000
0001
0010
0100
,
0001
0000
1001
0000
,
1000
0001
1000
0001
,
0010
0000
0100
0000
,
0001
0010
0100
0100
,
1000
0000
0010
0000
,
0100
0001
0010
0100
,
1000
0000
0010
0000
,
0001
1000
0100
0010
,
1000
0000
1001
0000
,
0001
1000
0001
1000
,
0100
0000
0110
0000
,
0010
0100
0010
0100
,
0001
0000
1001
0000
,
1000
0001
1000
0001
,
0010
1000
0000
1000
,
0001
0100
1000
0000
0000
0000
0010
0000
,
0001
0100
1000
0000
0000
0000
0010
0000
,
0001
0100
1000
0000
0220
0000
0000
0330
,
2002
0000
0000
0000
,
0000
0000
0000
3003
,
0202
0000
0000
0303
,
2200
0000
0000
3300
,
0220
0000
0000
0000
,
0000
0000
0000
0330
,
2002
0000
0000
3003
,
0202
0000
0000
0303
,
0022
0000
0000
0000
,
0000
0000
0000
0033
,
0202
0000
0000
0303
,
2200
0000
0000
3300
,
0220
0000
0000
0000
,
0000
0000
0000
0330
,
2002
0000
0000
3003
,
2200
0000
0000
3300
,
0001
0000
1000
0000
0100
0010
0010
0000
,
0001
0100
1000
0000
0001
0001
0010
0000
,
0100
0000
1001
0000
0010
1000
0100
0000
,
1000
0001
0001
0000
0010
0100
0010
0000
,
0100
0000
0010
0000
1000
0001
0001
0000
,
0100
1000
0010
0000
0100
0100
0001
0000
,
1000
0000
0110
0000
0001
0010
1000
0000
,
0010
0100
0100
0000
0001
1000
0001
0000
,
0100
0000
0010
0000
0100
0000
0001
0100
2000
0000
3001
0000
0000
0000
0010
0000
,
1000
0000
0000
1000
0000
0000
1000
0000
0000
0000
0000
0000
0000
0000
0000
0110
0000
0000
0000
0000
0001
0000
0000
0000
1000
0000
0000
0000
1000
0000
0000
0000
0000
1000
0000
0000
0001
0000
0000
0000
0000
0000
1000
0000
0000
0000
0000
0000
,
0010
0000
0001
0000
0100
0000
0010
0000
0001
1000
0001
0000
0000
0000
1000
0000
,
0020
0130
0000
1000
0001
0010
0101
1100
,
0100
0000
0010
0000
,
1000
0100
0010
0010
,
0001
0000
0100
0000
,
0010
1000
0100
0010
,
0001
0000
0100
0000
,
1000
0001
0010
0100
,
0001
0000
1001
0000
,
1000
0001
1000
0001
,
0010
0000
0100
0000
,
0001
0010
0100
0100
,
1000
0000
0010
0000
,
0100
0001
0010
0100
,
1000
0000
0010
0000
,
0001
1000
0100
0010
,
1000
0000
1001
0000
,
0001
1000
0001
1000
,
2000
0000
0000
3000
,
0200
0000
0000
0300
,
0020
0000
0000
0030
,
0002
0000
0000
0003
,
0100
0000
0010
0000
,
1000
0100
0010
0010
,
0001
0000
0100
0000
,
0010
1000
0100
0010
,
0001
0000
0100
0000
,
1000
0001
0010
0100
,
0001
0000
1001
0000
,
1000
0001
1000
0001
,
0010
0000
0100
0000
,
0001
0010
0100
0100
,
1000
0000
0010
0000
,
0100
0001
0010
0100
,
1000
0000
0010
0000
,
0001
1000
0100
0010
,
1000
0000
1001
0000
,
0001
1000
0001
1000
,
0100
0000
0110
0000
,
0010
0100
0010
0100
,
0001
0000
1001
0000
,
1000
0001
1000
0001
,
0010
0000
0110
0000
,
0100
0010
0100
0010
,
1000
1100
0000
1000
,
0001
0011
0000
0100
,
0010
0000
0000
0000
1010
0000
0000
0000
0000
0000
0000
0000
0100
0000
0000
1000
;

//---------------dance-single - ----------------
#NOTES:
     dance-single:
     :
     Hard:
     12:
     0.545467,1.121297,0.776973,0.110996,0.064378,860.000000,685.000000,175.000000,25.000000,0.000000,0.000000,0.545467,1.121297,0.776973,0.110996,0.064378,860.000000,685.000000,175.000000,25.000000,0.000000,0.000000:
// measure 0
0000
0000
0000
0000
,  // measure 1
0000
0000
0000
0000
,  // measure 2
0000
0000
0000
0000
,  // measure 3
0000
0000
0000
0000
,  // measure 4
0100
0000
1001
0000
1000
0100
0001
0000
,  // measure 5
1000
0100
0010
0100
0001
0010
0001
0000
,  // measure 6
1000
0000
0110
0000
0100
1000
0010
0000
,  // measure 7
0100
1000
0001
1000
0010
0001
0010
0100
,  // measure 8
0010
0000
1001
0000
0001
0010
1000
0000
,  // measure 9
0001
0010
0100
0010
1000
0100
1000
0000
,  // measure 10
0001
0000
0110
0000
0010
0001
0100
0000
,  // measure 11
0010
0001
1000
0001
0100
1000
0100
0000
,  // measure 12
0010
0010
0001
0010
1000
0100
0001
1000
,  // measure 13
0011
0000
1010
0000
0000
0010
0001
1000
,  // measure 14
0100
0001
0101
0000
0000
1000
0000
0001
,  // measure 15
0001
0000
0100
0010
0000
0100
0010
0000
2000
0000
0000
0000
3001
0000
0000
0000
,  // measure 16
0110
0000
1000
0100
1000
1000
0010
0100
,  // measure 17
0011
0001
0101
0000
0000
0000
0110
0000
,  // measure 18
1000
0100
0010
0000
0001
0000
0100
0010
,  // measure 19
0100
0010
1000
0100
0011
0000
1010
0000
,  // measure 20
1000
0100
0002
0000
0000
0000
1003
0000
,  // measure 21
1000
0100
0002
0000
0000
0000
1003
0000
,  // measure 22
0010
1000
0100
0010
0011
0000
1010
0000
,  // measure 23
2200
3300
0202
0303
,  // measure 24
1000
0100
0010
0001
,  // measure 25
1100
0110
0011
0000
,  // measure 26
0100
0010
1000
0001
,  // measure 27
0101
1001
1010
0000
,  // measure 28
0100
0010
1000
0100
,  // measure 29
1010
0000
0110
0000
0101
0000
0000
1000
,  // measure 30
0001
1000
0000
0001
1000
0000
0100
0000
,  // measure 31
0011
0000
1010
0000
,  // measure 32
0001
0010
0100
1000
,  // measure 33
0011
0110
1100
0000
,  // measure 34
0010
0100
0001
1000
,  // measure 35
1010
1001
0101
0000
,  // measure 36
0010
0100
0001
0010
,  // measure 37
0101
0000
0110
0000
1010
0000
0000
0001
,  // measure 38
1000
0001
0000
1000
0001
0000
0010
0000
,  // measure 39
1100
0000
0101
0000
,  // measure 40
0001
1000
0000
0001
1000
0000
0100
0000
,  // measure 41
0011
0000
1010
0000
,  // measure 42
0200
0000
0001
0300
,  // measure 43
0020
0000
1000
0030
,  // measure 44
0200
0000
0010
0300
,  // measure 45
1000
0000
0000
0100
0000
0000
0001
0000
0000
0100
0000
0000
1000
0000
0000
0001
,  // measure 46
1000
0100
0010
0002
0000
0000
0003
0000
,  // measure 47
1000
0100
0010
0002
0000
0000
0003
0000
,  // measure 48
0100
1000
0001
0020
0000
0000
0030
0000
,  // measure 49
0100
1000
0001
0020
0000
0000
0030
0000
,  // measure 50
0100
1000
0100
0100
0010
0001
0100
0010
,  // measure 51
1100
0000
0101
0000
0000
0010
1000
0100
,  // measure 52
0011
0000
1010
0000
0000
1100
0000
1001
,  // measure 53
0000
0011
0000
0100
0002
0000
0013
0000
,  // measure 54
1000
0000
0100
0010
0001
0000
0100
0000
0100
0000
1000
0000
0001
0000
0010
0001
,  // measure 55
1000
0000
1100
0000
0000
0001
0010
0100
,  // measure 56
2000
0001
3001
0000
2000
0001
3001
0000
,  // measure 57
2000
0001
3001
0000
1100
0101
0011
1010
,  // measure 58
1001
0000
0100
0000
,  // measure 59
0010
0001
0100
0000
,  // measure 60
0010
1000
0100
0100
,  // measure 61
0011
0101
0110
0000
,  // measure 62
1000
0000
0001
0000
,  // measure 63
0010
0001
1000
0000
,  // measure 64
0100
0100
0010
0001
,  // measure 65
1100
0101
1100
0011
,  // measure 66
1000
0100
0010
0001
,  // measure 67
1100
0110
0011
0000
,  // measure 68
0100
0010
1000
0001
,  // measure 69
0101
1001
1010
0000
,  // measure 70
0100
0010
1000
0100
,  // measure 71
1010
0000
0110
0000
0101
0000
0000
1000
,  // measure 72
0001
1000
0000
0001
1000
0000
0100
0000
,  // measure 73
0011
0000
1010
0000
,  // measure 74
0001
0010
0100
1000
,  // measure 75
0011
0110
1100
0000
,  // measure 76
0010
0100
0001
1000
,  // measure 77
1010
1001
0101
0000
,  // measure 78
0010
0100
0001
0010
,  // measure 79
0101
0000
0110
0000
1010
0000
0000
0001
,  // measure 80
1000
0001
0000
1000
0001
0000
0010
0000
,  // measure 81
1100
0000
0101
0000
,  // measure 82
0001
1000
0000
0001
1000
0000
0100
0000
,  // measure 83
0011
0000
1010
0000
,  // measure 84
0010
0100
0000
0010
0100
0000
0001
0000
,  // measure 85
1010
0000
1100
0000
,  // measure 86
1000
0100
0010
0000
0000
0000
0010
0000
,  // measure 87
1000
0001
1001
0000
0000
0000
1000
0000
,  // measure 88
0010
0100
0110
0000
0000
0000
0001
0000
,  // measure 89
0100
1000
1010
0000
0220
0000
0000
0330
,  // measure 90
1000
0100
0001
0000
,  // measure 91
0100
0001
0000
0001
1000
0000
0100
0000
,  // measure 92
0010
1100
0101
0000
,  // measure 93
0010
1000
0000
0100
0010
0000
1001
0000
,  // measure 94
0010
0100
0100
0000
,  // measure 95
0100
0010
0000
0001
1000
0000
0100
0000
,  // measure 96
0010
0001
0100
0000
,  // measure 97
0010
1000
0000
1000
0010
0000
0100
0001
,  // measure 98
0100
0001
0010
0000
,  // measure 99
0001
0010
0000
0010
0100
0000
0001
0000
,  // measure 100
1000
0101
0011
0000
,  // measure 101
1000
0100
0000
0001
1000
0000
0110
0000
,  // measure 102
1000
0001
0001
0000
,  // measure 103
0001
1000
0000
0010
0100
0000
0001
0000
,  // measure 104
1000
0010
0001
0000
,  // measure 105
1000
0100
0000
0100
1000
0000
0001
0010
,  // measure 106
0001
0100
1000
0011
1010
0000
0000
0000
,  // measure 107
1000
1000
0001
0110
1100
0000
0000
0000
,  // measure 108
0001
0010
1000
0101
1001
0000
0000
0000
,  // measure 109
0100
0100
0001
0011
1010
0000
0000
0000
,  // measure 110
1000
0010
0001
1100
0101
0000
0000
0000
,  // measure 111
0001
0001
1000
0110
0011
0000
0000
0000
,  // measure 112
1000
0100
0001
1010
1001
0000
0000
0000
,  // measure 113
0010
0010
1000
1100
0101
0000
0000
0000
,  // measure 114
0100
0100
1000
0100
0001
0010
1000
0001
1100
0000
0101
0000
0000
0100
1000
0001
,  // measure 115
0010
0000
1000
0000
1010
0000
0000
0000
0000
0000
0001
0000
0000
0000
1000
0000
1000
0000
0010
0100
0000
0010
0100
0000
0002
0000
0000
0000
1003
0000
0000
0000
,  // measure 116
0110
0000
0001
0010
0001
0001
0100
0010
1100
1000
1010
0000
0000
0000
0110
0000
,  // measure 117
0001
0010
0100
0000
1000
0000
0010
0100
0010
0100
0001
0010
1100
0000
0101
0000
,  // measure 118
1000
0100
0010
0001
,  // measure 119
1100
0110
0011
0000
,  // measure 120
0100
0010
1000
0001
,  // measure 121
0101
1001
1010
0000
,  // measure 122
0100
0010
1000
0100
,  // measure 123
1010
0000
0110
0000
0101
0000
0000
1000
,  // measure 124
0001
1000
0000
0001
1000
0000
0100
0000
,  // measure 125
0011
0000
1010
0000
,  // measure 126
0001
0010
0100
1000
,  // measure 127
0011
0110
1100
0000
,  // measure 128
0010
0100
0001
1000
,  // measure 129
1010
1001
0101
0000
,  // measure 130
0010
0100
0001
0010
,  // measure 131
0101
0000
0110
0000
1010
0000
0000
0001
,  // measure 132
1000
0001
0000
1000
0001
0000
0010
0000
,  // measure 133
1100
0000
0101
0000
,  // measure 134
0200
0000
0001
0300
,  // measure 135
0020
0000
1000
0030
,  // measure 136
0200
0000
0010
0300
,  // measure 137
0020
0000
0100
0030
,  // measure 138
1000
0100
0010
0001
,  // measure 139
1100
0110
0011
0000
,  // measure 140
0100
0010
1000
0001
,  // measure 141
0101
1001
1010
0000
,  // measure 142
0100
0010
1000
0100
,  // measure 143
1010
0000
0110
0000
0101
0000
0000
1000
,  // measure 144
0001
1000
0000
0001
1000
0000
0100
0000
,  // measure 145
0011
0000
1010
0000
,  // measure 146
0001
0010
0100
1000
,  // measure 147
0011
0110
1100
0000
,  // measure 148
0010
0100
0001
1000
,  // measure 149
1010
1001
0101
0000
,  // measure 150
0010
0100
0001
0010
,  // measure 151
0101
0000
0110
0000
1010
0000
0000
0001
,  // measure 152
1000
0001
0000
1000
0001
0000
0010
0000
,  // measure 153
1100
0000
0101
0000
,  // measure 154
0001
1000
0000
0001
1000
0000
0100
0000
,  // measure 155
0011
0000
1010
0000
,  // measure 156
0100
0010
0000
0100
0010
0000
1000
0000
,  // measure 157
0101
0000
0011
0000
,  // measure 158
0010
0100
0000
0010
0100
0000
0001
0000
,  // measure 159
1010
0000
1100
0000
,  // measure 160
0100
0000
1001
0000
1000
0100
0001
0000
,  // measure 161
1000
0100
0010
0100
0001
0010
0001
0000
,  // measure 162
1000
0000
0000
0000
0110
0000
0000
0000
0100
0000
1000
0000
0010
0000
0000
1001
;
