#VERSION:0.83;
#TITLE:GET JINXED;
#SUBTITLE:;
#ARTIST:LoL;
#TITLETRANSLIT:;
#SUBTITLETRANSLIT:;
#ARTISTTRANSLIT:;
#GENRE:;
#ORIGIN:;
#CREDIT:;
#BANNER:Get Jinxed.png;
#BACKGROUND:Get Jinxed-bg.png;
#PREVIEWVID:;
#JACKET:Get Jinxed-jacket.png;
#CDIMAGE:;
#DISCIMAGE:;
#LYRICSPATH:;
#CDTITLE:cdtitle.png;
#MUSIC:Get Jinxed.ogg;
#OFFSET:7.666000;
#SAMPLESTART:40.334000;
#SAMPLELENGTH:15.000000;
#SELECTABLE:YES;
#DISPLAYBPM:90.000000:180.000000;
#BPMS:0.000=90.000,
52.000=180.000,
84.000=90.000,
88.000=180.000,
152.000=90.000,
192.000=180.000;
#STOPS:;
#DELAYS:;
#WARPS:;
#TIMESIGNATURES:0.000=4=4;
#TICKCOUNTS:0.000=4;
#COMBOS:0.000=1;
#SPEEDS:0.000=1.000=0.000=0;
#SCROLLS:0.000=1.000;
#FAKES:;
#LABELS:0.000=Song Start;
#BGCHANGES:12.000=Get Jinxed.avi=1.000=1=0=0=StretchNoLoop==CrossFade==,
320.500=Get Jinxed-bg.png=1.000=1=0=1===CrossFade==,
99999=-nosongbg-=1.000=0=0=0 // don't automatically add -songbackground-
;
#KEYSOUNDS:;
#ATTACKS:
;

//---------------dance-single - ----------------
#NOTEDATA:;
#CHARTNAME:;
#STEPSTYPE:dance-single;
#DESCRIPTION:;
#CHARTSTYLE:;
#DIFFICULTY:Easy;
#METER:5;
#RADARVALUES:0.232966,0.364078,0.098604,0.144114,0.000000,215.000000,202.000000,13.000000,19.000000,0.000000,0.000000,0.000000,0.000000,0.000000,0.232966,0.364078,0.098604,0.144114,0.000000,215.000000,202.000000,13.000000,19.000000,0.000000,0.000000,0.000000,0.000000,0.000000;
#CREDIT:kater15;
#DISPLAYBPM:90.000000:180.000000;
#NOTES:
// measure 0
0000
0000
0000
0000
,  // measure 1
0000
0000
0000
0000
,  // measure 2
0000
0000
0000
0000
,  // measure 3
0000
0000
0000
0000
,  // measure 4
0000
0000
0000
0000
,  // measure 5
0100
0000
0001
0100
,  // measure 6
1000
0000
0001
1000
,  // measure 7
0100
0000
0010
0100
,  // measure 8
0001
0000
0000
0000
,  // measure 9
1000
0000
1000
0000
0100
0000
0010
0010
,  // measure 10
0010
0000
0100
0000
1000
0000
0001
0001
,  // measure 11
0001
0100
1000
0001
,  // measure 12
0100
0000
1000
0000
,  // measure 13
0100
0000
0100
1000
,  // measure 14
0010
0000
0010
0000
,  // measure 15
1000
0000
0100
0010
,  // measure 16
0100
0000
0000
0000
,  // measure 17
0010
0001
0010
1000
,  // measure 18
0100
0000
0000
0000
,  // measure 19
0010
0000
0100
0100
,  // measure 20
0010
0000
0000
0000
,  // measure 21
0002
0000
0000
0000
,  // measure 22
0003
0100
0100
0000
,  // measure 23
2000
0001
0010
3001
,  // measure 24
0000
0100
0001
0000
,  // measure 25
0100
0000
1000
0000
,  // measure 26
0001
0010
0010
1000
,  // measure 27
0100
0100
2000
3000
,  // measure 28
0000
0001
1000
0010
,  // measure 29
0001
0100
0100
0000
,  // measure 30
0010
1001
0100
1001
,  // measure 31
0001
0010
0100
0002
,  // measure 32
0003
0100
0100
0001
,  // measure 33
0020
1000
0001
0030
,  // measure 34
0000
0100
0100
1000
,  // measure 35
0010
1000
0100
0010
,  // measure 36
0000
0100
0100
1001
,  // measure 37
0010
0001
0200
0020
,  // measure 38
0330
1000
0000
0001
,  // measure 39
0000
1000
0000
0001
,  // measure 40
0000
1000
0000
0001
,  // measure 41
0000
1000
0000
0001
,  // measure 42
0000
1000
0100
0010
,  // measure 43
0000
0001
0010
0001
,  // measure 44
0100
0100
0110
1000
,  // measure 45
0000
0010
0001
0100
,  // measure 46
0020
0000
0000
0000
,  // measure 47
0000
0000
0000
0000
,  // measure 48
0030
1000
0100
0010
,  // measure 49
1000
1000
0001
0010
,  // measure 50
0001
1001
0100
0110
,  // measure 51
0010
1000
0000
0010
,  // measure 52
2000
3010
0100
0100
,  // measure 53
0001
0010
0002
1003
,  // measure 54
0100
0000
0001
0000
,  // measure 55
0200
0000
0000
0000
,  // measure 56
0300
0010
0010
0000
,  // measure 57
0002
1000
0100
1003
,  // measure 58
0000
0010
1000
0000
,  // measure 59
0010
0000
0001
0000
,  // measure 60
1000
0100
0100
0001
,  // measure 61
0010
0010
0002
0003
,  // measure 62
0000
1000
0001
0100
,  // measure 63
1000
0010
0010
0000
,  // measure 64
0100
1001
0010
1001
,  // measure 65
1000
0100
0010
2000
,  // measure 66
3000
0010
0010
1000
,  // measure 67
0200
0001
1000
0300
,  // measure 68
0000
0010
0010
0001
,  // measure 69
0100
0001
0010
0100
,  // measure 70
0000
0010
0010
1001
,  // measure 71
0100
1000
0010
0100
,  // measure 72
0110
1000
2002
0000
,  // measure 73
0000
0000
0000
0000
,  // measure 74
0000
0000
0000
0000
,  // measure 75
0000
0000
0000
3003
,  // measure 76
0000
0001
2002
0000
,  // measure 77
0000
0000
0000
0000
,  // measure 78
0000
0000
0000
0000
,  // measure 79
3003
0000
0010
0100
,  // measure 80
0110
0000
0000
0000
;

//---------------dance-single - ----------------
#NOTEDATA:;
#CHARTNAME:;
#STEPSTYPE:dance-single;
#DESCRIPTION:;
#CHARTSTYLE:;
#DIFFICULTY:Medium;
#METER:9;
#RADARVALUES:0.340239,0.394417,0.212379,0.182039,0.011377,314.000000,286.000000,28.000000,24.000000,0.000000,0.000000,0.000000,0.000000,0.000000,0.340239,0.394417,0.212379,0.182039,0.011377,314.000000,286.000000,28.000000,24.000000,0.000000,0.000000,0.000000,0.000000,0.000000;
#CREDIT:kater15;
#DISPLAYBPM:90.000000:180.000000;
#NOTES:
0000
0000
0000
0000
,
0000
0000
0000
0000
,
0000
0000
0000
0000
,
0000
0000
0000
0000
,
0000
0000
0000
0000
,
1000
0000
0000
0000
0001
0100
1000
0000
,
0010
0000
0000
0000
0100
0001
0010
0000
,
0001
0000
0000
0000
0100
0010
1000
0000
,
0001
0000
0110
0000
,
1000
0000
0200
0000
1300
0000
0001
1000
,
0100
0000
0020
0000
0130
0000
0001
1000
,
0100
0000
0002
0000
0013
0000
1000
0100
,
0100
0000
0000
0000
0011
0000
1000
0100
,
0010
0100
0001
0110
,
0100
0000
0001
0000
0001
0000
1000
0001
,
1000
0000
0010
0000
0010
0000
0001
0200
,
0000
0000
0000
0300
,
1010
0001
0100
0010
,
0011
0102
0003
0000
,
0100
0000
0001
0000
0010
0000
1000
0010
,
1000
0000
0000
0000
0110
0000
0001
0100
,
2000
0000
0000
0000
0000
0000
0000
0000
0000
0000
0000
0000
3000
0000
0001
1000
,
0001
1100
0101
0000
,
0010
0000
1000
0010
0100
0000
0002
0000
,
2003
3010
0001
0100
,
0010
0001
0010
0000
1000
0000
0000
0000
,
0100
0000
0001
0000
0110
0000
1000
0100
,
1000
0011
0101
0000
,
1000
0000
0100
0000
0010
0000
0001
1000
,
0200
0001
0010
0000
,
0300
1010
0011
0200
,
0001
1000
0010
0310
,
0000
0000
0100
0000
0001
0000
0100
0001
,
0100
1001
1100
0000
,
0000
0010
0010
0001
,
0011
0000
1000
0100
0010
0000
0010
0000
,
0000
0001
0100
0010
,
1000
0000
0100
0001
0100
0001
0100
0000
,
0020
1030
0020
0031
,
0020
1030
0020
0031
,
0010
0100
1000
0100
0010
0000
0010
0000
,
0001
0100
0010
0100
0001
0000
0001
0000
,
0100
0000
1000
0000
0000
1000
0000
0000
0010
0000
0000
0000
0100
0000
0000
0000
,
0000
0000
0001
0000
0000
0001
0000
0000
0020
0000
0000
0000
0030
0000
0000
0000
,
0000
0000
1000
1000
0100
0000
0010
0000
,
0000
0000
0100
0001
1000
0000
0001
0000
,
0220
0000
0000
0000
,
0000
0000
0000
0330
,
1000
0000
0010
0000
0010
0000
0001
0010
,
0001
0000
1000
0010
1000
0000
0100
0000
,
0010
0001
0010
0001
,
2000
0000
3010
0000
,
1000
0100
1000
0100
1000
0000
0010
0000
,
0001
0100
0010
0010
,
0001
0100
0001
0100
0001
0000
0010
0000
,
1000
1000
0100
0000
,
0000
0011
1010
0000
,
0100
0000
0001
0100
0010
0000
2000
0000
,
3002
0103
1000
0010
,
0100
1000
0100
0000
0001
0000
0000
0000
,
0010
0000
1000
0000
0110
0000
0001
0010
,
0001
1100
1010
0000
,
0001
0000
0010
0000
0100
0000
1000
0001
,
0020
1000
0100
0000
,
0030
0101
1100
0020
,
1000
0001
0100
0130
,
0000
0000
0010
0000
1000
0000
0010
1000
,
0010
1001
0011
0000
,
0000
0100
0100
1000
,
1100
0000
0001
0010
0100
0000
0100
0000
,
0000
1000
0010
0100
,
0001
0000
0010
1000
0010
1000
0010
0000
,
0100
0010
0002
0000
,
0100
0000
0100
0000
,
0010
0000
0010
0000
,
1000
0000
0000
0000
1000
0000
0013
1000
,
0010
0100
2000
0000
,
0010
0000
0010
0000
,
0100
0000
0100
3000
,
0000
0000
0010
1000
0010
1000
0010
0000
,
0100
0000
0000
0000
;

//---------------dance-single - ----------------
#NOTEDATA:;
#CHARTNAME:;
#STEPSTYPE:dance-single;
#DESCRIPTION:;
#CHARTSTYLE:;
#DIFFICULTY:Beginner;
#METER:2;
#RADARVALUES:0.114858,0.151699,0.015170,0.015170,0.000000,106.000000,104.000000,2.000000,2.000000,0.000000,0.000000,0.000000,0.000000,0.000000,0.114858,0.151699,0.015170,0.015170,0.000000,106.000000,104.000000,2.000000,2.000000,0.000000,0.000000,0.000000,0.000000,0.000000;
#CREDIT:kater15;
#DISPLAYBPM:90.000000:180.000000;
#NOTES:
0000
0000
0000
0000
,
0000
0000
0000
0000
,
0000
0000
0000
0000
,
0000
0000
0000
0000
,
0000
0000
0000
0000
,
1000
0000
0000
0000
,
0001
0000
0000
0000
,
1000
0000
0000
0000
,
0001
0000
0000
0000
,
0010
0000
0000
0100
,
0100
0000
0000
0001
,
0001
0000
0000
1000
,
1000
0000
0000
0000
,
0010
0000
0001
0000
,
0010
0000
0000
0000
,
0100
0000
0100
0000
,
0001
0000
0000
0000
,
1000
0000
1000
0000
,
0100
0000
0100
0000
,
0010
0000
0000
0000
,
0010
0000
0000
0000
,
1001
0000
0000
0000
,
0000
0010
0010
0000
,
0000
0000
0010
0010
,
0000
0000
1000
0000
,
1000
0000
0001
0000
,
0000
0000
0010
0000
,
0001
0000
0100
0000
,
0000
0000
0010
0000
,
0001
0000
1000
0000
,
0000
0000
1000
0000
,
1000
0000
0100
0000
,
0000
0000
0010
0000
,
0001
0000
0100
0000
,
0000
0000
0010
0000
,
0001
0000
0010
0000
,
0000
0000
1000
0000
,
0100
0000
0010
0000
,
0002
0000
0000
0000
,
0000
0000
0000
0000
,
0000
0000
0000
0000
,
0003
0000
0000
0000
,
0000
0000
1000
1000
,
0000
0000
0020
0030
,
0000
0000
1000
1000
,
0000
0000
0100
0000
,
0110
0000
0000
0000
,
0000
0000
0000
0000
,
1000
0000
0100
0000
,
1000
0000
0010
0000
,
0100
0000
0100
0000
,
0001
0000
1000
0000
,
0010
0000
0010
0000
,
0100
0000
0100
0000
,
0001
0000
0010
0000
,
0100
0000
0000
0000
,
0000
0100
0100
0000
,
0000
0000
0100
0100
,
0000
0000
0001
0000
,
0001
0000
1000
0000
,
0000
0000
0100
0000
,
1000
0000
0010
0000
,
0000
0000
0100
0000
,
1000
0000
0001
0000
,
0000
0000
0001
0000
,
0001
0000
0010
0000
,
0000
0000
0100
0000
,
1000
0000
0010
0000
,
0000
0000
0100
0000
,
1000
0000
0100
0000
,
0000
0000
0001
0000
,
0010
0000
0100
0000
,
0000
1000
1000
0000
,
0000
0000
0000
0000
,
0000
0000
0000
0000
,
0000
0000
0000
0000
,
0000
0001
0001
0000
,
0000
0000
0000
0000
,
0000
0000
0000
0000
,
0100
0000
0010
0000
,
0001
0000
0000
0000
;

//---------------dance-single - ----------------
#NOTEDATA:;
#CHARTNAME:;
#STEPSTYPE:dance-single;
#DESCRIPTION:;
#CHARTSTYLE:;
#DIFFICULTY:Hard;
#METER:12;
#RADARVALUES:0.551534,0.788835,0.310983,0.159284,0.125152,509.000000,468.000000,41.000000,21.000000,0.000000,0.000000,0.000000,0.000000,0.000000,0.551534,0.788835,0.310983,0.159284,0.125152,509.000000,468.000000,41.000000,21.000000,0.000000,0.000000,0.000000,0.000000,0.000000;
#CREDIT:kater15;
#DISPLAYBPM:90.000000:180.000000;
#NOTES:
0000
0000
0000
0000
,
0000
0000
0000
0000
,
0000
0000
0000
0000
,
0000
0000
0000
0000
,
0000
0000
0000
0000
,
0100
0000
0001
0000
0000
0001
0000
0000
0010
0000
0100
0000
0010
0000
0001
0000
,
0100
0000
1000
0000
0000
1000
0000
0000
0010
0000
0001
0000
0100
0000
0010
0000
,
0010
0000
0100
0000
0000
0100
0000
0000
0001
0000
0010
0000
0100
0000
0001
0000
,
0001
0000
0010
0000
0000
0010
0000
0000
1000
0000
0100
0000
0010
0000
0001
1000
,
0001
0000
0000
0000
0110
0000
0000
0000
0110
0000
0000
0000
0110
0000
0100
1000
,
0100
0000
0000
0000
1100
0000
0000
0000
1100
0000
0000
0000
1100
0000
1000
0010
,
1000
0000
0000
0000
0101
0000
0000
0000
0101
0000
0000
0000
0101
0000
0001
0010
,
0001
0000
0000
0000
1001
0000
0000
0000
1001
0000
0000
0000
1001
0000
1000
0010
,
1000
0000
0100
0000
0101
0000
1000
0100
,
0020
0000
0032
0000
1000
0000
0103
1000
,
0010
0000
0100
0001
0100
0010
1000
0200
,
0000
0000
0010
0000
0310
0000
0001
0010
,
0001
0000
0100
0100
0001
0010
0001
0100
,
0020
0000
1000
0000
0130
0000
0010
0001
,
1000
0000
1100
0000
0010
0001
0100
0100
,
0010
1000
0100
0010
0010
1000
0001
0010
,
0200
0000
0000
0000
0000
0000
0000
0000
0000
0000
0000
0000
0300
0000
0001
0001
,
0100
0000
1000
0100
1000
0000
1001
0000
,
0110
0000
0001
0010
0100
0000
0110
0000
,
1001
0000
0100
0100
0001
0010
0001
0100
,
0020
0000
1000
1000
0130
0000
0001
0000
,
0011
0000
1000
0100
0010
1000
0100
0001
,
0010
0001
0010
0100
2000
0000
3001
0000
,
0010
0000
0001
0100
1000
0100
0100
0010
,
0002
0000
0203
0000
0320
0000
1030
0100
,
0010
0000
0001
0000
1001
0000
0010
0001
,
1000
0001
0010
0100
2000
0000
0001
0000
,
3001
0000
1010
0000
0100
0010
0001
1000
,
0100
0010
0010
1000
0010
0100
1000
0000
,
0001
0000
1100
0000
0010
1000
0100
0010
,
0010
0100
0001
0010
0001
0100
0010
0000
,
1100
0000
0010
0001
0100
1000
0100
0001
,
0100
0010
1000
0010
0010
0001
0100
0010
,
1000
0000
0000
0100
0001
0000
0011
0000
1000
0100
1000
0010
0001
0000
0101
0000
,
0010
0000
0000
1000
0100
0000
0110
0000
0001
0001
1000
0100
1000
0000
0010
0100
,
0001
0000
0000
0010
1000
0000
1100
0000
0001
0010
0001
0100
1000
0000
1010
0000
,
0100
0000
0000
0001
0010
0000
0110
0000
1000
1000
0001
0010
0001
0000
0100
0010
,
1000
0000
0001
0000
0000
0001
0000
0000
0010
0000
0000
0000
1000
0000
0100
0000
,
0010
0000
0100
0000
0000
0100
0000
0000
0001
0000
0101
0000
0011
0000
0000
0000
,
0100
0001
0100
1000
0010
0100
0100
0001
,
0010
0000
0000
0000
0100
0000
0001
0000
0010
0001
0010
0001
0100
1000
0010
0000
,
0200
0000
0000
0000
,
0000
0000
0000
0300
,
1000
0100
0010
0010
1000
0100
0010
0001
,
0100
0010
1000
0001
1000
0010
0001
0000
,
0100
0100
0001
0010
0001
0100
0010
1000
,
0100
0100
0010
0001
0010
0000
1100
0000
,
0100
0100
0001
0010
0010
0001
0100
0010
,
1000
0100
0010
0100
0010
1000
0100
0000
,
0010
0001
0001
0100
0100
0010
1000
0100
,
0010
0000
0100
0000
0001
0000
0010
0000
1000
0001
1000
0001
1000
0001
1000
0001
,
0010
0000
0001
0010
0001
0000
1001
0000
,
0110
0000
1000
0100
0010
0000
0110
0000
,
1001
0000
0010
0010
1000
0100
1000
0010
,
0200
0000
0001
0001
0310
0000
1000
0000
,
1100
0000
0001
0010
0100
0001
0010
1000
,
0100
1000
0100
0010
0002
0000
1003
0000
,
0100
0000
1000
0010
0001
0010
0010
0100
,
2000
0000
3020
0000
0230
0000
0301
0010
,
0100
0000
1000
0000
1001
0000
0100
1000
,
0001
1000
0100
0010
0002
0000
1000
0000
,
1003
0000
0101
0000
0010
0100
1000
0001
,
0010
0100
0100
0001
0100
0010
0001
0000
,
1000
0000
0011
0000
0100
0001
0010
0100
,
0100
0010
1000
0100
1000
0010
0100
0000
,
0011
0000
0100
1000
0010
0001
0010
1000
,
0010
0100
0001
0100
0100
1000
0010
0100
,
1000
0000
0010
0001
0200
0000
0001
0000
,
0000
0001
0000
0001
,
0000
0302
0000
1000
,
0000
0000
1000
0000
0000
0000
1003
0100
,
0010
0000
0001
0010
2000
0000
0001
0000
,
0000
0001
0000
0010
,
0000
0010
0000
3010
,
0100
0010
1000
0010
0010
0001
0100
0010
,
0001
0000
0000
0000
;
