#TITLE:FROM PARIS TO BERLIN;
#SUBTITLE:;
#ARTIST:INFERNAL;
#TITLETRANSLIT:;
#SUBTITLETRANSLIT:;
#ARTISTTRANSLIT:;
#GENRE:;
#CREDIT:;
#BANNER:From Paris to Berlin.png;
#BACKGROUND:From Paris to Berlin-bg.png;
#LYRICSPATH:;
#CDTITLE:cdtitle.png;
#MUSIC:From Paris to Berlin.ogg;
#OFFSET:-0.160000;
#SAMPLESTART:22.500000;
#SAMPLELENGTH:15.000000;
#SELECTABLE:YES;
#DISPLAYBPM:126.000000;
#BPMS:0.000000=125.999992
;
#STOPS:
;
#BGCHANGES:;
#KEYSOUNDS:;
#ATTACKS:;

//---------------dance-single - ----------------
#NOTES:
     dance-single:
     :
     Easy:
     4:
     0.178494,0.229940,0.079445,0.252781,0.000000,173.000000,162.000000,11.000000,35.000000,0.000000,0.000000,0.178494,0.229940,0.079445,0.252781,0.000000,173.000000,162.000000,11.000000,35.000000,0.000000,0.000000:
0000
0000
0000
0000
,
0000
0000
0000
0000
,
0000
0000
0000
0000
,
1000
0000
0100
0000
,
1000
0000
0010
0000
,
2000
0000
3001
0000
,
2000
0000
3001
0000
,
0001
0000
0100
0000
,
0001
0000
0010
0000
,
0002
0000
1003
0000
,
0100
0000
0010
0000
,
2000
0001
3001
0000
,
0010
0001
0010
1000
,
0100
0010
0001
0000
,
1000
1000
0001
0000
,
1000
1000
0001
0000
,
0010
1000
0100
0000
,
0010
0001
0100
0000
,
0001
0001
1000
0000
,
0020
0000
0000
0030
,
1000
0000
1000
0000
,
0100
0000
0001
0000
,
0100
0000
0100
0000
,
1000
0000
0010
0000
,
1000
0001
1001
0000
,
0001
1000
1001
0000
,
0010
0001
0100
0000
,
1000
0100
0010
0001
,
0220
0000
0000
0330
,
0010
1000
0100
0100
,
0010
1000
0001
0001
,
1000
1000
0001
0000
,
1000
1000
0001
0000
,
0010
0100
0110
0000
,
1000
0001
1001
0000
,
0001
0001
1000
0000
,
2000
0000
3002
0000
,
0203
0000
0300
0000
,
0020
0000
0230
0000
,
2300
0000
3000
0000
,
0002
0000
0203
0000
,
0320
0000
0030
0000
,
2000
0000
3200
0000
,
0302
0000
0003
0000
,
0100
0100
0100
0100
,
1001
0000
0000
0000
,
0110
0000
0000
0000
,
1000
0100
0100
0010
,
1000
0001
0000
0000
,
0010
1000
0100
0000
,
0010
0001
0100
0000
,
1000
0000
0001
0000
,
1000
0100
0010
0001
,
0220
0000
0000
0330
,
0010
1000
0100
0100
,
0010
1000
0001
0001
,
1000
1000
0001
0000
,
1000
1000
0001
0000
,
0010
0100
0110
0000
,
1000
0001
1001
0000
,
0001
0001
1000
0000
,
2000
0000
3002
0000
,
0203
0000
0300
0000
,
0020
0000
0230
0000
,
2300
0000
3000
0000
,
0002
0000
0203
0000
,
0320
0000
0030
0000
,
2000
0000
3200
0000
,
0302
0000
0003
0000
,
1000
0000
0001
0000
,
2002
0000
0000
3003
;

//---------------dance-single - ----------------
#NOTES:
     dance-single:
     :
     Beginner:
     1:
     0.067064,0.151668,0.021667,0.093890,0.000000,65.000000,62.000000,3.000000,13.000000,0.000000,0.000000,0.067064,0.151668,0.021667,0.093890,0.000000,65.000000,62.000000,3.000000,13.000000,0.000000,0.000000:
0000
0000
0000
0000
,
0000
0000
0000
0000
,
0000
0000
0000
0000
,
2000
0000
0000
0000
,
3000
0000
0000
0000
,
1000
0000
0000
0000
,
1000
0000
0000
0000
,
0002
0000
0000
0000
,
0003
0000
0000
0000
,
0001
0000
0000
0000
,
0001
0000
0000
0000
,
0100
0100
0100
0000
,
1000
0000
0000
0000
,
0001
0000
0000
0000
,
0100
0000
0000
0000
,
0100
0000
0000
0000
,
0001
0000
0000
0000
,
1000
0000
0000
0000
,
0010
0000
0000
0000
,
0020
0000
0000
0030
,
0010
0000
0000
0000
,
0000
0000
0000
0000
,
0100
0000
0000
0000
,
0000
0000
0000
0000
,
1000
0000
0000
0000
,
0001
0000
0000
0000
,
0100
0000
0000
0000
,
0010
0010
0010
0010
,
0010
0000
0000
0000
,
0100
0000
0000
0000
,
0010
0000
0000
0000
,
1000
0000
0000
0000
,
1000
0000
0000
0000
,
0010
0000
0000
0000
,
0100
0000
0000
0000
,
0001
0000
0000
0000
,
0002
0000
0000
0000
,
0003
0000
0000
0000
,
2000
0000
0000
0000
,
3000
0000
0000
0000
,
0020
0000
0000
0000
,
0030
0000
0000
0000
,
0200
0000
0000
0000
,
0300
0000
0000
0000
,
0000
0000
0000
0000
,
1001
0000
0000
0000
,
0000
0000
0000
0000
,
0110
0000
0000
0000
,
0000
0000
0000
0000
,
1000
0000
0100
0000
,
0100
0000
0010
0000
,
0001
0000
0000
0000
,
0010
0010
0010
0010
,
0010
0000
0000
0000
,
0100
0000
0000
0000
,
0010
0000
0000
0000
,
1000
0000
0000
0000
,
1000
0000
0000
0000
,
0010
0000
0000
0000
,
0100
0000
0000
0000
,
0001
0000
0000
0000
,
0002
0000
0000
0000
,
0003
0000
0000
0000
,
2000
0000
0000
0000
,
3000
0000
0000
0000
,
0020
0000
0000
0000
,
0030
0000
0000
0000
,
0200
0000
0000
0000
,
0300
0000
0000
0000
,
2002
0000
0000
0000
,
3003
0000
0000
0000
;

//---------------dance-single - ----------------
#NOTES:
     dance-single:
     :
     Medium:
     6:
     0.283733,0.306587,0.057778,0.144446,0.000000,275.000000,267.000000,8.000000,20.000000,0.000000,0.000000,0.283733,0.306587,0.057778,0.144446,0.000000,275.000000,267.000000,8.000000,20.000000,0.000000,0.000000:
0000
0000
0000
0000
,
0000
0000
0000
0000
,
0000
0000
0000
0000
,
1000
0100
0010
0000
,
0001
0100
0010
0000
,
1000
0000
1000
0001
0000
0000
0000
0000
,
1000
0000
1000
0001
0000
0000
0000
0000
,
1000
0100
0010
0000
,
0001
0100
0010
0000
,
1000
0000
1000
0001
0000
0000
0000
0000
,
1000
0100
0010
0001
,
0200
0001
1300
0110
,
1000
0000
0100
0000
0010
0001
0010
0000
,
0001
0000
0100
0000
0010
1000
0010
0000
,
0100
0000
0100
0010
0000
0000
0000
0000
,
0100
0000
0100
0010
0000
0000
1001
0000
,
0100
0000
0001
0010
0100
0000
1000
0000
,
0010
0000
0100
0001
0010
0000
0001
0000
,
0010
0000
0010
0100
0000
0000
0000
0000
,
2000
0001
0010
3100
,
0100
0001
0101
0000
,
0100
1000
1100
0000
,
0010
0001
0011
0000
,
0010
1000
1010
0000
,
0100
0000
0001
1000
0100
0000
1000
0000
,
0010
0000
1000
0001
0010
0000
0001
0000
,
0200
0000
0000
0000
0001
0000
0310
0001
,
1000
0000
0001
0000
0010
0000
1000
0100
,
0002
0000
0000
1003
,
0100
0000
0010
0100
0001
0000
1000
0000
,
1000
0000
0010
0100
1000
0000
0001
0000
,
0100
0000
0100
0010
0000
0000
0000
0000
,
0100
0000
0100
0010
0000
0000
1000
0000
,
1000
0000
0010
0100
0010
0000
0001
0000
,
0001
0000
0010
0100
0010
0000
1000
0000
,
0100
0000
0100
0010
0000
0000
0000
0000
,
1000
0000
0100
0010
0001
0000
0100
0010
,
2000
0000
0010
3010
,
0001
0000
1000
0001
0100
0000
0001
1000
,
0200
0000
1000
1300
,
0010
0000
0001
0100
1000
0000
0010
1000
,
0002
0000
0100
0103
,
1000
0000
0010
0001
0100
0000
0010
1000
,
0200
0000
0010
0310
,
1000
1100
0001
0101
,
0020
0000
0032
0000
,
0203
0000
0300
0000
,
0020
0000
2030
0000
,
3200
0000
0300
0000
,
1000
0000
1000
0000
1000
0100
0010
0000
,
0001
0000
0001
0000
0001
0100
0010
0000
,
1000
0000
0010
0000
1000
0000
0100
0100
,
0010
0000
0001
0000
1000
0000
0100
0001
,
2000
0000
0000
3001
,
0100
0000
0010
0100
0001
0000
1000
0000
,
1000
0000
0010
0100
1000
0000
0001
0000
,
0100
0000
0100
0010
0000
0000
0000
0000
,
0100
0000
0100
0010
0000
0000
1000
0000
,
1000
0000
0010
0100
0010
0000
0001
0000
,
0001
0000
0010
0100
0010
0000
1000
0000
,
0100
0000
0100
0010
0000
0000
0000
0000
,
1000
0000
0100
0010
0001
0000
0100
0010
,
2000
0000
0010
3010
,
0001
0000
1000
0001
0100
0000
0001
1000
,
0200
0000
1000
1300
,
0010
0000
0001
0100
1000
0000
0010
1000
,
0002
0000
0100
0103
,
1000
0000
0010
0001
0100
0000
0010
1000
,
0200
0000
0010
0310
,
1000
0000
0100
1000
0001
0000
0100
0001
,
2000
0000
0000
3000
;

//---------------dance-single - ----------------
#NOTES:
     dance-single:
     :
     Hard:
     10:
     0.365242,0.408782,0.281670,0.144446,0.000000,354.000000,315.000000,39.000000,20.000000,0.000000,0.000000,0.365242,0.408782,0.281670,0.144446,0.000000,354.000000,315.000000,39.000000,20.000000,0.000000,0.000000:
0000
0000
0000
0000
,
0000
0000
0000
0000
,
0000
0000
0000
0000
,
1100
0000
0100
1000
0100
0000
0000
0000
,
0011
0000
0010
0001
0010
0000
0000
0000
,
1000
0000
1000
0001
1000
0000
0000
0000
,
1000
0000
1000
0001
1000
0000
0000
0000
,
1010
0000
0010
1000
0010
0000
0000
0000
,
0101
0000
0100
0001
0100
0000
0000
0000
,
0001
0000
0001
1000
0001
0000
0000
0000
,
1000
0000
0100
0100
0100
0000
0010
0010
,
0020
1000
0031
0110
,
1000
0100
0010
0001
0100
0000
1000
0000
,
0010
0100
0001
0010
0100
0000
1000
0000
,
0010
0001
0010
0100
0000
0000
1100
0000
,
0010
0001
0010
0100
0000
0000
0011
0000
,
1000
0100
0010
0001
0100
0000
1000
0000
,
0100
0100
1000
0010
0100
0000
0001
0000
,
0010
0100
0001
0010
0000
0000
1000
0000
,
0022
0000
0000
0033
,
1000
0100
0010
0001
0200
0000
1000
0000
,
0301
0010
0100
1000
0020
0000
0100
0000
,
1030
0001
0100
0010
2000
0000
0010
0000
,
3100
0010
1000
0100
0002
0000
0010
0000
,
0103
1001
0010
1001
,
0100
1000
0010
0100
0000
0000
0000
0000
,
0110
0000
1000
0100
0010
0000
1000
0001
,
0010
1000
1100
0010
,
2002
0000
0000
3003
,
1000
0100
0010
0100
0001
0000
1001
0000
,
0100
0001
0010
0010
0001
0000
0110
0000
,
1000
0100
0010
0001
0000
0000
1100
0000
,
1000
0100
0010
0001
0000
0000
1100
0000
,
0010
0001
0100
0010
0010
0000
0101
0000
,
1000
1000
0100
1000
0001
0000
1010
0000
,
1000
0100
0010
0001
0000
0000
0000
0010
,
0100
0000
1000
1000
0000
0010
0001
0100
,
0010
0000
0000
0000
1100
0000
0000
1000
,
1000
0000
0010
0001
0000
0100
0010
0010
,
0001
0000
0000
0000
1001
0000
0000
0100
,
0010
0000
1000
1000
0000
0010
0001
0100
,
0010
0000
0000
0000
0011
0000
0000
1000
,
0100
0000
0010
0010
0000
0100
0001
0010
,
0100
0000
1100
0000
,
2000
0001
3001
0000
0002
1000
1003
0000
,
0200
0000
0002
0300
,
0020
0000
0033
0011
,
0200
0000
2000
0300
,
0002
0000
3003
1001
,
0100
0001
0010
0100
0000
0010
0010
0001
,
0010
1000
0100
0010
0000
0000
1001
0000
,
0100
0000
1001
0000
0010
0000
1000
0100
,
0010
1000
1100
0010
,
2002
0000
0000
3003
,
1000
0100
0010
0100
0001
0000
1001
0000
,
0100
0001
0010
0010
0001
0000
0110
0000
,
1000
0100
0010
0001
0000
0000
1100
0000
,
1000
0100
0010
0001
0000
0000
1100
0000
,
0010
0001
0100
0010
0010
0000
0101
0000
,
1000
1000
0100
1000
0001
0000
1010
0000
,
1000
0100
0010
0001
0000
0000
0000
0010
,
0100
0000
1000
1000
0000
0010
0001
0100
,
0010
0000
0000
0000
1100
0000
0000
1000
,
1000
0000
0010
0001
0000
0100
0010
0010
,
0001
0000
0000
0000
1001
0000
0000
0100
,
0010
0000
1000
1000
0000
0010
0001
0100
,
0010
0000
0000
0000
0011
0000
0000
1000
,
0100
0000
0010
0010
0000
0100
0001
0010
,
0100
0000
0000
0000
1100
0000
0000
0001
,
1000
0100
0010
0100
0001
0010
0100
0001
,
2000
0000
0000
3000
;

//---------------dance-single - ----------------
#NOTES:
     dance-single:
     :
     Challenge:
     13:
     0.567467,0.613173,0.274447,0.137224,0.353893,550.000000,512.000000,38.000000,19.000000,0.000000,0.000000,0.567467,0.613173,0.274447,0.137224,0.353893,550.000000,512.000000,38.000000,19.000000,0.000000,0.000000:
// measure 0
0000
0000
0000
0000
,  // measure 1
0000
0000
0000
0000
,  // measure 2
0000
0000
0000
0000
,  // measure 3
1000
0100
1000
0010
0100
0100
0001
0010
,  // measure 4
0001
0100
0100
0010
1000
0100
0010
0100
,  // measure 5
0001
0010
0100
1000
0000
0100
0100
0000
,  // measure 6
0001
0010
0100
1000
0000
0100
0100
0000
,  // measure 7
0001
0010
0001
0100
0100
0010
1000
0100
,  // measure 8
0010
1000
1000
0001
0010
0001
0001
0100
,  // measure 9
1000
0100
0010
0001
0000
0010
0010
0000
,  // measure 10
1000
0100
0100
0010
1000
0010
0100
0001
,  // measure 11
0010
1010
0011
1001
,  // measure 12
0100
0000
0001
0000
0010
0000
1000
0001
0000
0000
0100
0000
0100
0000
0010
0001
,  // measure 13
0000
0000
1000
0000
0010
0000
1000
0001
0000
0000
0110
0000
0011
0000
0100
0000
,  // measure 14
1000
0000
0100
0000
0010
0000
0001
0000
0000
0000
1000
0001
1000
0000
0000
0000
,  // measure 15
1000
0000
0100
0000
0010
0000
0001
0000
0000
0000
1000
0001
1000
0000
0000
0000
,  // measure 16
0100
0010
1100
0101
0010
1000
0100
0010
,  // measure 17
1000
0001
0011
1010
0100
0010
0100
0100
,  // measure 18
0001
0000
0010
0000
0100
0000
1000
0000
0000
0000
0001
1000
0001
0000
0000
0000
,  // measure 19
1000
0100
0001
0100
1000
0100
0001
0100
,  // measure 20
0020
1030
0020
0031
,  // measure 21
1000
0100
2002
3003
,  // measure 22
1000
0100
0010
0000
0100
0000
0010
0001
,  // measure 23
1000
0000
0220
0000
0330
0000
1000
0100
,  // measure 24
0010
0000
0010
0100
1000
0000
0001
0000
0000
0000
1000
0000
0010
0000
0100
0000
,  // measure 25
0100
0000
0001
0010
0100
0000
1000
0000
0000
0000
0001
0000
0010
0000
0011
0000
,  // measure 26
0000
0000
1000
0000
0100
0000
0010
0001
0000
1000
0100
0000
0010
0000
0001
0000
,  // measure 27
1100
0101
0011
1010
,  // measure 28
2002
0000
0000
3003
,  // measure 29
1000
0010
1000
0010
1000
0010
1000
0010
1000
0000
0000
0000
1010
0000
0000
0000
,  // measure 30
0001
0010
0001
0010
0001
0010
0001
0010
0001
0000
0000
0000
0011
0000
0000
0000
,  // measure 31
1000
0001
1000
0001
1000
0001
1000
0001
1000
0000
0000
0000
1001
0000
0000
0000
,  // measure 32
1000
0001
1000
0001
1000
0001
1000
0001
1000
0000
0000
0000
1001
0000
0000
0000
,  // measure 33
0001
0100
0001
0100
0001
0100
0001
0100
0001
0000
0000
0000
0101
0000
0000
0000
,  // measure 34
0100
1000
0100
1000
0100
1000
0100
1000
0100
0000
0000
0000
1100
0000
0000
0000
,  // measure 35
0001
1000
0001
1000
0001
1000
0001
1000
0001
0000
0000
0000
1001
0000
0000
0000
,  // measure 36
1000
0000
0100
0000
0010
0001
1000
0000
0100
0000
0010
0000
1000
0001
0010
0000
,  // measure 37
0100
0000
0100
0100
0001
0010
0100
0010
,  // measure 38
1000
0000
0100
0000
0001
1000
0100
0000
0010
0000
0001
0000
1000
0001
0100
0000
,  // measure 39
0010
0000
1000
0100
0100
1000
0010
0100
,  // measure 40
0001
0000
0001
0000
0100
1000
0001
0000
0010
0000
0100
0000
0001
1000
0010
0000
,  // measure 41
0100
0000
0010
0001
0010
0010
0100
1000
,  // measure 42
0010
0000
0001
0000
0010
0100
1000
0000
0001
0000
1000
0000
0010
0001
0100
0000
,  // measure 43
0100
0000
0010
0001
0100
0010
1000
0100
,  // measure 44
1000
0100
0001
0000
0010
0100
0001
0000
1000
0001
0010
0000
0100
1000
0010
0000
,  // measure 45
0002
0000
2000
0003
,  // measure 46
0020
3000
0200
0330
,  // measure 47
0200
0000
0020
0300
,  // measure 48
2000
0030
0002
3003
,  // measure 49
1000
0000
0100
0000
0010
0001
1000
0000
0000
0000
0011
0000
0101
0000
1000
0000
,  // measure 50
0010
0000
0100
0000
1000
0001
0010
0000
0100
0000
0000
0000
1000
0000
0100
0000
,  // measure 51
0010
0000
0001
0000
0100
0000
0010
1000
0000
0001
0010
0000
0100
0000
0001
0000
,  // measure 52
1100
0101
0011
1010
,  // measure 53
2002
0000
0000
3003
,  // measure 54
1000
0010
1000
0010
1000
0010
1000
0010
1000
0000
0000
0000
1010
0000
0000
0000
,  // measure 55
0001
0010
0001
0010
0001
0010
0001
0010
0001
0000
0000
0000
0011
0000
0000
0000
,  // measure 56
1000
0001
1000
0001
1000
0001
1000
0001
1000
0000
0000
0000
1001
0000
0000
0000
,  // measure 57
1000
0001
1000
0001
1000
0001
1000
0001
1000
0000
0000
0000
1001
0000
0000
0000
,  // measure 58
0001
0100
0001
0100
0001
0100
0001
0100
0001
0000
0000
0000
0101
0000
0000
0000
,  // measure 59
0100
1000
0100
1000
0100
1000
0100
1000
0100
0000
0000
0000
1100
0000
0000
0000
,  // measure 60
0001
1000
0001
1000
0001
1000
0001
1000
0001
0000
0000
0000
1001
0000
0000
0000
,  // measure 61
1000
0000
0100
0000
0010
0001
1000
0000
0100
0000
0010
0000
1000
0001
0010
0000
,  // measure 62
0100
0000
0100
0100
0001
0010
0100
0010
,  // measure 63
1000
0000
0100
0000
0001
1000
0100
0000
0010
0000
0001
0000
1000
0001
0100
0000
,  // measure 64
0010
0000
1000
0100
0100
1000
0010
0100
,  // measure 65
0001
0000
0001
0000
0100
1000
0001
0000
0010
0000
0100
0000
0001
1000
0010
0000
,  // measure 66
0100
0000
0010
0001
0010
0010
0100
1000
,  // measure 67
0010
0000
0001
0000
0010
0100
1000
0000
0001
0000
1000
0000
0010
0001
0100
0000
,  // measure 68
0100
0000
0010
0001
0100
0010
1000
0100
,  // measure 69
0001
0100
0001
0100
0001
1000
0001
1000
0001
0010
0001
0010
0001
1000
0001
1000
,  // measure 70
0002
0000
0000
0003
;
