#VERSION:0.83;
#TITLE:FROM PARIS TO BERLIN;
#SUBTITLE:(DJ Black Pearl Remix);
#ARTIST:INFERNAL;
#TITLETRANSLIT:;
#SUBTITLETRANSLIT:;
#ARTISTTRANSLIT:;
#GENRE:;
#ORIGIN:;
#CREDIT:;
#BANNER:From Paris to Berlin (DJ Black Pearl Remix).png;
#BACKGROUND:From Paris to Berlin (DJ Black Pearl Remix)-bg.png;
#PREVIEWVID:;
#JACKET:From Paris to Berlin (DJ Black Pearl Remix)-jacket.png;
#CDIMAGE:;
#DISCIMAGE:;
#LYRICSPATH:;
#CDTITLE:cdtitle.png;
#MUSIC:From Paris to Berlin (DJ Black Pearl Remix).ogg;
#OFFSET:-0.298000;
#SAMPLESTART:31.100000;
#SAMPLELENGTH:15.000000;
#SELECTABLE:YES;
#DISPLAYBPM:138.000000;
#BPMS:0.000=138.010;
#STOPS:;
#DELAYS:;
#WARPS:;
#TIMESIGNATURES:0.000=4=4;
#TICKCOUNTS:0.000=4;
#COMBOS:0.000=1;
#SPEEDS:0.000=1.000=0.000=0;
#SCROLLS:0.000=1.000;
#FAKES:;
#LABELS:0.000=Song Start;
#BGCHANGES:;
#KEYSOUNDS:;
#ATTACKS:
;

//---------------dance-single - ----------------
#NOTEDATA:;
#CHARTNAME:;
#STEPSTYPE:dance-single;
#DESCRIPTION:;
#CHARTSTYLE:;
#DIFFICULTY:Easy;
#METER:5;
#RADARVALUES:0.195815,0.305844,0.098494,0.295482,0.000000,167.000000,155.000000,12.000000,36.000000,0.000000,0.000000,0.000000,0.000000,0.000000,0.195815,0.305844,0.098494,0.295482,0.000000,167.000000,155.000000,12.000000,36.000000,0.000000,0.000000,0.000000,0.000000,0.000000;
#CREDIT:kater15;
#DISPLAYBPM:138.000000;
#NOTES:
0000
0000
0000
0000
,
0000
0000
0000
0000
,
0000
0000
0000
0000
,
0000
0000
0000
0000
,
0000
0000
0000
0000
,
1000
0000
0001
0000
,
1000
0000
0001
0000
,
0100
0000
0010
0000
,
0100
0000
0010
0000
,
1000
0100
0010
0000
,
0001
0000
1000
0000
,
0010
0001
0100
0000
,
0010
0000
0100
0000
,
1000
1000
0010
0100
,
0001
0010
1000
0001
,
0010
0000
0100
0000
,
1000
0100
0001
0010
,
2002
0000
0000
3003
,
0100
0001
0100
1000
,
0010
0100
0100
0001
,
0001
0010
0100
0000
,
1000
0010
0001
0000
,
1000
1001
0001
0010
,
0100
0110
0001
1000
,
0010
0001
0100
0000
,
2000
0000
3002
0000
,
0203
0000
0300
0000
,
0020
0000
0230
0000
,
0302
0000
0003
0000
,
0200
0000
0302
0000
,
0023
0000
0030
0000
,
2000
0000
3200
0000
,
0302
0000
0003
0000
,
0220
0000
0000
0330
,
1000
0100
0002
1003
,
0000
0010
1000
0110
,
0010
1000
0020
0031
,
0000
0100
0010
1001
,
0100
0000
0001
0000
,
0010
0000
0100
0000
,
1001
0010
0100
0000
,
0010
0000
1000
0000
,
0100
0001
0010
0001
,
0100
1000
0010
0000
,
0100
0000
0001
0000
,
1000
0100
0001
0010
,
2002
0000
0000
3003
,
0100
0001
0100
1000
,
0010
0100
0100
0001
,
0001
0010
0100
0000
,
1000
0010
0001
0000
,
1000
1001
0001
0010
,
0100
0110
0001
1000
,
0010
0001
0100
0000
,
2000
0000
3002
0000
,
0203
0000
0300
0000
,
0020
0000
0230
0000
,
0302
0000
0003
0000
,
0200
0000
0302
0000
,
0023
0000
0030
0000
,
2000
0000
3200
0000
,
0302
0000
0003
0000
,
0220
0000
0000
0330
,
1000
0000
0001
0000
,
1000
0000
0001
0000
,
0100
0000
0010
0000
,
0100
0000
0010
0000
,
2002
0000
0000
3003
;

//---------------dance-single - ----------------
#NOTEDATA:;
#CHARTNAME:;
#STEPSTYPE:dance-single;
#DESCRIPTION:;
#CHARTSTYLE:;
#DIFFICULTY:Beginner;
#METER:1;
#RADARVALUES:0.089113,0.139020,0.041039,0.114910,0.000000,76.000000,71.000000,5.000000,14.000000,0.000000,0.000000,0.000000,0.000000,0.000000,0.089113,0.139020,0.041039,0.114910,0.000000,76.000000,71.000000,5.000000,14.000000,0.000000,0.000000,0.000000,0.000000,0.000000;
#CREDIT:kater15;
#DISPLAYBPM:138.000000;
#NOTES:
// measure 0
0000
0000
0000
0000
,  // measure 1
0000
0000
0000
0000
,  // measure 2
0000
0000
0000
0000
,  // measure 3
0000
0000
0000
0000
,  // measure 4
0000
0000
0000
0000
,  // measure 5
0000
0000
0000
0000
,  // measure 6
0000
0000
0000
0000
,  // measure 7
0000
0000
0000
0000
,  // measure 8
0000
0000
0000
0000
,  // measure 9
1000
0000
0000
0000
,  // measure 10
1000
0000
0000
0000
,  // measure 11
0001
0000
0000
0000
,  // measure 12
0001
0000
0000
0000
,  // measure 13
0100
0000
0000
0000
,  // measure 14
0100
0000
0000
0000
,  // measure 15
0010
0000
0000
0000
,  // measure 16
0010
0000
0100
0000
,  // measure 17
0220
0000
0000
0330
,  // measure 18
0000
1000
0000
0001
,  // measure 19
0000
1000
0000
0000
,  // measure 20
0020
0000
0030
0000
,  // measure 21
0020
0000
0030
0000
,  // measure 22
0000
0100
0000
1000
,  // measure 23
0000
0100
0000
0000
,  // measure 24
0002
0000
0003
0000
,  // measure 25
1000
0000
1000
0000
,  // measure 26
1000
0000
0000
0000
,  // measure 27
0100
0000
0100
0000
,  // measure 28
0100
0000
0000
0000
,  // measure 29
0010
0000
0010
0000
,  // measure 30
0010
0000
0000
0000
,  // measure 31
0001
0000
0001
0000
,  // measure 32
0001
0000
0000
0000
,  // measure 33
1001
0000
0000
0000
,  // measure 34
0100
0000
0000
0000
,  // measure 35
0010
0000
0000
0000
,  // measure 36
0001
0000
0000
0000
,  // measure 37
1000
0000
0000
0000
,  // measure 38
0200
0000
0000
0000
,  // measure 39
0300
0000
0000
0000
,  // measure 40
0200
0000
0000
0000
,  // measure 41
0300
0000
0000
0000
,  // measure 42
1000
0000
0000
0000
,  // measure 43
0001
0000
0000
0000
,  // measure 44
0100
0000
0000
0000
,  // measure 45
0010
0000
0100
0000
,  // measure 46
0220
0000
0000
0330
,  // measure 47
0000
0001
0000
1000
,  // measure 48
0000
0001
0000
0000
,  // measure 49
0200
0000
0300
0000
,  // measure 50
0200
0000
0300
0000
,  // measure 51
0000
0010
0000
0001
,  // measure 52
0000
0010
0000
0000
,  // measure 53
2000
0000
3000
0000
,  // measure 54
0001
0000
0001
0000
,  // measure 55
0001
0000
0000
0000
,  // measure 56
0010
0000
0010
0000
,  // measure 57
0010
0000
0000
0000
,  // measure 58
0100
0000
0100
0000
,  // measure 59
0100
0000
0000
0000
,  // measure 60
1000
0000
1000
0000
,  // measure 61
1000
0000
0000
0000
,  // measure 62
1001
0000
0000
0000
,  // measure 63
1000
0000
0000
0000
,  // measure 64
0001
0000
0000
0000
,  // measure 65
1000
0000
0000
0000
,  // measure 66
0001
0000
0000
0000
,  // measure 67
2002
0000
0000
3003
;

//---------------dance-single - ----------------
#NOTEDATA:;
#CHARTNAME:;
#STEPSTYPE:dance-single;
#DESCRIPTION:;
#CHARTSTYLE:;
#DIFFICULTY:Medium;
#METER:7;
#RADARVALUES:0.280238,0.333648,0.155949,0.098494,0.000000,239.000000,220.000000,19.000000,12.000000,0.000000,0.000000,0.000000,0.000000,0.000000,0.280238,0.333648,0.155949,0.098494,0.000000,239.000000,220.000000,19.000000,12.000000,0.000000,0.000000,0.000000,0.000000,0.000000;
#CREDIT:kater15;
#DISPLAYBPM:138.000000;
#NOTES:
0000
0000
0000
0000
,
0000
0000
0000
0000
,
0000
0000
0000
0000
,
0000
0000
0000
0000
,
0000
0000
0000
0000
,
1000
0000
0001
1000
,
0000
0000
0001
1000
,
0010
0000
0100
0010
,
0000
0000
0100
0010
,
1000
0000
1000
0000
1000
0001
1000
0000
,
0001
0000
0001
0000
0001
1000
0001
0000
,
0200
0000
0001
0310
,
1000
0001
0100
0010
,
1000
0000
0100
0100
0100
0000
0001
0000
,
0010
0000
0001
0001
0001
0000
0000
0000
,
0100
0000
1000
0000
0010
0000
1000
0100
,
1000
0100
0001
0100
,
2200
0000
0000
3300
,
1000
0000
0100
0000
0010
0100
0010
0000
,
1000
0000
0001
0000
0100
1000
0100
0000
,
0010
0000
0001
0001
0000
0000
0000
0000
,
0010
0000
1000
1000
0000
0000
1010
0000
,
0010
0000
0001
0000
0001
0100
0001
0000
,
0010
0000
1000
0000
0100
0010
0100
0000
,
0010
0000
0001
0001
0000
0000
0000
0000
,
1000
0000
0001
0000
0101
0000
1000
0100
,
0001
0000
0000
0000
,
1000
0000
0100
0000
0110
0000
0010
1000
,
0001
0000
0000
0000
,
0100
0000
1000
0000
0011
0000
0100
0010
,
1000
0000
0000
0000
,
0100
0000
0001
0000
1100
0000
0001
1000
,
0010
0000
0000
0000
,
0220
0000
0000
0330
,
1000
0100
0100
1010
,
0000
0001
1000
0000
0100
0010
0010
0000
,
0100
0100
0001
0011
,
0000
0100
0010
0000
1000
1000
0001
0000
,
0100
0001
0101
1000
,
0010
1100
1000
0000
,
0010
0000
0001
0000
1000
0100
0010
0000
,
0200
0001
1300
0000
,
0100
0000
0001
0001
0001
0000
0100
0000
,
0010
0000
1000
1000
1000
0000
0100
0000
,
0010
0000
0100
0000
0001
0010
0001
0000
,
0100
0010
0100
0001
,
0022
0000
0000
0033
,
0100
0000
0001
0000
1000
0001
1000
0000
,
0100
0000
0010
0000
0001
0100
0001
0000
,
1000
0000
0010
0010
0000
0000
0000
0000
,
1000
0000
0100
0100
0000
0000
1100
0000
,
1000
0000
0010
0000
0010
0001
0010
0000
,
1000
0000
0100
0000
0001
1000
0001
0000
,
1000
0000
0010
0010
0000
0000
0000
0000
,
0100
0000
0010
0000
0011
0000
0100
0001
,
0010
0000
0000
0000
,
0100
0000
0001
0000
1001
0000
1000
0100
,
0010
0000
0000
0000
,
0001
0000
0100
0000
1010
0000
0001
1000
,
0100
0000
0000
0000
,
0001
0000
0010
0000
0101
0000
0010
0100
,
1000
0000
0000
0000
,
2002
0000
0000
3003
,
1000
0000
0001
1000
,
0000
0000
0001
1000
,
0010
0000
0100
0010
,
0000
0000
0100
0010
,
2002
0000
0000
3003
;

//---------------dance-single - ----------------
#NOTEDATA:;
#CHARTNAME:;
#STEPSTYPE:dance-single;
#DESCRIPTION:;
#CHARTSTYLE:;
#DIFFICULTY:Hard;
#METER:9;
#RADARVALUES:0.406873,0.444864,0.164156,0.172364,0.000000,347.000000,327.000000,20.000000,21.000000,0.000000,0.000000,0.000000,0.000000,0.000000,0.406873,0.444864,0.164156,0.172364,0.000000,347.000000,327.000000,20.000000,21.000000,0.000000,0.000000,0.000000,0.000000,0.000000;
#CREDIT:kater15;
#DISPLAYBPM:138.000000;
#NOTES:
0000
0000
0000
0000
,
0000
0000
0000
0000
,
0000
0000
0000
0000
,
0000
0000
0000
0000
,
0000
0000
0000
0000
,
0100
1000
0100
0001
,
0100
1000
0100
0001
,
0010
1000
0010
0001
,
0010
1000
0010
0001
,
0100
1000
0100
0010
2000
0000
3001
0000
,
0100
0001
1000
0010
0200
0000
0301
0000
,
0010
0010
0001
0100
0002
0000
0013
0000
,
1000
0100
0010
0001
0200
0000
0310
0000
,
1000
0200
0001
0301
0000
0000
0110
0000
,
1000
0020
0100
0130
0000
0000
0000
0110
,
0000
1000
1000
0100
0000
0010
0001
0100
,
0010
1100
0101
0001
,
2002
0000
0000
3003
,
1000
0100
0010
0001
0100
0010
1000
0000
,
0100
0100
0001
0010
0001
0100
0010
0000
,
0001
1000
0100
0010
0000
0000
1001
0000
,
0001
1000
0100
0010
0000
0000
1001
0000
,
0100
0001
0010
0100
0100
0001
1000
0000
,
0010
0001
0010
0100
0100
1000
0001
0000
,
0001
1000
0100
0010
0000
0000
1001
0000
,
0100
0000
1000
0001
0000
0100
0010
1000
,
0100
0000
0000
1000
0100
0010
0001
0000
,
0100
0000
0010
1000
0000
0100
0010
1000
,
0100
0000
0000
0010
1000
0001
0100
0000
,
0001
0000
1000
0100
0000
0010
1000
0001
,
0010
0000
0000
0010
1000
0100
0001
0000
,
0100
0000
1000
0010
0000
0100
0100
0001
,
1000
0000
0000
0001
0010
0100
1000
0000
,
0220
0000
0000
0330
,
1001
0000
0100
0100
0001
0010
0100
0000
,
0000
1000
0001
0100
0010
0010
0100
0000
,
0110
0000
0001
0001
0010
1000
0001
0000
,
0000
0100
0010
0001
1000
1000
0001
0000
,
0100
0100
0001
0010
0200
0000
0301
0000
,
0010
0010
1000
0001
0020
0000
1030
0000
,
0100
0010
0001
0001
2000
0000
3001
0000
,
0100
0010
0100
0100
0002
0000
0013
0000
,
1000
0100
0010
0001
0000
2000
0010
3010
,
0001
0010
0100
1000
0000
0000
0110
0000
,
1000
0100
0010
0100
0001
0010
0100
0100
,
1000
1100
0101
0001
,
2002
0000
0000
3003
,
1000
0100
0010
0001
0100
0010
1000
0000
,
0100
0100
0001
0010
0001
0100
0010
0000
,
0001
1000
0100
0010
0000
0000
1001
0000
,
0001
1000
0100
0010
0000
0000
1001
0000
,
0100
0001
0010
0100
0100
0001
1000
0000
,
0010
0001
0010
0100
0100
1000
0001
0000
,
0001
1000
0100
0010
0000
0000
1001
0000
,
0100
0000
1000
0001
0000
0100
0010
1000
,
0100
0000
0000
1000
0100
0010
0001
0000
,
0100
0000
0010
1000
0000
0100
0010
1000
,
0100
0000
0000
0010
1000
0001
0100
0000
,
0001
0000
1000
0100
0000
0010
1000
0001
,
0010
0000
0000
0010
1000
0100
0001
0000
,
0100
0000
1000
0010
0000
0100
0100
0001
,
1000
0000
0000
0001
0010
0100
1000
0000
,
0220
0000
0000
0330
,
0100
1000
0100
0001
,
0100
1000
0100
0001
,
0010
1000
0010
0001
,
0010
1000
0010
0001
,
2002
0000
0000
3003
;
