#TITLE:For You;
#SUBTITLE:;
#ARTIST:AZU;
#TITLETRANSLIT:;
#SUBTITLETRANSLIT:;
#ARTISTTRANSLIT:;
#GENRE:;
#CREDIT:;
#BANNER:For You.png;
#BACKGROUND:For You-bg.png;
#LYRICSPATH:;
#CDTITLE:cdtitle.png;
#MUSIC:For You.ogg;
#OFFSET:3.680000;
#SAMPLESTART:56.299999;
#SAMPLELENGTH:15.000000;
#LASTBEATHINT:3.932007;
#SELECTABLE:YES;
#DISPLAYBPM:88.000000;
#BPMS:0.000000=88.029999
;
#STOPS:
;
#BGCHANGES:7.000=For You.avi=1.000=1=0=0=StretchNoLoop==CrossFade==,
99999=-nosongbg-=1.000=0=0=0 // don't automatically add -songbackground-
;
#KEYSOUNDS:;
#ATTACKS:;

//---------------dance-single - ----------------
#NOTES:
     dance-single:
     :
     Easy:
     3:
     0.142506,0.188424,0.133005,0.232759,0.000000,90.000000,78.000000,12.000000,21.000000,0.000000,0.000000,0.142506,0.188424,0.133005,0.232759,0.000000,90.000000,78.000000,12.000000,21.000000,0.000000,0.000000:
0000
0000
0000
0000
,
0000
0000
0000
0000
,
0000
0000
0000
0000
,
0000
0000
0000
0000
,
0000
0000
0000
0000
,
0000
0000
0000
0000
,
0010
0100
0001
0010
,
0010
0000
1001
0000
,
0100
0010
0010
0001
,
0100
0000
0110
0000
,
0001
0010
1000
0100
,
0010
0000
1001
0000
,
1000
0100
0010
0001
,
0100
0000
0110
0000
,
2000
3000
0001
0100
,
0002
0003
0100
0010
,
0200
0300
0020
0030
,
2000
0000
0010
3010
,
0002
0003
0100
1000
,
0020
0030
0100
0001
,
1001
0000
0110
2000
,
0000
0000
0000
0000
,
3001
1000
0001
0010
,
0100
0000
1000
0110
,
0010
0002
2003
3002
,
2003
0100
3100
0000
,
0010
0001
1000
0100
,
0010
0000
0010
1001
,
2000
0000
0002
3003
,
0200
0300
0010
0010
,
2002
0000
3003
0000
,
0220
0000
0330
0000
,
2002
0000
3003
0000
,
1000
0100
0010
0001
,
0110
0000
0000
0000
;

//---------------dance-single - ----------------
#NOTES:
     dance-single:
     :
     Beginner:
     1:
     0.076003,0.131897,0.011084,0.055419,0.000000,48.000000,47.000000,1.000000,5.000000,0.000000,0.000000,0.076003,0.131897,0.011084,0.055419,0.000000,48.000000,47.000000,1.000000,5.000000,0.000000,0.000000:
0000
0000
0000
0000
,
0000
0000
0000
0000
,
0000
0000
0000
0000
,
0000
0000
0000
0000
,
0000
0000
0000
0000
,
0000
0000
0000
0000
,
1000
0000
1000
0000
,
1000
0000
0000
0000
,
0001
0000
0001
0000
,
0001
0000
0000
0000
,
0010
0000
1000
0000
,
0010
0000
0000
0000
,
0100
0000
0001
0000
,
0100
0000
0000
0000
,
0200
0300
0000
0001
,
0002
0003
0000
0010
,
0010
0000
1000
0000
,
0100
0000
0000
0000
,
0002
0003
0000
0100
,
0200
0300
0000
0001
,
0001
0000
2000
0000
,
0000
0000
0000
3000
,
1000
0000
0001
0000
,
0100
0000
1000
0000
,
0010
0010
0010
0010
,
0010
0000
0000
0000
,
0100
0000
0001
0000
,
1000
0000
0010
0000
,
0100
0000
0000
0000
,
0001
0000
0100
0000
,
0001
0000
0000
0000
,
1000
0000
0000
0000
,
0001
0000
0000
0000
,
0100
0000
0010
0000
,
0110
0000
0000
0000
;

//---------------dance-single - ----------------
#NOTES:
     dance-single:
     :
     Medium:
     5:
     0.205841,0.244951,0.133005,0.299262,0.000000,130.000000,118.000000,12.000000,27.000000,0.000000,0.000000,0.205841,0.244951,0.133005,0.299262,0.000000,130.000000,118.000000,12.000000,27.000000,0.000000,0.000000:
0000
0000
0000
0000
,
0000
0000
0000
0000
,
0000
0000
0000
0000
,
0000
0000
0000
0000
,
0000
0000
0000
0000
,
0000
0000
0000
0000
,
1000
0110
0001
0100
,
0010
1000
0100
0000
0001
1000
0010
0000
,
0100
1001
0010
0001
,
0100
1000
1000
0000
0010
0001
0001
0000
,
2000
0000
0000
0000
0001
0001
3001
0000
,
0010
0001
0010
1000
,
0100
0000
0001
0000
,
1000
1100
0001
0101
,
2000
0000
3002
0000
0103
0000
0010
1000
,
0200
0000
0320
0000
1030
0000
0100
1000
,
0002
0100
1000
0103
,
0010
0011
1000
1010
,
0200
0000
0320
0000
0031
0000
1000
0100
,
0002
0000
2003
0000
3100
0000
0001
0100
,
0020
0000
0100
0000
0001
0000
0130
0200
,
0000
0000
0000
0000
0300
0000
1000
1000
,
0000
0100
0001
0100
,
0010
0000
1100
0000
0010
0001
0100
0010
,
2000
3200
0320
0032
,
0103
0000
0100
0000
0100
0000
0001
0001
,
0100
1000
0100
1000
,
0001
0000
1010
0000
0001
0100
1000
0001
,
0020
2030
3002
0203
,
2300
0000
3001
1000
,
0202
0303
0001
0100
,
2020
3030
1000
0010
,
2002
3003
1000
0010
,
0001
0100
0010
1000
,
0110
0000
0000
0000
;

//---------------dance-single - ----------------
#NOTES:
     dance-single:
     :
     Hard:
     7:
     0.299262,0.339163,0.210592,0.221675,0.044335,189.000000,170.000000,19.000000,20.000000,0.000000,0.000000,0.299262,0.339163,0.210592,0.221675,0.044335,189.000000,170.000000,19.000000,20.000000,0.000000,0.000000:
// measure 0
0000
0000
0000
0000
,  // measure 1
0000
0000
0000
0000
,  // measure 2
0000
0000
0000
0000
,  // measure 3
0000
0000
0000
0000
,  // measure 4
0000
0000
0000
0000
,  // measure 5
0000
0000
0000
0000
,  // measure 6
1000
0100
0001
0100
1000
0100
0001
0010
,  // measure 7
0200
0001
0010
0301
,  // measure 8
0100
0001
0010
0001
0100
0001
0010
0100
,  // measure 9
2000
0100
0010
3100
,  // measure 10
0010
0000
1001
1001
2002
0000
3003
0000
,  // measure 11
1000
0010
0001
0100
0010
1000
0100
0000
,  // measure 12
0100
1000
0001
1000
0100
1000
0001
0100
,  // measure 13
0010
0000
0000
0100
0001
0000
0000
0001
1000
0000
0000
1000
0010
0000
0000
0000
,  // measure 14
2001
0000
3100
0000
0010
0001
0010
1000
,  // measure 15
0210
0000
0301
0000
0010
0010
0001
1000
,  // measure 16
0200
0010
0301
0000
0020
1000
0130
0000
,  // measure 17
0010
0010
0001
0010
1000
0100
1000
0000
,  // measure 18
1200
0000
0310
0000
0100
1000
1000
0010
,  // measure 19
0012
0000
0103
0000
0010
0100
1000
0100
,  // measure 20
0020
1000
0031
0000
2000
0010
3100
0002
,  // measure 21
0000
0000
0000
0000
0003
0000
0010
0100
,  // measure 22
1001
0000
0000
0000
1000
0000
0100
0000
0010
0000
0100
0000
0001
0000
0010
1000
,  // measure 23
0010
0000
0000
0000
0100
0000
0100
0000
0001
0000
0010
0000
0001
0000
0100
0010
,  // measure 24
0100
0000
1000
1000
0100
0100
0010
0010
,  // measure 25
0002
0000
0010
0000
0100
0000
1003
0001
,  // measure 26
0110
0000
0000
0000
0010
0000
1000
0000
0001
0000
1000
0000
0100
0000
0001
0010
,  // measure 27
0001
0000
0000
0000
1000
0000
1000
0000
0100
0000
0001
0000
0100
0000
1000
0001
,  // measure 28
1000
0000
0000
0000
0000
0100
0001
0000
0001
0000
0000
0000
1000
0000
1000
0000
,  // measure 29
0010
0000
0000
1000
0100
0010
0001
0100
,  // measure 30
0022
0033
0101
1100
,  // measure 31
2020
3030
1010
0011
,  // measure 32
2002
3003
1001
0110
,  // measure 33
1000
1000
0100
0100
0010
0010
0001
0001
,  // measure 34
0110
0000
0000
0000
;
