#VERSION:0.83;
#TITLE:Flight of The Zinger;
#SUBTITLE:;
#ARTIST:Dave Wise;
#TITLETRANSLIT:;
#SUBTITLETRANSLIT:;
#ARTISTTRANSLIT:;
#GENRE:;
#ORIGIN:;
#CREDIT:;
#BANNER:Flight of The Zinger.png;
#BACKGROUND:Flight of The Zinger-bg.png;
#PREVIEWVID:;
#JACKET:Flight of The Zinger-jacket.png;
#CDIMAGE:;
#DISCIMAGE:;
#LYRICSPATH:;
#CDTITLE:cdtitle.png;
#MUSIC:Flight of The Zinger.ogg;
#OFFSET:-0.334000;
#SAMPLESTART:32.089001;
#SAMPLELENGTH:18.000000;
#SELECTABLE:YES;
#DISPLAYBPM:150.000000;
#BPMS:0.000=150.220;
#STOPS:;
#DELAYS:;
#WARPS:;
#TIMESIGNATURES:0.000=4=4;
#TICKCOUNTS:0.000=4;
#COMBOS:0.000=1;
#SPEEDS:0.000=1.000=0.000=0;
#SCROLLS:0.000=1.000;
#FAKES:;
#LABELS:0.000=Song Start;
#BGCHANGES:;
#KEYSOUNDS:;
#ATTACKS:
;

//---------------dance-single - ----------------
#NOTEDATA:;
#CHARTNAME:;
#STEPSTYPE:dance-single;
#DESCRIPTION:;
#CHARTSTYLE:;
#DIFFICULTY:Easy;
#METER:4;
#RADARVALUES:0.209699,0.365282,0.067645,0.108232,0.000000,217.000000,207.000000,10.000000,16.000000,0.000000,0.000000,0.000000,0.000000,0.000000,0.209699,0.365282,0.067645,0.108232,0.000000,217.000000,207.000000,10.000000,16.000000,0.000000,0.000000,0.000000,0.000000,0.000000;
#CREDIT:kater15;
#OFFSET:-0.232000;
#BPMS:0.000000=150.220001
;
#STOPS:;
#DELAYS:;
#WARPS:;
#TIMESIGNATURES:0.000000=4=4
;
#TICKCOUNTS:0.000000=4
;
#COMBOS:0.000000=1
;
#SPEEDS:0.000000=1.000000=0.000000=0
;
#SCROLLS:0.000000=1.000000
;
#FAKES:;
#LABELS:0.000000=Song Start
;
#DISPLAYBPM:150.000000;
#NOTES:
// measure 0
0000
0000
0000
0000
,  // measure 1
0000
0000
0000
0000
,  // measure 2
0000
0000
0000
0000
,  // measure 3
0000
0000
0000
0000
,  // measure 4
1000
0000
2000
0000
,  // measure 5
0000
0000
0000
0000
,  // measure 6
0000
0000
0000
3000
,  // measure 7
0000
0000
0000
0000
,  // measure 8
0100
0000
0200
0000
,  // measure 9
0000
0000
0000
0000
,  // measure 10
0000
0000
0000
0300
,  // measure 11
0000
0000
0000
0000
,  // measure 12
0001
0000
0002
0000
,  // measure 13
0000
0000
0000
0000
,  // measure 14
0000
0000
0000
0003
,  // measure 15
0000
0000
0000
0000
,  // measure 16
0010
0000
0020
0000
,  // measure 17
0000
0000
0000
0000
,  // measure 18
0000
0000
0000
0030
,  // measure 19
0000
0000
0000
0000
,  // measure 20
1000
0100
0100
0100
,  // measure 21
0001
0100
0100
0100
,  // measure 22
1000
0010
1000
0001
,  // measure 23
1000
0100
1000
0001
,  // measure 24
2000
0100
0001
0010
,  // measure 25
0100
0100
0001
0100
,  // measure 26
0010
0001
0100
3010
,  // measure 27
0100
0100
0001
1000
,  // measure 28
0002
0100
1000
0010
,  // measure 29
0100
0100
0010
0100
,  // measure 30
1000
0010
1000
0103
,  // measure 31
0100
0001
0010
0100
,  // measure 32
0100
1001
0010
0100
,  // measure 33
1001
0000
0100
0000
1000
0000
0100
0100
,  // measure 34
0100
0001
0010
0100
,  // measure 35
0001
0000
1000
0000
0010
0000
0100
0100
,  // measure 36
0100
0000
0000
0000
,  // measure 37
0000
0000
0000
0000
,  // measure 38
1001
0100
0100
0100
,  // measure 39
1001
0010
0010
0010
,  // measure 40
2000
0000
0000
0100
,  // measure 41
3100
0000
0000
0000
,  // measure 42
1001
0010
0010
0010
,  // measure 43
1001
0100
0100
0100
,  // measure 44
2000
0000
0000
0010
,  // measure 45
3010
0000
0000
0000
,  // measure 46
1000
1001
0010
0110
,  // measure 47
1000
0100
0100
0100
,  // measure 48
0001
0010
0001
0100
,  // measure 49
0100
0010
1000
0100
,  // measure 50
2000
3001
0100
0100
,  // measure 51
0010
0001
0010
0100
,  // measure 52
0002
0013
0100
0100
,  // measure 53
1000
0100
0010
0100
,  // measure 54
1000
0000
0000
0000
,  // measure 55
0000
0000
0000
0000
,  // measure 56
0001
0000
0000
0000
,  // measure 57
0100
0000
0000
0000
,  // measure 58
1000
0000
2000
0000
,  // measure 59
0000
0000
0000
0000
,  // measure 60
0000
0000
0000
3000
,  // measure 61
0000
0000
0000
0000
,  // measure 62
0100
0000
0200
0000
,  // measure 63
0000
0000
0000
0000
,  // measure 64
0000
0000
0000
0300
,  // measure 65
0000
0000
0000
0000
,  // measure 66
0001
0000
0002
0000
,  // measure 67
0000
0000
0000
0000
,  // measure 68
0000
0000
0000
0003
,  // measure 69
0000
0000
0000
0000
,  // measure 70
0010
0000
0020
0000
,  // measure 71
0000
0000
0000
0000
,  // measure 72
0000
0000
0000
0030
,  // measure 73
0000
0000
0000
0000
,  // measure 74
1000
0100
0100
0100
,  // measure 75
0001
0100
0100
0100
,  // measure 76
1000
0010
1000
0001
,  // measure 77
1000
0100
1000
0001
,  // measure 78
2000
0100
0001
0010
,  // measure 79
0100
0100
0001
0100
,  // measure 80
0010
0001
0100
3010
,  // measure 81
0100
0100
0001
1000
,  // measure 82
0002
0100
1000
0010
,  // measure 83
0100
0100
0010
0100
,  // measure 84
1000
0010
1000
0103
,  // measure 85
0100
0001
0010
0100
,  // measure 86
0100
1001
0010
0100
,  // measure 87
1001
0000
0100
0000
1000
0000
0100
0100
,  // measure 88
0100
0001
0010
0100
,  // measure 89
0001
0000
1000
0000
0010
0000
0100
0100
,  // measure 90
0100
0000
0000
0000
;

//---------------dance-single - ----------------
#NOTEDATA:;
#CHARTNAME:;
#STEPSTYPE:dance-single;
#DESCRIPTION:;
#CHARTSTYLE:;
#DIFFICULTY:Beginner;
#METER:1;
#RADARVALUES:0.064746,0.121761,0.000000,0.000000,0.000000,67.000000,67.000000,0.000000,0.000000,0.000000,0.000000,0.000000,0.000000,0.000000,0.064746,0.121761,0.000000,0.000000,0.000000,67.000000,67.000000,0.000000,0.000000,0.000000,0.000000,0.000000,0.000000,0.000000;
#CREDIT:kater15;
#DISPLAYBPM:150.000000;
#NOTES:
0000
0000
0000
0000
,
0000
0000
0000
0000
,
0000
0000
0000
0000
,
0000
0000
0000
0000
,
1000
0000
0000
0000
,
0000
0000
0000
0000
,
0000
0000
0000
0000
,
0000
0000
0000
0000
,
0100
0000
0000
0000
,
0000
0000
0000
0000
,
0000
0000
0000
0000
,
0000
0000
0000
0000
,
0010
0000
0000
0000
,
0000
0000
0000
0000
,
0000
0000
0000
0000
,
0000
0000
0000
0000
,
0001
0000
0000
0000
,
0000
0000
0000
0000
,
0000
0000
0000
0000
,
0000
0000
0000
0000
,
1000
0000
0000
0000
,
0001
0000
0000
0000
,
1000
0000
0000
0000
,
0001
0000
0000
0000
,
0100
0000
0000
0000
,
0010
0000
0000
0000
,
0100
0000
0000
0000
,
0010
0000
0000
0000
,
1000
0000
0000
0000
,
0100
0000
0000
0000
,
0001
0000
0000
0000
,
0010
0000
0000
0000
,
1000
0000
0001
0000
,
1000
0000
0000
0000
,
0001
0000
1000
0000
,
0001
0000
0000
0000
,
0100
0000
0000
0000
,
0000
0000
0000
0000
,
1000
0000
0000
0000
,
0001
0000
0000
0000
,
0100
0000
0000
0000
,
0010
0000
0000
0000
,
0001
0000
0000
0000
,
1000
0000
0000
0000
,
0100
0000
0000
0000
,
0010
0000
0000
0000
,
1000
0000
1000
0000
,
1000
0000
0000
0000
,
0001
0000
0001
0000
,
0001
0000
0000
0000
,
0100
0000
0100
0000
,
0100
0000
0000
0000
,
0010
0000
0010
0000
,
0010
0000
0000
0000
,
0100
0000
0000
0000
,
0000
0000
0000
0000
,
0000
0000
0000
0000
,
0000
0000
0000
0000
,
1000
0000
0000
0000
,
0000
0000
0000
0000
,
0000
0000
0000
0000
,
0000
0000
0000
0000
,
0100
0000
0000
0000
,
0000
0000
0000
0000
,
0000
0000
0000
0000
,
0000
0000
0000
0000
,
0010
0000
0000
0000
,
0000
0000
0000
0000
,
0000
0000
0000
0000
,
0000
0000
0000
0000
,
0001
0000
0000
0000
,
0000
0000
0000
0000
,
0000
0000
0000
0000
,
0000
0000
0000
0000
,
1000
0000
0000
0000
,
0001
0000
0000
0000
,
1000
0000
0000
0000
,
0001
0000
0000
0000
,
0100
0000
0000
0000
,
0010
0000
0000
0000
,
0100
0000
0000
0000
,
0010
0000
0000
0000
,
1000
0000
0000
0000
,
0100
0000
0000
0000
,
0001
0000
0000
0000
,
0010
0000
0000
0000
,
1000
0000
0001
0000
,
1000
0000
0000
0000
,
0001
0000
1000
0000
,
0001
0000
0000
0000
,
0100
0000
0000
0000
;

//---------------dance-single - ----------------
#NOTEDATA:;
#CHARTNAME:;
#STEPSTYPE:dance-single;
#DESCRIPTION:;
#CHARTSTYLE:;
#DIFFICULTY:Medium;
#METER:5;
#RADARVALUES:0.224194,0.373399,0.162348,0.135290,0.013529,232.000000,208.000000,24.000000,20.000000,0.000000,0.000000,0.000000,0.000000,0.000000,0.224194,0.373399,0.162348,0.135290,0.013529,232.000000,208.000000,24.000000,20.000000,0.000000,0.000000,0.000000,0.000000,0.000000;
#CREDIT:kater15;
#DISPLAYBPM:150.000000;
#NOTES:
// measure 0
0000
0000
0000
0000
,  // measure 1
0000
0000
0000
0000
,  // measure 2
0000
0000
0000
0000
,  // measure 3
0000
0000
0000
0000
,  // measure 4
1000
0000
0100
0000
,  // measure 5
0001
0000
0000
0000
,  // measure 6
0000
0000
0000
0000
,  // measure 7
0000
0000
0000
0000
,  // measure 8
0010
0000
0100
0000
,  // measure 9
1000
0000
0000
0000
,  // measure 10
0000
0000
0000
0000
,  // measure 11
0000
0000
0000
0000
,  // measure 12
0100
0000
0001
0000
,  // measure 13
1000
0000
0000
0000
,  // measure 14
0000
0000
0000
0000
,  // measure 15
0000
0000
0000
0000
,  // measure 16
1000
0000
0100
0000
,  // measure 17
0001
0000
0000
0000
,  // measure 18
0000
0000
0000
0000
,  // measure 19
0000
0000
0000
0000
,  // measure 20
1000
0100
1000
0000
0010
0000
0010
0000
,  // measure 21
0001
0100
0010
0110
,  // measure 22
1000
0100
0010
0000
0100
0000
0001
0000
,  // measure 23
0010
0100
0100
0101
,  // measure 24
0010
0001
0100
0000
0010
0000
0010
0000
,  // measure 25
2000
0100
0001
3010
,  // measure 26
0100
0011
1100
0010
,  // measure 27
0001
0100
0010
0100
,  // measure 28
1000
1000
0001
0000
0010
0000
0100
0000
,  // measure 29
0020
0001
1000
0130
,  // measure 30
1000
1100
0001
0101
,  // measure 31
1000
0010
0100
0100
,  // measure 32
2020
3030
0022
0033
,  // measure 33
0202
0000
0303
0000
1000
0000
0010
0001
,  // measure 34
1000
0000
0100
0000
,  // measure 35
0010
0100
0000
0000
0110
0000
0010
0100
,  // measure 36
0020
0000
0000
0000
,  // measure 37
0000
0000
0000
0000
,  // measure 38
0030
1000
0100
1000
0100
0000
0000
0000
,  // measure 39
0000
0001
0100
0001
0100
0000
0000
0000
,  // measure 40
0120
0000
0000
1000
,  // measure 41
0130
0000
0000
0000
,  // measure 42
0000
1000
0010
1000
0010
0000
0000
0000
,  // measure 43
0000
0001
0010
0001
0010
0000
0000
0000
,  // measure 44
0210
0000
0000
0001
,  // measure 45
0310
0000
0000
0000
,  // measure 46
1000
0000
1000
0001
0000
0000
0000
0000
,  // measure 47
0000
0000
1000
0000
0000
0000
1000
0000
0001
0000
0000
0001
0000
0000
0001
0000
,  // measure 48
0100
0000
0100
0010
0000
0000
0000
0000
,  // measure 49
0000
0000
0001
0000
0000
0000
0001
0000
1000
0000
0000
1000
0000
0000
1000
0000
,  // measure 50
0010
0110
0000
0000
,  // measure 51
0000
0000
1000
0000
0000
0000
1000
0000
0100
0000
0000
0001
0000
0000
0010
0000
,  // measure 52
1000
1001
0000
0000
,  // measure 53
0000
0000
1000
0000
0000
0000
1000
0000
0100
0000
0000
0010
0000
0000
0010
0000
,  // measure 54
0000
0000
0000
0000
,  // measure 55
0000
0000
0000
0000
,  // measure 56
0000
0000
0000
0000
,  // measure 57
0000
0000
0000
0000
,  // measure 58
1000
0000
0100
0000
,  // measure 59
0001
0000
0000
0000
,  // measure 60
0000
0000
0000
0000
,  // measure 61
0000
0000
0000
0000
,  // measure 62
0010
0000
0100
0000
,  // measure 63
1000
0000
0000
0000
,  // measure 64
0000
0000
0000
0000
,  // measure 65
0000
0000
0000
0000
,  // measure 66
0100
0000
0001
0000
,  // measure 67
1000
0000
0000
0000
,  // measure 68
0000
0000
0000
0000
,  // measure 69
0000
0000
0000
0000
,  // measure 70
1000
0000
0100
0000
,  // measure 71
0001
0000
0000
0000
,  // measure 72
0000
0000
0000
0000
,  // measure 73
0000
0000
0000
0000
,  // measure 74
1000
0100
1000
0000
0010
0000
0010
0000
,  // measure 75
0001
0100
0010
0110
,  // measure 76
1000
0100
0010
0000
0100
0000
0001
0000
,  // measure 77
0010
0100
0100
0101
,  // measure 78
0010
0001
0100
0000
0010
0000
0010
0000
,  // measure 79
2000
0100
0001
3010
,  // measure 80
0100
0011
1100
0010
,  // measure 81
0001
0100
0010
0100
,  // measure 82
1000
1000
0001
0000
0010
0000
0100
0000
,  // measure 83
0020
0001
1000
0130
,  // measure 84
1000
1100
0001
0101
,  // measure 85
1000
0010
0100
0100
,  // measure 86
2020
3030
0022
0033
,  // measure 87
0202
0000
0303
0000
1000
0000
0010
0001
,  // measure 88
1000
0000
0100
0000
,  // measure 89
0010
0100
0000
0000
0110
0000
0010
0100
,  // measure 90
0020
0000
0000
0000
,  // measure 91
0000
0000
0000
0000
,  // measure 92
0030
0000
0000
0000
;

//---------------dance-single - ----------------
#NOTEDATA:;
#CHARTNAME:;
#STEPSTYPE:dance-single;
#DESCRIPTION:;
#CHARTSTYLE:;
#DIFFICULTY:Hard;
#METER:8;
#RADARVALUES:0.347888,0.497866,0.196170,0.067645,0.057498,360.000000,331.000000,29.000000,10.000000,0.000000,0.000000,0.000000,0.000000,0.000000,0.347888,0.497866,0.196170,0.067645,0.057498,360.000000,331.000000,29.000000,10.000000,0.000000,0.000000,0.000000,0.000000,0.000000;
#CREDIT:kater15;
#OFFSET:-0.334000;
#BPMS:0.000000=150.220001
;
#STOPS:;
#DELAYS:;
#WARPS:;
#TIMESIGNATURES:0.000000=4=4
;
#TICKCOUNTS:0.000000=4
;
#COMBOS:0.000000=1
;
#SPEEDS:0.000000=1.000000=0.000000=0
;
#SCROLLS:0.000000=1.000000
;
#FAKES:;
#LABELS:0.000000=Song Start
;
#DISPLAYBPM:150.000000;
#NOTES:
// measure 0
0000
0000
0000
0000
,  // measure 1
0000
0000
0000
0000
,  // measure 2
0000
0000
0000
0000
,  // measure 3
0000
0000
0000
0000
,  // measure 4
1100
0000
0001
0000
,  // measure 5
0101
0000
0000
0000
,  // measure 6
0000
0000
0000
0000
,  // measure 7
0000
0000
0000
0000
,  // measure 8
0010
0000
0110
0000
,  // measure 9
0100
0000
0000
0000
,  // measure 10
0000
0000
0000
0000
,  // measure 11
0000
0000
0000
0000
,  // measure 12
1001
0000
0001
0000
,  // measure 13
0011
0000
0000
0000
,  // measure 14
0000
0000
0000
0000
,  // measure 15
0000
0000
0000
0000
,  // measure 16
1010
0000
0010
0000
,  // measure 17
0110
0000
0000
0000
,  // measure 18
0000
0000
0000
0000
,  // measure 19
0000
0000
0000
0000
,  // measure 20
1000
0100
1000
0100
0001
0010
0100
0000
,  // measure 21
0001
1000
0001
0010
0100
0010
0010
0000
,  // measure 22
0100
0001
0010
0001
0100
0010
1000
0000
,  // measure 23
0100
0100
0001
0010
0001
0100
0001
0000
,  // measure 24
1000
0100
0010
0100
0002
0010
0103
0000
,  // measure 25
1000
1000
0010
0001
0020
1000
0130
0000
,  // measure 26
1000
0100
0100
1000
0010
0100
0010
0000
,  // measure 27
0001
1000
0100
0010
0100
0001
0010
0100
,  // measure 28
0100
1000
0001
1000
0200
1000
0301
0000
,  // measure 29
0010
0001
0100
0010
0002
1000
0103
0000
,  // measure 30
0001
0010
0100
0100
0010
0001
1000
0000
,  // measure 31
0100
0010
1000
0100
0010
0001
0100
0010
,  // measure 32
1000
0001
0000
0000
1100
0000
0000
0000
,  // measure 33
0100
0000
0101
0000
0000
0000
0000
0000
1000
0000
0000
0000
0010
1000
0010
1000
,  // measure 34
0010
0000
0110
0000
,  // measure 35
0001
0000
1001
0000
0000
0000
0000
0000
0010
0000
0000
0000
0001
0010
0001
0010
,  // measure 36
0002
0000
0000
0000
,  // measure 37
0000
0000
0000
0000
,  // measure 38
1003
0100
0010
0001
0100
0000
1100
0000
,  // measure 39
0001
0000
0010
0000
0001
0000
1000
0000
0100
0000
0000
0000
0010
0000
1000
0100
,  // measure 40
0001
0000
0000
1100
,  // measure 41
0101
0000
0000
0000
,  // measure 42
0010
1000
0100
0010
0001
0000
0011
0000
,  // measure 43
0100
0000
1000
0000
0010
0000
0100
0000
0001
0000
0000
0000
0100
0000
0001
0100
,  // measure 44
1000
0000
0000
0011
,  // measure 45
1010
0000
0000
0000
,  // measure 46
1000
0100
0001
0100
0000
0010
0010
0100
,  // measure 47
0000
0000
1000
0000
0100
0000
1000
0000
1000
0000
0000
1000
0000
0000
0100
0000
,  // measure 48
0010
0100
0001
1000
0000
0010
0001
1000
,  // measure 49
0000
0000
0100
0000
0001
0000
0010
0000
0001
0000
0000
0100
0000
0000
0010
0000
,  // measure 50
0100
0000
1100
0000
0010
0001
0100
0000
,  // measure 51
0010
0000
0001
0000
0100
0000
0100
0000
0010
0000
0000
0010
0000
0000
0100
0000
,  // measure 52
0010
1000
1000
0000
0010
0001
0100
0000
,  // measure 53
1000
0000
0100
0000
0010
0000
0010
0000
0100
0000
0000
0001
0000
0000
1000
0000
,  // measure 54
0100
0000
0000
0000
,  // measure 55
0000
0000
0000
0000
0000
0000
0000
0000
0000
0000
0000
0000
0000
0000
0100
1000
,  // measure 56
0001
0000
0000
0000
0000
0000
0000
0000
0000
0000
0000
0000
0000
0000
1000
0001
,  // measure 57
1000
0000
0000
0000
0000
0000
0100
0010
0100
0000
0000
0000
0000
0000
0000
0000
,  // measure 58
1100
0000
0001
0000
,  // measure 59
0101
0000
0000
0000
,  // measure 60
0000
0000
0000
0000
,  // measure 61
0000
0000
0000
0000
,  // measure 62
0010
0000
0110
0000
,  // measure 63
0100
0000
0000
0000
,  // measure 64
0000
0000
0000
0000
,  // measure 65
0000
0000
0000
0000
,  // measure 66
1001
0000
0001
0000
,  // measure 67
0011
0000
0000
0000
,  // measure 68
0000
0000
0000
0000
,  // measure 69
0000
0000
0000
0000
,  // measure 70
1010
0000
0010
0000
,  // measure 71
0110
0000
0000
0000
,  // measure 72
0000
0000
0000
0000
,  // measure 73
0000
0000
0000
0000
,  // measure 74
1000
0100
1000
0100
0001
0010
0100
0000
,  // measure 75
0001
1000
0001
0010
0100
0010
0010
0000
,  // measure 76
0100
0001
0010
0001
0100
0010
1000
0000
,  // measure 77
0100
0100
0001
0010
0001
0100
0001
0000
,  // measure 78
1000
0100
0010
0100
0002
0010
0103
0000
,  // measure 79
1000
1000
0010
0001
0020
1000
0130
0000
,  // measure 80
1000
0100
0100
1000
0010
0100
0010
0000
,  // measure 81
0001
1000
0100
0010
0100
0001
0010
0100
,  // measure 82
0100
1000
0001
1000
0200
1000
0301
0000
,  // measure 83
0010
0001
0100
0010
0002
1000
0103
0000
,  // measure 84
0001
0010
0100
0100
0010
0001
1000
0000
,  // measure 85
0100
0010
1000
0100
0010
0001
0100
0010
,  // measure 86
1000
0001
0000
0000
1100
0000
0000
0000
,  // measure 87
0100
0000
0101
0000
0000
0000
0000
0000
1000
0000
0000
0000
0010
1000
0010
1000
,  // measure 88
0010
0000
0110
0000
,  // measure 89
0001
0000
1001
0000
0000
0000
0000
0000
0010
0000
0000
0000
0001
0010
0001
0010
,  // measure 90
0002
0000
0000
0000
,  // measure 91
0000
0000
0000
0000
,  // measure 92
0003
0000
0000
0000
;
