#TITLE:Festa no Ape;
#SUBTITLE:;
#ARTIST:Latino;
#TITLETRANSLIT:;
#SUBTITLETRANSLIT:;
#ARTISTTRANSLIT:;
#GENRE:;
#CREDIT:;
#BANNER:Festa no Apê.png;
#BACKGROUND:Festa no Apê-bg.png;
#LYRICSPATH:;
#CDTITLE:;
#MUSIC:Festa no Apê.mp3;
#OFFSET:0.231000;
#SAMPLESTART:17.200001;
#SAMPLELENGTH:15.000000;
#SELECTABLE:YES;
#DISPLAYBPM:130.000000;
#BPMS:0.000000=130.039993
,196.000000=135.039993
,199.000000=130.039993
;
#STOPS:
;
#BGCHANGES:;
#KEYSOUNDS:;
#ATTACKS:;

//---------------dance-single - ----------------
#NOTES:
     dance-single:
     :
     Hard:
     11:
     0.374729,0.482374,0.235407,0.277444,0.016815,312.000000,284.000000,28.000000,33.000000,0.000000,0.000000,0.374729,0.482374,0.235407,0.277444,0.016815,312.000000,284.000000,28.000000,33.000000,0.000000,0.000000:
0000
0000
0000
0000
,
0000
0000
0000
0000
,
0000
0000
0000
0000
,
0000
0000
0000
0000
,
0000
0000
0000
0000
0000
1000
0100
0010
,
0001
0000
0001
0000
1000
0100
0000
0010
,
0000
0010
0000
1001
0000
0100
0010
1000
,
0100
0000
0100
0001
0000
0001
0010
1000
,
0100
0001
0100
1000
0010
0001
0010
0100
,
2000
0000
0000
0000
0001
0000
3001
0010
,
0000
0010
0100
0000
1000
0100
0010
0001
,
0200
0000
0000
0000
0301
0001
0010
0100
,
2000
0000
0000
0000
3010
0010
0001
0100
,
0010
1000
0100
0000
0001
0000
0001
1000
,
0000
1000
0001
0000
0001
0010
0100
1000
,
0020
0000
0000
0000
0031
0000
0001
2000
,
0000
0000
0010
0010
0000
0000
0001
3001
,
0000
0000
1001
0100
1000
0000
1001
0100
,
1000
0000
1001
0100
1000
0000
1001
0100
,
1000
0000
0110
1000
0100
0000
0110
1000
,
0100
0000
0110
1000
0100
0000
0110
1000
,
0200
0001
0001
0301
,
0010
0100
0001
0010
0100
0000
0010
0100
,
0001
0010
0100
0000
1000
0001
0100
1000
,
0001
0000
1000
0001
0100
1000
0001
0000
,
0010
0010
1000
0100
0010
0001
0100
0000
,
0220
0000
0330
0000
0010
0100
0001
0000
,
2002
0000
3003
0000
1000
0100
0001
0000
,
2020
0000
0000
3030
,
0100
0010
0001
0100
0010
1000
0100
0000
,
2002
0000
3003
0000
1000
0100
0001
0010
,
0000
0100
0001
0100
0000
1000
0010
0001
,
0000
0100
1000
0000
0000
0100
1000
0000
0000
0100
1000
0000
0000
0100
1000
0000
,
0001
0100
0010
1000
0001
0100
0010
0100
,
2002
0000
3003
0000
0010
0100
0010
0000
,
0202
0000
0303
0000
0010
0100
1000
0001
,
0000
0010
0100
0010
0000
1000
0001
2000
,
0000
3001
0000
0010
0100
0010
0000
2002
,
0000
0000
0000
3003
,
1001
0100
0010
0001
1100
0001
1000
0100
,
0020
1000
0000
0001
,
0000
1000
0000
0031
,
1001
0010
0100
0000
1000
0100
0010
0001
,
0200
0000
0000
0000
0301
0001
0010
0100
,
2000
0000
0000
0000
3010
0010
0001
0100
,
0010
1000
0100
0000
0001
0000
0001
1000
,
0000
1000
0001
0000
0001
0010
0100
1000
,
0020
0000
0000
0000
0031
0000
0001
2000
,
0000
0000
0010
0010
0000
0000
0001
0001
,
0000
0100
3000
0000
1000
0000
1000
0001
,
0000
0001
1000
0000
1000
0100
0010
0001
,
0200
0000
0000
0000
0301
0001
0010
0100
,
2000
0000
0000
0000
3010
0010
0001
0100
,
0010
1000
0100
0000
0001
0000
0001
1000
,
0000
1000
0001
0000
0001
0010
0100
1000
,
0020
0000
0000
0000
0031
0000
0001
2000
,
0000
0000
0010
0010
0000
0000
0001
0001
,
0000
0200
0000
0000
0000
0000
3300
0000
,
0000
0101
0000
1100
,
0000
1010
0000
0011
,
0000
0110
0000
0101
,
0000
1001
0000
0110
,
0000
2002
0000
0000
,
0000
0000
0000
3003
;

//---------------dance-single - ----------------
#NOTES:
     dance-single:
     :
     Medium:
     8:
     0.313475,0.348381,0.235407,0.353110,0.000000,261.000000,233.000000,28.000000,42.000000,0.000000,0.000000,0.313475,0.348381,0.235407,0.353110,0.000000,261.000000,233.000000,28.000000,42.000000,0.000000,0.000000:
0000
0000
0000
0000
,
0000
0000
0000
0000
,
0000
0000
0000
0000
,
0000
0000
0000
0000
,
0000
0000
0000
0000
,
0100
0000
0100
0000
1000
0100
0000
0001
,
0000
0110
0000
1000
0000
0100
0000
1000
,
1000
0000
0001
0001
0000
0000
0010
0000
,
1000
0000
0100
0000
0010
0000
0001
0100
,
2000
0000
0001
3001
,
0100
0010
0100
0000
1001
0000
0010
0100
,
0020
0000
0030
0000
0110
0000
1000
0100
,
2000
0000
3000
0000
0110
0000
0001
1000
,
0002
0000
1000
1003
,
0010
0100
0010
0000
1001
0000
0100
0010
,
0200
0000
0300
0000
0011
0000
1000
1000
,
1000
0000
0010
0010
0010
0000
0001
0001
,
0001
2002
3003
0220
,
0330
2200
3300
0202
,
0303
0022
0033
2020
,
3030
0220
0330
2001
,
0100
0001
0100
3001
,
0010
0100
0001
0000
1000
0000
0100
0000
,
0001
0010
0100
0000
1000
0000
0001
0000
,
0001
0010
1000
0000
0010
0100
1000
0000
,
0100
0100
1000
0000
1000
0001
0010
0000
,
0200
0301
0000
0001
,
2000
3100
0000
0001
,
0020
0000
0100
0030
,
1000
0001
0100
1000
0010
0000
0001
0000
,
0200
0300
1000
0001
,
1000
0100
0001
0000
1000
0010
0002
0000
,
0000
0010
0000
0010
0000
0010
0000
0013
,
1000
0100
0010
0000
0001
0100
0010
0000
,
2000
0000
3100
0000
0010
0100
0010
0000
,
0002
1003
0010
1000
,
1000
0010
0100
0000
0010
1000
0001
0000
,
0100
0010
0100
2002
,
0000
0000
0000
3003
,
1001
0010
1001
0010
,
0100
0010
0100
0000
0001
1000
0001
0000
,
2000
0000
0001
3001
,
0100
0010
0100
0000
1001
0000
0010
0100
,
0020
0000
0030
0000
0110
0000
1000
0100
,
2000
0000
3000
0000
0110
0000
0001
1000
,
0002
0000
1000
1003
,
0010
0100
0010
0000
1001
0000
0100
0010
,
0200
0000
0300
0000
0011
0000
1000
1000
,
1000
0000
0010
0010
0010
0000
0001
0001
,
0002
0000
1000
1003
,
0010
0100
0010
0000
1001
0000
0100
0010
,
0200
0000
0300
0000
0110
0000
0001
0010
,
0002
0000
0003
0000
0110
0000
1000
0001
,
2000
0000
0001
3001
,
0100
0010
0100
0000
1001
0000
0010
0100
,
0020
0000
0030
0000
1100
0000
0001
0001
,
0001
0000
0100
0100
0100
0000
1000
1000
,
2000
0000
0000
3000
,
0000
0001
0000
1000
,
0000
0010
0000
0001
,
0000
0100
0000
0001
,
0000
1000
0000
0010
,
0000
2002
0000
0000
,
0000
0000
0000
3003
;

//---------------dance-single - ----------------
#NOTES:
     dance-single:
     :
     Easy:
     4:
     0.159740,0.214388,0.100889,0.311073,0.000000,133.000000,121.000000,12.000000,37.000000,0.000000,0.000000,0.159740,0.214388,0.100889,0.311073,0.000000,133.000000,121.000000,12.000000,37.000000,0.000000,0.000000:
0000
0000
0000
0000
,
0000
0000
0000
0000
,
0000
0000
0000
0000
,
0000
0000
0000
0000
,
0000
0000
0000
0000
,
1000
0000
1000
0000
,
0001
0000
0100
0000
,
0010
0000
1000
0000
,
0010
0001
0100
1000
,
0220
0000
0000
0330
,
0000
0100
0100
1001
,
0020
0030
0000
0100
,
0002
0003
0000
0010
,
2000
0000
0000
3000
,
0000
0010
0010
1001
,
0200
0300
0100
0000
,
0010
0000
0100
0000
,
0002
0003
2000
3000
,
0002
0003
2000
3000
,
0002
0003
2000
3000
,
0002
0003
2000
3000
,
0010
0010
0010
0010
,
1000
0000
0001
0000
,
1000
0000
0100
0000
,
1000
0000
0010
1000
,
0100
0000
0000
0000
,
0100
0001
0010
0000
,
1000
0100
0010
0000
,
0020
0000
0000
0030
,
1000
0100
0010
0001
,
0200
0300
0000
1000
,
0100
0010
0001
0100
,
0020
0000
0000
0030
,
0100
0100
0001
0000
,
1000
1000
0010
0000
,
0002
0000
0000
0003
,
2000
0000
0000
3000
,
0000
0100
0100
2002
,
0000
0000
0000
3003
,
0100
0000
0010
0000
,
1000
0000
0001
0000
,
0220
0000
0000
0330
,
0000
0100
0100
1001
,
0020
0030
0000
0100
,
0002
0003
0000
0010
,
2000
0000
0000
3000
,
0000
0010
0010
1001
,
0200
0300
0100
0000
,
0010
0000
0100
0000
,
0220
0000
0000
0330
,
0000
0100
0100
1001
,
0020
0030
0000
0100
,
0002
0003
0000
0010
,
2000
0000
0000
3000
,
0000
0010
0010
1001
,
0200
0300
0100
0000
,
0010
0000
0100
0000
,
0220
0000
0000
0330
,
0001
0000
1000
0000
,
0010
0000
0001
0000
,
0100
0000
0010
0000
,
1000
0000
0100
0000
,
2002
0000
0000
0000
,
0000
0000
0000
3003
;

//---------------dance-single - ----------------
#NOTES:
     dance-single:
     :
     Beginner:
     2:
     0.092481,0.187590,0.016815,0.269036,0.000000,77.000000,75.000000,2.000000,32.000000,0.000000,0.000000,0.092481,0.187590,0.016815,0.269036,0.000000,77.000000,75.000000,2.000000,32.000000,0.000000,0.000000:
0000
0000
0000
0000
,
0000
0000
0000
0000
,
0000
0000
0000
0000
,
0000
0000
0000
0000
,
0000
0000
0000
0000
,
2000
0000
3000
0000
,
0002
0000
0003
0000
,
0020
0000
0030
0000
,
0000
0000
0000
0000
,
2000
0000
0000
3000
,
1000
0000
0001
0000
,
0200
0000
0300
0000
,
0020
0000
0030
0000
,
2000
0000
0000
3000
,
1000
0000
0001
0000
,
0200
0000
0300
0000
,
0010
0000
0100
0000
,
1000
0000
0000
0000
,
0001
0000
0000
0000
,
1000
0000
0000
0000
,
0001
0000
0000
0000
,
0100
0100
0100
0100
,
0100
0000
0001
0000
,
1000
0000
0000
0000
,
0010
0000
0001
0000
,
1000
0000
0000
0000
,
0200
0000
0300
0000
,
2000
0000
3000
0000
,
0020
0000
0000
0030
,
0010
0000
0010
0000
,
0002
0000
0003
0000
,
0100
0000
0001
0000
,
0020
0000
0000
0030
,
0010
0000
0000
0000
,
2000
0000
3000
0000
,
0002
0000
0003
0000
,
0010
0000
1000
0000
,
0100
0000
2002
0000
,
0000
0000
3003
0000
,
0001
0000
0100
0000
,
0020
0000
0030
0000
,
2000
0000
0000
3000
,
1000
0000
0001
0000
,
0200
0000
0300
0000
,
0020
0000
0030
0000
,
2000
0000
0000
3000
,
1000
0000
0001
0000
,
0200
0000
0300
0000
,
0010
0000
0100
0000
,
2000
0000
0000
3000
,
1000
0000
0001
0000
,
0200
0000
0300
0000
,
0020
0000
0030
0000
,
2000
0000
0000
3000
,
1000
0000
0001
0000
,
0200
0000
0300
0000
,
0010
0000
0100
0000
,
1000
0000
0000
0000
,
2000
0000
0000
3000
,
1000
0000
0000
0000
,
0002
0000
0000
0003
,
0001
0000
0000
0000
,
0220
0000
0000
0000
,
0000
0000
0000
0330
;

//---------------dance-single - ----------------
#NOTES:
     dance-single:
     :
     Challenge:
     14:
     0.539274,0.616367,0.210185,0.277444,0.340499,449.000000,424.000000,25.000000,33.000000,0.000000,0.000000,0.539274,0.616367,0.210185,0.277444,0.340499,449.000000,424.000000,25.000000,33.000000,0.000000,0.000000:
// measure 0
0000
0000
0000
0000
,  // measure 1
0000
0000
0000
0000
,  // measure 2
0000
0000
0000
0000
,  // measure 3
0000
0000
0000
0000
,  // measure 4
0000
0000
0000
0000
0000
0000
0000
0000
0000
0000
0001
0000
1000
0000
0100
0001
,  // measure 5
0010
0000
0100
0000
0001
0000
0010
0000
1000
0000
0100
0000
0000
1000
0001
0000
,  // measure 6
0000
0010
0100
0000
0000
0010
0001
0000
0000
1000
0001
0000
0010
0000
0100
0001
,  // measure 7
1000
0000
0000
0000
0010
1000
0100
0000
0000
0000
0001
1000
0010
0000
1010
0000
,  // measure 8
0100
0010
0001
1100
0010
0001
1000
0110
,  // measure 9
2000
0000
0000
0000
0001
0001
3001
0010
,  // measure 10
0000
0000
1000
0100
0001
0000
0000
0000
0100
0000
0010
0001
1000
0000
0010
1000
,  // measure 11
0002
0000
0000
0000
0000
0000
0000
0000
1003
0000
1000
0100
0001
0000
0010
0100
,  // measure 12
2000
0000
0000
0000
0000
0000
0000
0000
3010
0000
1000
0100
1000
0000
0010
0001
,  // measure 13
0010
0000
1000
0001
0200
0000
0000
0000
0001
0000
0001
0000
0301
0000
0010
0000
,  // measure 14
0000
0000
1000
0100
0001
0000
0000
0000
0100
0000
0010
0001
1000
0000
0010
1000
,  // measure 15
0002
0000
0000
0000
0013
0100
0001
2000
,  // measure 16
0100
0001
0010
3020
0100
1000
0001
0031
,  // measure 17
0000
0000
0010
1000
0100
0000
0001
0000
1000
0000
0010
1000
0100
0000
0001
0000
,  // measure 18
1000
0000
0010
1000
0100
0000
0001
0000
1000
0000
0010
1000
0100
0000
0001
0000
,  // measure 19
1000
0000
1000
0010
0001
0000
0100
0000
0010
0000
1000
0010
0001
0000
0100
0000
,  // measure 20
0010
0000
1000
0010
0001
0000
0100
0000
0010
0000
1000
0010
0001
0000
0100
0000
,  // measure 21
0010
0000
0000
1000
0001
0000
0000
1000
0001
0000
0000
1000
0001
0000
0000
1000
,  // measure 22
0100
0000
0001
0000
0010
0000
0100
0000
0001
1000
0001
0000
1000
0000
0100
0000
,  // measure 23
0010
0000
0001
0000
0100
0000
0010
0001
1000
0000
0001
0000
0001
0000
1000
0000
,  // measure 24
0010
0001
0100
0000
1000
0000
0001
0000
0010
0000
0100
0000
0001
1000
0100
0000
,  // measure 25
0010
0000
0001
0000
1000
0000
0100
0000
0001
0000
0010
0000
1000
0000
0001
0010
,  // measure 26
0200
0000
0000
0000
0300
0000
0000
0000
1000
0000
0010
0000
0100
0000
1000
0100
,  // measure 27
0002
0000
0000
0000
0003
0000
0000
0000
0100
0000
0100
0000
0010
0000
1000
0001
,  // measure 28
0200
0000
0000
0300
,  // measure 29
0001
0000
0100
1000
0010
0000
1000
0001
0100
0000
0010
0000
1000
0000
0010
0100
,  // measure 30
0002
0000
0000
0000
0003
0000
0000
0000
1000
0000
0010
0100
0010
0100
0010
0000
,  // measure 31
0000
0000
0001
1000
0001
1000
0001
0000
0000
0000
0100
0000
0100
0000
0100
0000
,  // measure 32
0010
0100
1000
0000
0010
0100
1000
0000
0010
0100
1000
0000
0010
0100
1000
0000
,  // measure 33
0001
0000
0001
0000
1000
0000
0100
0000
0101
0000
0010
0000
0100
0000
1000
0001
,  // measure 34
0020
0000
0000
0000
0030
0000
0000
0000
1000
0000
0001
0000
0010
0000
1000
0100
,  // measure 35
0002
0000
0003
0000
1000
0100
0010
0001
,  // measure 36
0000
0000
0010
1000
0010
1000
0010
0000
0000
0000
1000
0001
1000
0001
2000
0000
,  // measure 37
0000
0000
3001
0000
0000
0000
0010
0100
0010
0100
0010
0000
0000
0000
2002
0000
,  // measure 38
0000
0000
0000
3003
,  // measure 39
1001
0000
0100
1000
0010
0000
0001
0000
0110
0000
0001
0100
1000
0000
0010
0000
,  // measure 40
0200
0000
1000
1000
0000
0000
0001
0001
,  // measure 41
0000
1000
1000
0000
0001
0001
0301
0010
,  // measure 42
0000
0000
1000
0100
0001
0000
0000
0000
0100
0000
0010
0001
1000
0000
0010
1000
,  // measure 43
0002
0000
0000
0000
0000
0000
0000
0000
1003
0000
1000
0100
0001
0000
0010
0100
,  // measure 44
2000
0000
0000
0000
0000
0000
0000
0000
3010
0000
1000
0100
1000
0000
0010
0001
,  // measure 45
0010
0000
1000
0001
0200
0000
0000
0000
0001
0000
0001
0000
0301
0000
0010
0000
,  // measure 46
0000
0000
1000
0100
0001
0000
0000
0000
0100
0000
0010
0001
1000
0000
0010
1000
,  // measure 47
0002
0000
0000
0000
0013
0100
0001
2000
,  // measure 48
0100
0001
0010
3020
0100
1000
0001
0031
,  // measure 49
0100
2000
0000
0000
0001
0001
3001
0010
,  // measure 50
0000
0000
1000
0100
0001
0000
0000
0000
0100
0000
0010
0001
1000
0000
0010
1000
,  // measure 51
0002
0000
0000
0000
0000
0000
0000
0000
1003
0000
1000
0100
0001
0000
0010
0100
,  // measure 52
2000
0000
0000
0000
0000
0000
0000
0000
3010
0000
1000
0100
1000
0000
0010
0001
,  // measure 53
0010
0000
1000
0001
0200
0000
0000
0000
0001
0000
0001
0000
0301
0000
0010
0000
,  // measure 54
0000
0000
1000
0100
0001
0000
0000
0000
0100
0000
0010
0001
1000
0000
0010
1000
,  // measure 55
0002
0000
0000
0000
0013
0100
0001
2000
,  // measure 56
0100
0001
0010
3020
0100
1000
0001
0031
,  // measure 57
0100
2000
0000
0000
0001
0001
3001
0010
,  // measure 58
1100
0101
1100
0101
,  // measure 59
1010
0110
0101
1001
,  // measure 60
1010
0110
1100
0101
,  // measure 61
0110
1001
1100
0110
,  // measure 62
0101
2002
0000
0000
,  // measure 63
0000
0000
0000
3003
;
