#VERSION:0.83;
#TITLE:Feeling;
#SUBTITLE:;
#ARTIST:Bisbetic ft. Angelika Vee;
#TITLETRANSLIT:;
#SUBTITLETRANSLIT:;
#ARTISTTRANSLIT:;
#GENRE:;
#ORIGIN:;
#CREDIT:;
#BANNER:Feeling.png;
#BACKGROUND:Feeling-bg.png;
#PREVIEWVID:;
#JACKET:Feeling-jacket.png;
#CDIMAGE:;
#DISCIMAGE:;
#LYRICSPATH:;
#CDTITLE:;
#MUSIC:Feeling.ogg;
#OFFSET:0.198000;
#SAMPLESTART:59.787998;
#SAMPLELENGTH:22.483999;
#SELECTABLE:YES;
#DISPLAYBPM:128.000000;
#BPMS:0.000=128.030,
128.000=127.850,
160.000=128.030;
#STOPS:;
#DELAYS:;
#WARPS:;
#TIMESIGNATURES:0.000=4=4;
#TICKCOUNTS:0.000=4;
#COMBOS:0.000=1;
#SPEEDS:0.000=1.000=0.000=0;
#SCROLLS:0.000=1.000;
#FAKES:;
#LABELS:0.000=Song Start;
#BGCHANGES:;
#KEYSOUNDS:;
#ATTACKS:
;

//---------------dance-single - ----------------
#NOTEDATA:;
#CHARTNAME:;
#STEPSTYPE:dance-single;
#DESCRIPTION:;
#CHARTSTYLE:;
#DIFFICULTY:Easy;
#METER:4;
#RADARVALUES:0.144946,0.233252,0.026468,0.052937,0.000000,115.000000,112.000000,3.000000,6.000000,0.000000,0.000000,0.000000,0.000000,0.000000,0.144946,0.233252,0.026468,0.052937,0.000000,115.000000,112.000000,3.000000,6.000000,0.000000,0.000000,0.000000,0.000000,0.000000;
#CREDIT:kater15;
#DISPLAYBPM:128.000000;
#NOTES:
0000
0000
0000
0000
,
0000
0000
0000
0000
,
0000
0000
0000
0000
,
0000
0000
0000
0000
,
0000
0000
0000
0000
,
0000
0000
0000
0000
,
0000
0000
0000
0000
,
0000
0000
0000
0000
,
1001
0000
0000
0000
,
0001
0000
0000
0000
,
1000
0000
0000
0000
,
0100
0000
0001
0000
,
0110
0000
0000
0000
,
1000
0000
0000
0000
,
0100
0000
0000
0000
,
0001
0000
0100
0000
,
1000
0100
0010
1000
,
0100
0100
0001
0010
,
1000
0000
0000
0000
,
0001
0000
1000
0000
,
0100
0001
1000
0100
,
0001
0001
0010
1000
,
0100
0000
0000
0000
,
0010
0000
0100
0000
,
0002
0000
0003
0000
,
2000
0000
3000
0000
,
0100
0000
0000
0000
,
0001
0000
0010
0000
,
2000
0000
3000
0000
,
0002
0000
0003
0000
,
0010
0000
0000
0000
,
1000
0000
0100
0000
,
0001
0000
0001
0000
,
0001
0000
0001
0000
,
1000
0000
0001
0000
,
1000
0000
0001
0000
,
0100
0100
0100
0000
,
0010
0010
0010
0000
,
0001
0001
0001
0000
,
1000
1000
1000
0010
,
0100
0001
0010
0000
,
0100
1000
0010
0000
,
0100
0010
0001
0000
,
1000
0001
0000
0100
,
0010
1000
0100
0000
,
0010
0001
0100
0000
,
0010
0100
1000
0000
,
0001
1000
0000
0010
,
0001
0010
1000
0000
,
0001
0100
1000
0000
,
0001
1000
0010
0000
,
0100
0010
0000
0001
,
1000
0100
0001
0000
,
1000
0010
0001
0000
,
1000
0001
0100
0000
,
0010
0100
0000
1000
,
0220
0000
0000
0000
,
0000
0000
0000
0000
,
0000
0000
0000
0330
;

//---------------dance-single - ----------------
#NOTEDATA:;
#CHARTNAME:;
#STEPSTYPE:dance-single;
#DESCRIPTION:;
#CHARTSTYLE:;
#DIFFICULTY:Beginner;
#METER:1;
#RADARVALUES:0.079405,0.129585,0.017646,0.044114,0.000000,63.000000,61.000000,2.000000,5.000000,0.000000,0.000000,0.000000,0.000000,0.000000,0.079405,0.129585,0.017646,0.044114,0.000000,63.000000,61.000000,2.000000,5.000000,0.000000,0.000000,0.000000,0.000000,0.000000;
#CREDIT:kater15;
#DISPLAYBPM:128.000000;
#NOTES:
0000
0000
0000
0000
,
0000
0000
0000
0000
,
0000
0000
0000
0000
,
0000
0000
0000
0000
,
0000
0000
0000
0000
,
0000
0000
0000
0000
,
0000
0000
0000
0000
,
0000
0000
0000
0000
,
2000
0000
0000
0000
,
3000
0000
0000
0000
,
0002
0000
0000
0000
,
0003
0000
0001
0000
,
0020
0000
0000
0000
,
0030
0000
0000
0000
,
0200
0000
0000
0000
,
0300
0000
0100
0000
,
1000
0000
0001
0000
,
1000
0000
0000
0000
,
0001
0000
1000
0000
,
0001
0000
0000
0000
,
0100
0000
0010
0000
,
0100
0000
0000
0000
,
0010
0000
0100
0000
,
0010
0000
0000
0000
,
1000
0000
0000
0000
,
1001
0000
0000
0000
,
0001
0000
0000
0000
,
0001
0000
1000
0000
,
0100
0000
0000
0000
,
0110
0000
0000
0000
,
0010
0000
0000
0000
,
0010
0000
0100
0000
,
0001
0000
0000
0000
,
0001
0000
0000
0000
,
1000
0000
0000
0000
,
1000
0000
0000
0000
,
0001
0000
0001
0000
,
1000
0000
1000
0000
,
0001
0000
0001
0000
,
1000
0000
1000
0000
,
0100
0000
0000
0000
,
0010
0000
0000
0000
,
0100
0000
0000
0000
,
0001
0000
1000
0000
,
0001
0000
0000
0000
,
1000
0000
0000
0000
,
0001
0000
0000
0000
,
0010
0000
0100
0000
,
0010
0000
0000
0000
,
0100
0000
0000
0000
,
0010
0000
0000
0000
,
1000
0000
0001
0000
,
1000
0000
0000
0000
,
0001
0000
0000
0000
,
1000
0000
0000
0000
,
0100
0000
0010
0000
,
0200
0000
0000
0000
,
0000
0000
0000
0000
,
0000
0000
0000
0300
;

//---------------dance-single - ----------------
#NOTEDATA:;
#CHARTNAME:;
#STEPSTYPE:dance-single;
#DESCRIPTION:;
#CHARTSTYLE:;
#DIFFICULTY:Medium;
#METER:7;
#RADARVALUES:0.254600,0.362837,0.088228,0.017646,0.000000,202.000000,192.000000,10.000000,2.000000,0.000000,0.000000,0.000000,0.000000,0.000000,0.254600,0.362837,0.088228,0.017646,0.000000,202.000000,192.000000,10.000000,2.000000,0.000000,0.000000,0.000000,0.000000,0.000000;
#CREDIT:kater15;
#DISPLAYBPM:128.000000;
#NOTES:
0000
0000
0000
0000
,
0000
0000
0000
0000
,
0000
0000
0000
0000
,
0000
0000
0000
0000
,
1000
0000
0000
0000
,
0100
0000
0000
0000
,
0010
0000
0000
0000
,
0001
0000
0100
0000
,
1000
0000
0000
0000
,
0010
0000
1000
0000
,
0100
0000
0000
0000
,
0001
1000
0100
0010
,
1000
0000
0000
0000
,
0100
0000
0010
0000
,
1000
0000
0000
0000
,
0010
0100
0001
1000
,
0100
0000
0001
1000
0001
0000
0010
0000
,
0010
0000
0100
0000
0110
0000
1000
0001
,
1000
0000
0010
0100
0010
0000
0001
0000
,
0001
0000
1000
0000
1001
0000
0100
0010
,
0100
0000
0001
1000
0001
0000
0010
0000
,
0010
0000
0100
0000
0110
0000
1000
0001
,
1000
0000
0010
0100
0010
0000
0001
0000
,
0001
0000
1000
0000
1001
0000
0100
0010
,
0100
0000
1000
0000
,
0010
0010
0010
0000
0001
0000
0000
0000
,
0100
0000
0100
0010
,
1001
0000
0110
0000
,
1000
0000
0010
0000
,
0001
0001
0001
0000
0100
0000
0000
0000
,
1000
0000
1000
0001
,
0110
0000
1001
0000
,
0100
0000
0001
0000
,
0010
0000
1000
0000
,
0100
0000
0001
0000
,
0010
0000
1000
0000
,
0100
0001
0010
1000
,
0100
0001
0010
1000
,
0100
0001
0010
0000
1000
0100
0001
0000
,
0010
1000
0100
0001
0010
0000
1100
0000
,
0001
0000
0001
0000
0001
1000
0001
0000
,
1000
0000
1000
0000
1000
0001
1000
0000
,
0001
0000
0001
0000
0001
1000
0001
0000
,
1000
0000
1000
0000
1000
0001
1000
0000
,
0010
0000
0001
0000
0100
1000
0100
0000
,
1000
0000
0100
0000
0010
0001
0010
0000
,
0100
0000
0010
0000
1000
0010
1000
0000
,
0010
0000
0100
0000
0001
0100
0001
0000
,
0100
0000
0100
0000
0100
0010
0100
0000
,
0010
0000
0010
0000
0010
0100
0010
0000
,
0100
0000
0100
0000
0100
0010
0100
0000
,
0010
0000
0010
0000
0010
0100
0010
0000
,
0001
0000
0100
0000
1000
0010
1000
0000
,
0010
0000
1000
0000
0001
0100
0001
0000
,
1000
0000
0001
0000
0010
0001
0010
0000
,
0001
0000
1000
0000
0100
1000
0100
0000
,
0022
0000
0000
0000
,
0000
0000
0000
0000
,
0000
0000
0000
0033
;

//---------------dance-single - ----------------
#NOTEDATA:;
#CHARTNAME:;
#STEPSTYPE:dance-single;
#DESCRIPTION:;
#CHARTSTYLE:;
#DIFFICULTY:Hard;
#METER:10;
#RADARVALUES:0.357953,0.518338,0.123519,0.097051,0.017646,284.000000,270.000000,14.000000,11.000000,0.000000,0.000000,0.000000,0.000000,0.000000,0.357953,0.518338,0.123519,0.097051,0.017646,284.000000,270.000000,14.000000,11.000000,0.000000,0.000000,0.000000,0.000000,0.000000;
#CREDIT:kater15;
#DISPLAYBPM:128.000000;
#NOTES:
0000
0000
0000
0000
,
0000
0000
0000
0000
,
0000
0000
0000
0000
,
0000
0000
0000
0000
,
1000
1000
0100
0000
,
0001
0001
0100
0000
,
1000
1000
0001
0000
,
0011
0000
0101
0000
,
1001
0000
0000
0000
0100
0000
0001
1000
,
0100
0000
0000
0000
0010
0000
0001
1000
,
0010
0000
0000
0000
0100
0000
0001
1000
,
0010
0000
0001
1000
0100
0000
0001
1000
,
0010
0000
0000
0000
0001
0000
0010
0100
,
0001
0000
0000
0000
1000
0000
0010
0100
,
1000
0000
0000
0000
0001
0000
0010
0100
,
1000
0000
0010
0100
0001
0000
0010
0100
,
2000
0010
0001
3010
,
0002
0100
1000
0103
,
0001
0010
0100
0010
0001
0000
1000
0100
,
0010
0100
1000
0000
0001
0010
0100
0010
,
0002
0100
1000
0103
,
2000
0010
0001
3010
,
1000
0100
0010
0100
1000
0000
0001
0010
,
0100
0010
0001
0000
1000
0100
0010
0100
,
2000
3001
2000
3010
,
0100
0001
0010
0000
0100
1000
0010
0000
,
1100
0000
0010
0001
0100
0010
1000
0000
,
0200
0000
0320
0000
,
0032
1003
0002
0103
,
0010
1000
0100
0000
0010
0001
0100
0000
,
0011
0000
0100
1000
0010
0100
0001
0000
,
0010
0010
0000
1000
0000
0001
0010
0001
,
0100
0100
1001
0010
,
1000
1000
0110
0001
,
0010
0010
1100
0001
,
0100
0100
0011
1000
,
0100
0001
0100
0010
1000
0100
0010
0000
,
1000
0100
1000
0010
0100
0001
0010
0000
,
1000
0001
0100
0010
1000
0100
0010
0001
,
0100
0010
0100
0010
0100
0010
0100
0010
0100
0000
0000
0000
0110
0000
0000
0000
,
1000
0100
0001
0000
0100
0000
0010
0000
,
1000
0100
0010
0000
1000
0000
0001
0000
,
0010
0001
0100
0000
0010
0000
1000
0000
,
0100
0001
1000
0010
0000
0011
0000
1000
,
0100
0010
0001
0000
1000
0000
0100
0000
,
0010
0100
0100
0000
0001
0000
1000
0000
,
0010
0010
1000
0000
0001
0000
0100
0000
,
0010
0100
1000
0001
0000
1100
0000
0100
,
0010
1000
0100
0001
1000
0000
0001
0000
,
0010
1000
0001
0100
0010
0000
0100
0000
,
0001
0100
1000
0100
0001
0000
0010
0000
,
1000
0100
0010
0001
0000
0101
0000
0010
,
1000
0001
0100
0001
0010
0000
1000
0000
,
0001
1000
1000
0010
0100
0000
0010
0000
,
0001
0001
0010
0001
0100
0000
1000
0000
,
0001
1000
0010
0100
0000
1010
0000
1000
,
0200
0000
0000
0000
,
0000
0000
0000
0000
,
0000
0000
0000
0300
;

//---------------dance-single - ----------------
#NOTEDATA:;
#CHARTNAME:;
#STEPSTYPE:dance-single;
#DESCRIPTION:;
#CHARTSTYLE:;
#DIFFICULTY:Challenge;
#METER:14;
#RADARVALUES:0.520544,0.803424,0.149987,0.158810,0.220569,413.000000,396.000000,17.000000,18.000000,0.000000,0.000000,0.000000,0.000000,0.000000,0.520544,0.803424,0.149987,0.158810,0.220569,413.000000,396.000000,17.000000,18.000000,0.000000,0.000000,0.000000,0.000000,0.000000;
#CREDIT:kater15;
#DISPLAYBPM:128.000000;
#NOTES:
// measure 0
0000
0000
0000
0000
,  // measure 1
0000
0000
0000
0000
,  // measure 2
0000
0000
0000
0000
,  // measure 3
0000
0000
0000
0000
,  // measure 4
1000
0100
0010
0001
0000
1000
0100
0010
,  // measure 5
0001
0010
0100
1000
0000
0001
0010
0100
,  // measure 6
1000
0010
0100
0001
0000
1000
0010
0100
,  // measure 7
0001
0100
0010
1000
0000
0001
0100
0010
,  // measure 8
2000
0000
3001
0010
0001
0100
0010
1000
,  // measure 9
0200
0000
0310
0001
0100
0010
1000
0100
,  // measure 10
0020
0000
1030
1000
0100
1000
0010
0100
,  // measure 11
0002
0000
1000
1000
2003
0000
0001
0001
,  // measure 12
3002
0000
1003
0100
1000
0010
0100
0001
,  // measure 13
0020
0000
0130
1000
0010
0100
0001
0010
,  // measure 14
0200
0000
0301
0001
0010
0001
0100
0010
,  // measure 15
2000
0000
0001
0001
3002
0000
1000
1000
,  // measure 16
1003
0000
0100
0010
1000
0100
0010
0001
,  // measure 17
1100
0000
0010
0001
0100
0010
1000
0001
,  // measure 18
0011
0000
0100
0100
0001
0010
0001
1000
,  // measure 19
1010
0000
0100
1000
0001
0010
0100
0001
,  // measure 20
0101
0000
0100
0100
0010
1000
0100
1000
,  // measure 21
1001
0000
0010
0001
1000
0100
0001
0010
,  // measure 22
0110
0000
1000
0100
1000
0010
0100
0001
,  // measure 23
0101
0000
0000
0000
0001
0000
0010
0000
0100
0000
1000
0001
1000
0001
1000
0001
,  // measure 24
2000
0001
3100
0000
,  // measure 25
0002
1000
0103
0000
,  // measure 26
0200
0010
0301
0000
,  // measure 27
0200
0010
0302
1000
,  // measure 28
0103
0000
0200
1000
,  // measure 29
0310
0000
0002
0100
,  // measure 30
0013
0000
1000
0100
1000
0010
0100
0001
,  // measure 31
0010
0000
0010
0000
0100
0000
1100
0000
0000
0000
0001
0000
0010
0000
1000
0100
,  // measure 32
1000
0100
0011
0101
,  // measure 33
0001
0010
1100
1010
,  // measure 34
0100
0010
1001
0110
,  // measure 35
1000
0001
0110
1001
,  // measure 36
1000
1000
0100
0010
1000
0100
0010
0100
,  // measure 37
0001
0001
0100
0010
1000
0100
0010
0100
,  // measure 38
0001
1000
0001
0100
0001
1000
0001
0010
0001
1000
0001
0100
0001
1000
0001
0010
,  // measure 39
0001
0000
1000
0000
0001
0000
0100
0000
0001
0000
1000
0000
0001
1000
0001
1000
0001
0000
0000
0000
0000
0000
0000
0000
1001
0000
0000
0000
0000
0000
0000
0000
,  // measure 40
1000
0000
0100
0000
1000
0000
0010
0000
0001
1000
0001
1000
0010
0000
1000
0000
,  // measure 41
0100
0000
0001
0000
0100
0000
1000
0000
0010
0100
0010
0100
1000
0000
0100
0000
,  // measure 42
0001
0000
0010
0000
0001
0000
0100
0000
1000
0001
1000
0001
0100
0000
0001
0000
,  // measure 43
0010
0000
1000
0000
0010
0000
0001
0000
0100
0010
0100
0010
0001
0000
0010
0000
,  // measure 44
1000
0000
0100
0000
1000
0000
0010
0000
0001
1000
0001
1000
0010
0000
1000
0000
,  // measure 45
0100
0000
0001
0000
0100
0000
1000
0000
0010
0100
0010
0100
1000
0000
0100
0000
,  // measure 46
0001
0000
0010
0000
0001
0000
0100
0000
1000
0001
1000
0001
0100
0000
0001
0000
,  // measure 47
0010
0000
1000
0000
0010
0000
0001
0000
0100
0010
0100
0010
0001
0000
0010
0000
,  // measure 48
0100
0000
1000
0000
0100
0000
0001
0000
0100
0010
1000
0010
1000
0000
0100
0000
,  // measure 49
1000
0000
0100
0000
0010
0000
1000
0000
0001
1000
0010
1000
0100
0000
0100
0000
,  // measure 50
0001
0000
0010
0000
0010
0000
0001
0000
0100
0010
0001
0010
1000
0000
1000
0000
,  // measure 51
0001
0000
1000
0000
1000
0000
0010
0000
0100
0010
1000
0001
0100
0000
0010
0000
,  // measure 52
1000
0000
0001
0000
0001
0000
0100
0000
1000
0010
1000
0001
0010
0000
1000
0000
,  // measure 53
0100
0000
0010
0000
0001
0000
1000
0000
0001
0100
0001
0100
1000
0000
1000
0000
,  // measure 54
0010
0000
0100
0000
0100
0000
1000
0000
0100
0001
1000
0010
0100
0000
0001
0000
,  // measure 55
0010
0000
0100
0000
0001
0000
0100
0000
0010
1000
0001
0100
0010
0000
0010
0000
,  // measure 56
2000
0000
0000
0000
,  // measure 57
0000
0000
0000
0000
,  // measure 58
0000
0000
0000
3000
;
