#TITLE:Feel This Moment;
#SUBTITLE:;
#ARTIST:PITBULL feat. Christina Aguilera;
#TITLETRANSLIT:;
#SUBTITLETRANSLIT:;
#ARTISTTRANSLIT:;
#GENRE:;
#CREDIT:;
#BANNER:Feel This Moment.png;
#BACKGROUND:Feel This Moment-bg.png;
#LYRICSPATH:;
#CDTITLE:cdtitle.png;
#MUSIC:Feel This Moment.ogg;
#OFFSET:-0.200000;
#SAMPLESTART:86.691002;
#SAMPLELENGTH:15.000000;
#SELECTABLE:YES;
#DISPLAYBPM:136.000000;
#BPMS:0.000000=136.000000
,195.000000=130.000000
,196.000000=136.000000
;
#STOPS:
;
#BGCHANGES:;
#KEYSOUNDS:;
#ATTACKS:;

//---------------dance-single - ----------------
#NOTES:
     dance-single:
     :
     Easy:
     3:
     0.226109,0.249286,0.008555,0.119777,0.000000,185.000000,184.000000,1.000000,14.000000,0.000000,0.000000,0.226109,0.249286,0.008555,0.119777,0.000000,185.000000,184.000000,1.000000,14.000000,0.000000,0.000000:
0000
0000
0000
0000
,
0000
0000
0000
0000
,
0000
0000
0000
0000
,
0000
0000
0000
0000
,
0000
0000
0000
0000
,
1000
0000
1000
0000
,
0100
0000
0001
0000
,
0001
0000
1000
0000
,
0100
0000
0000
0000
,
1000
0010
1000
0100
,
0010
0001
0100
0000
,
0010
0001
0010
1000
,
0100
0010
0001
0000
,
0100
0100
0001
0100
,
0010
1000
0010
0000
,
1000
0000
0001
0000
,
0010
0100
0010
0100
,
2002
0000
0000
3003
,
0100
0000
1000
0000
,
0010
0000
1000
0000
,
0001
0000
1000
0000
,
0100
0000
0100
0000
,
0010
0000
0001
0000
,
1000
0100
1000
0100
,
0001
0010
0001
0010
,
1000
0000
0100
0000
,
0010
0100
0010
0000
,
1000
0000
0001
0000
,
0010
0000
1000
0100
,
1000
0000
0001
0000
,
0010
2000
3001
0000
,
1000
0000
0100
0000
,
0002
0100
0100
0103
,
1000
1000
1000
1000
,
0001
1000
0001
1000
,
0100
0100
0100
0100
,
0010
0100
0010
0100
,
0001
0001
0001
0001
,
1000
0001
1000
0001
,
0010
0010
0010
0010
,
0100
0010
0100
0010
,
2000
0000
0200
0000
,
0000
0000
0000
3300
,
0001
0010
0100
1000
,
0001
1000
0010
0100
,
0002
0000
0200
0000
,
0000
0000
0000
0303
,
1000
0100
0010
0001
,
1000
0020
0200
0330
,
1000
1000
0100
0001
,
0010
0001
1000
0000
,
0100
0001
0001
1000
,
0010
0010
0001
0000
,
0100
0001
0100
0100
,
0010
1000
0100
0000
,
1000
0000
0001
0000
,
0100
0010
0100
0010
,
2000
0010
0010
3010
,
0002
0010
0010
0013
,
1000
0100
0001
0001
,
1000
0001
0010
0100
,
0002
0100
0100
0103
,
2000
0100
0100
3100
,
0001
0001
1000
0001
,
0010
1000
0100
0010
;

//---------------dance-single - ----------------
#NOTES:
     dance-single:
     :
     Beginner:
     2:
     0.081888,0.191643,0.000000,0.042777,0.000000,67.000000,67.000000,0.000000,5.000000,0.000000,0.000000,0.081888,0.191643,0.000000,0.042777,0.000000,67.000000,67.000000,0.000000,5.000000,0.000000,0.000000:
// measure 0
0000
0000
0000
0000
,  // measure 1
0000
0000
0000
0000
,  // measure 2
0000
0000
0000
0000
,  // measure 3
0000
0000
0000
0000
,  // measure 4
0000
0000
0000
0000
,  // measure 5
0000
0000
0000
0000
,  // measure 6
0000
0000
0000
0000
,  // measure 7
0000
0000
0000
0000
,  // measure 8
0000
0000
0000
0000
,  // measure 9
0100
0000
0100
0000
,  // measure 10
0001
0000
0000
0000
,  // measure 11
0100
0000
0100
0000
,  // measure 12
1000
0000
0000
0000
,  // measure 13
0001
0000
0001
0000
,  // measure 14
0100
0000
0000
0000
,  // measure 15
1000
0000
1000
0000
,  // measure 16
0100
0000
0000
0000
,  // measure 17
0200
0000
0000
0300
,  // measure 18
0000
0000
0000
0000
,  // measure 19
1000
0000
0000
0000
,  // measure 20
0001
0000
0000
0000
,  // measure 21
0010
0000
0000
0000
,  // measure 22
0001
0000
0000
0000
,  // measure 23
1000
1000
1000
0000
,  // measure 24
0001
0001
0001
0000
,  // measure 25
0100
0000
0000
0000
,  // measure 26
0010
0000
0000
0000
,  // measure 27
1000
0000
0000
0000
,  // measure 28
0100
0000
0000
0000
,  // measure 29
0001
0000
0000
0000
,  // measure 30
1000
0000
0000
0000
,  // measure 31
0010
0000
0000
0000
,  // measure 32
0100
0000
0000
0000
,  // measure 33
0200
0000
0000
0300
,  // measure 34
0000
0000
0000
0000
,  // measure 35
0020
0000
0000
0030
,  // measure 36
0000
0000
0000
0000
,  // measure 37
2000
0000
0000
3000
,  // measure 38
0000
0000
0000
0000
,  // measure 39
0002
0000
0000
0003
,  // measure 40
0000
0000
0000
0000
,  // measure 41
0001
0000
0001
0000
,  // measure 42
0001
0000
0000
0000
,  // measure 43
0100
0000
0000
0000
,  // measure 44
0100
0000
0000
0000
,  // measure 45
1000
0000
1000
0000
,  // measure 46
1000
0000
0000
0000
,  // measure 47
0100
0000
0000
0000
,  // measure 48
0100
0000
0000
0000
,  // measure 49
0001
0000
0001
0000
,  // measure 50
0100
0000
0000
0000
,  // measure 51
1000
0000
1000
0000
,  // measure 52
0100
0000
0000
0000
,  // measure 53
0100
0000
0100
0000
,  // measure 54
0001
0000
0000
0000
,  // measure 55
0100
0000
0100
0000
,  // measure 56
1000
0000
0000
0000
,  // measure 57
0100
0000
0001
0000
,  // measure 58
0100
0000
0000
0000
,  // measure 59
1000
0000
0000
0000
,  // measure 60
0001
0000
0000
0000
,  // measure 61
0100
0000
1000
0000
,  // measure 62
0100
0000
0000
0000
,  // measure 63
0001
0000
0000
0000
,  // measure 64
1000
0000
0000
0000
;

//---------------dance-single - ----------------
#NOTES:
     dance-single:
     :
     Medium:
     5:
     0.298220,0.332381,0.128332,0.085555,0.034222,244.000000,229.000000,15.000000,10.000000,0.000000,0.000000,0.298220,0.332381,0.128332,0.085555,0.034222,244.000000,229.000000,15.000000,10.000000,0.000000,0.000000:
0000
0000
0000
0000
,
0000
0000
0000
0000
,
0000
0000
0000
0000
,
0000
0000
0000
0000
,
0000
0000
0000
0000
,
0000
0000
0000
0000
,
0000
0000
0000
0000
,
0000
0000
0000
0000
,
0000
0000
0000
0000
,
1000
0000
1000
0001
0000
0001
0000
0010
,
0000
0010
0000
1000
0000
0100
0000
0001
,
0000
0010
1000
0100
0000
0001
0000
1001
,
0000
0010
0000
0100
0000
0100
0000
0010
,
0000
0001
0001
0100
0000
1000
0000
0001
,
0000
1001
0000
0010
0000
1000
0000
0100
,
0000
0001
0010
0100
0000
1000
0000
0000
,
1000
1001
0100
0110
,
0002
0000
0000
0003
,
1000
0100
0100
0000
,
0001
0000
0000
0001
0000
0000
0000
0000
1000
0000
0000
1000
0000
0000
0000
0000
,
0100
0000
0000
0100
0000
0000
0000
0000
0010
0000
0000
0010
0000
0000
0000
0000
,
1000
0000
0000
0100
0000
0000
0000
0000
0001
0000
0000
0100
0000
0000
0000
0000
,
0010
0000
0000
0001
0000
0000
0000
0000
0100
0000
0000
0001
0000
0000
0000
0000
,
1000
0100
0001
0000
0100
0000
0100
0000
,
1000
0100
0001
0000
0100
0000
0100
0000
,
0010
0000
0001
0100
0100
0000
0010
0000
,
1000
0000
0100
0000
0010
0001
0100
0000
,
0010
1001
1000
0100
,
0010
0000
1000
0000
0100
0001
0100
0000
,
0010
0110
0001
1000
,
0200
1000
0310
0001
,
1000
0100
1100
0001
,
0100
0000
0010
0000
1000
0100
1000
0010
,
0001
0000
1000
0000
0001
1000
0001
0000
,
0100
1000
0010
0001
,
0100
0000
0010
0000
0100
0010
0100
0000
,
1000
0010
0001
0100
,
1000
0000
0001
0000
1000
0001
1000
0000
,
0010
0001
0100
1000
,
0010
0000
0100
0000
0010
0100
0010
0000
,
0001
0100
1000
0010
,
0002
0000
0000
0000
0100
0000
0100
0200
,
0000
0000
0000
0303
,
1000
0000
1100
0000
0001
0000
0010
0001
,
0100
0000
1000
0000
0100
0100
0001
0000
,
2000
0000
0000
0000
0100
0000
0100
0200
,
0000
0000
0000
3300
,
0001
0000
0101
0000
1000
0000
0010
1000
,
0100
0000
0001
0000
0100
0100
1000
0000
,
1000
0000
1000
0001
0000
0001
0000
0010
,
0000
0010
0000
1000
0000
0100
0000
0001
,
0000
0010
1000
0100
0000
0001
0000
1001
,
0000
0010
0000
0100
0000
0100
0000
0010
,
0000
0001
0001
0100
0000
1000
0000
0001
,
0000
1001
0000
0010
0000
1000
0000
0100
,
0000
0001
0010
0100
0000
1000
0000
0000
,
1000
1001
0100
0110
,
0002
0000
0000
0000
0100
0000
0100
0200
,
0000
0000
0000
0303
,
1000
0000
1100
0000
0001
0000
0010
0001
,
0100
0000
1000
0000
0100
0100
0001
0000
,
2000
0000
0000
0000
0100
0000
0100
0200
,
0000
0000
0000
3300
,
0001
0000
0101
0000
1000
0000
0010
1000
,
0100
0000
0001
0000
0100
0100
1000
0000
;

//---------------dance-single - ----------------
#NOTES:
     dance-single:
     :
     Hard:
     7:
     0.416775,0.444030,0.196776,0.111221,0.047055,341.000000,318.000000,23.000000,13.000000,0.000000,0.000000,0.416775,0.444030,0.196776,0.111221,0.047055,341.000000,318.000000,23.000000,13.000000,0.000000,0.000000:
0000
0000
0000
0000
,
0000
0000
0000
0000
,
0000
0000
0000
0000
,
0000
0000
0000
0000
,
0000
0000
0000
0000
,
1000
1100
0001
0101
,
0010
0001
0100
0010
,
1000
0100
1000
0100
0001
0010
0001
0010
,
1000
0100
0010
0001
0100
0000
1001
0000
,
1000
0100
0010
0001
0000
0001
0000
0100
,
0000
0100
0000
0010
1000
0100
0010
0010
,
0100
0001
0010
0100
0000
0100
0000
0001
,
0000
1000
0000
0100
0001
1000
0010
0001
,
0010
0010
1000
0100
0000
1001
0000
0001
,
0000
0110
0000
1000
0100
0100
0001
0010
,
0001
1000
0100
0001
0000
0010
0000
0100
,
0010
0000
0100
1000
0001
0000
1100
0000
,
2002
0000
0000
3003
,
1000
0100
0001
0010
0100
0000
0100
0000
,
1000
0000
0000
1000
0000
0000
1000
0000
0001
0000
0000
0001
0000
0000
0001
0000
,
0100
0000
0000
0100
0000
0000
0100
0000
0010
0000
0000
0010
0000
0000
0010
0000
,
1000
0000
0000
0100
0000
0000
1000
0000
0001
0000
0000
0100
0000
0000
0001
0000
,
0010
0000
0000
1000
0000
0000
0010
0000
0100
0000
0000
1000
0000
0000
0100
0000
,
0001
0000
0001
0000
1000
0000
0100
0000
0010
0000
0000
0010
0000
0000
0001
0000
,
0100
0000
0001
0000
0010
0000
1000
0000
1000
0000
0000
0001
0000
0000
0100
0000
,
0010
0000
1000
0100
0020
0000
0031
1000
,
0100
0000
0002
0000
1003
0100
0100
0000
,
0110
0000
1000
1000
0001
0000
0010
0001
,
0100
0000
0010
0000
1000
0001
0100
0000
,
0011
0000
1000
0100
1000
0010
0010
1000
,
0100
0020
1030
0000
,
1000
0100
0100
1000
0001
0010
0100
0000
,
0001
0001
0010
0100
0010
0010
0100
0001
,
1000
1100
0001
0101
,
1000
0000
0010
1000
0010
1000
0100
0000
,
0001
0101
1000
1100
,
0001
0000
1000
0001
1000
0001
0010
0000
,
0100
0110
0001
1001
,
0010
0000
0100
0001
0100
0001
1000
0000
,
0001
1001
0010
0110
,
1000
0000
0100
0010
0100
0010
0001
0000
,
2000
0000
0100
0000
0010
0000
0001
0002
,
0000
0000
0000
3003
,
0001
0000
0101
0000
1000
0000
0010
0001
,
0100
0000
1000
1000
0001
0010
0100
1000
,
0002
0000
0100
0000
0010
0000
1000
2000
,
0000
0000
0000
3003
,
1000
0000
1100
0000
0001
0000
0010
1000
,
0100
0000
0001
0001
1000
0010
0100
0001
,
1000
0100
0010
0001
0000
0001
0000
0100
,
0000
0100
0000
0010
1000
0100
0010
0010
,
0100
0001
0010
0100
0000
0100
0000
0001
,
0000
1000
0000
0100
0001
1000
0010
0001
,
0010
0010
1000
0100
0000
1001
0000
0001
,
0000
0110
0000
1000
0100
0100
0001
0010
,
0001
1000
0100
0001
0000
0010
0000
0100
,
0010
0000
0000
0000
0100
0000
1000
0000
0001
0000
0000
0100
1000
0000
0010
0000
,
2000
0000
0100
0000
0010
0000
0001
0002
,
0000
0000
0000
3003
,
0001
0000
0101
0000
1000
0000
0010
0001
,
0100
0000
1000
1000
0001
0010
0100
1000
,
0002
0000
0100
0000
0010
0000
1000
2000
,
0000
0000
0000
3003
,
1000
0000
1100
0000
0001
0000
0010
1000
,
0100
0000
0001
0001
1000
0010
0100
0001
;

//---------------dance-single - ----------------
#NOTES:
     dance-single:
     :
     Challenge:
     3:
     0.221221,0.249286,0.008555,0.119777,0.000000,181.000000,180.000000,1.000000,14.000000,52.000000,0.000000,0.221221,0.249286,0.008555,0.119777,0.000000,181.000000,180.000000,1.000000,14.000000,52.000000,0.000000:
0000
0000
0000
0000
,
0000
0000
0000
0000
,
0000
0000
0000
0000
,
0000
0000
0000
0000
,
0000
0000
0000
0000
,
1000
0000
1000
0000
,
0100
0000
0001
0000
,
0001
0000
1000
0000
,
0100
0000
0000
MMMM
,
1000
0010
1000
0100
,
0010
0001
0100
0000
,
0010
0001
0010
1000
,
0100
0010
0001
MMMM
,
0100
0100
0001
0100
,
0010
1000
0010
0000
,
1000
MMMM
0001
MMMM
,
0010
0100
0010
0100
,
2002
0000
0000
3003
,
0100
0000
1000
0000
,
0010
0000
1000
0000
,
0001
0000
1000
0000
,
0100
0000
0100
0000
,
0010
0000
0001
0000
,
1000
0100
1000
0100
,
0001
0010
0001
0010
,
1000
MMMM
0100
0000
,
0010
0100
0010
0000
,
1000
0000
0001
0000
,
0010
0000
1000
0100
,
1000
0000
0001
0000
,
0010
2000
3001
MMMM
,
1000
0000
0100
0000
,
0002
0100
0100
0103
,
1000
1000
1000
1000
,
0001
1000
0001
MMMM
,
0100
0100
0100
0100
,
0010
0100
0010
MMMM
,
0001
0001
0001
0001
,
1000
0001
1000
MMMM
,
0010
0010
0010
0010
,
0100
0010
0100
MMMM
,
2000
0000
0200
0000
,
0000
0000
0000
3300
,
0001
0010
0100
1000
,
0001
1000
0010
0100
,
0002
0000
0200
0000
,
0000
0000
0000
0303
,
1000
0100
0010
0001
,
1000
0020
0200
0330
,
1000
1000
0100
0001
,
0010
0001
1000
0000
,
0100
0001
0001
1000
,
0010
0010
0001
MMMM
,
0100
0001
0100
0100
,
0010
1000
0100
0000
,
1000
MMMM
0001
MMMM
,
0100
0010
0100
0010
,
2000
0010
0010
3010
,
0002
0010
0010
0013
,
1000
0100
0001
0001
,
1000
0001
0010
0100
,
0002
0100
0100
0103
,
2000
0100
0100
3100
,
0001
0001
1000
0001
,
0010
1000
0100
0010
;
