#TITLE:Fascination ~eternal love mix~ ("FREEZE" Special);
#SUBTITLE:;
#ARTIST:2MB;
#TITLETRANSLIT:Fascination ~eternal love mix~ ("FREEZE" Special);
#SUBTITLETRANSLIT:;
#ARTISTTRANSLIT:;
#GENRE:;
#CREDIT:;
#BANNER:Fascination ~eternal love mix~ (FREEZE Special).png;
#BACKGROUND:Fascination ~eternal love mix~ (FREEZE Special)-bg.png;
#LYRICSPATH:;
#CDTITLE:;
#MUSIC:Fascination ~eternal love mix~ (FREEZE Special).ogg;
#OFFSET:0.000000;
#SAMPLESTART:11.997000;
#SAMPLELENGTH:15.000000;
#SELECTABLE:YES;
#DISPLAYBPM:100.000000:400.000000;
#BPMS:0.000000=100.000000
,19.000000=200.000000
,35.000000=400.000000
,99.000000=200.000000
,127.000000=400.000000
,135.000000=200.000000
,136.000000=201.492996
,137.500000=200.000000
,138.500000=198.529007
,140.000000=200.000000
,141.000000=201.492996
,144.000000=200.494995
,148.500000=201.492996
,150.000000=200.000000
,151.000000=198.529007
,152.500000=200.000000
,153.500000=200.296997
,161.000000=400.000000
,353.000000=200.000000
,385.000000=400.000000
,481.000000=200.000000
;
#STOPS:19.000000=0.600000,
136.000000=0.153000,
137.500000=0.153000,
138.500000=0.147000,
140.000000=0.147000,
141.000000=0.153000,
142.500000=0.153000,
144.000000=0.153000,
148.500000=0.153000,
150.000000=0.153000,
151.000000=0.147000,
152.500000=0.147000,
153.500000=0.153000,
481.000000=2.400000
;
#BGCHANGES:;
#KEYSOUNDS:;
#ATTACKS:;

//---------------dance-single - ----------------
#NOTES:
     dance-single:
     :
     Challenge:
     15:
     0.646456,1.049237,0.649225,2.422481,0.000000,467.000000,400.000000,67.000000,250.000000,0.000000,0.000000,0.646456,1.049237,0.649225,2.422481,0.000000,467.000000,400.000000,67.000000,250.000000,0.000000,0.000000:
// measure 0
0000
0000
0000
0000
,  // measure 1
0000
0000
0000
0000
,  // measure 2
0000
0000
0000
0000
,  // measure 3
0002
2003
3020
0230
,  // measure 4
0302
0023
0230
2300
3020
0032
0203
0300
,  // measure 5
0020
1000
0100
0031
,  // measure 6
2000
0000
0100
0000
0010
0000
3001
0100
,  // measure 7
0000
1001
0000
1001
0000
1001
0000
0100
,  // measure 8
2000
0010
0001
3010
,  // measure 9
0002
2000
0003
3010
,  // measure 10
0200
0020
0300
1030
,  // measure 11
0020
0032
2003
0200
,  // measure 12
3000
1000
0000
0310
,  // measure 13
2000
0200
3000
0310
,  // measure 14
0200
0002
0300
0103
,  // measure 15
2000
3002
2003
3002
,  // measure 16
0203
0020
0300
1030
,  // measure 17
0020
0200
0030
0301
,  // measure 18
0200
0020
0300
1030
,  // measure 19
0200
0320
0200
0000
,  // measure 20
0030
1000
0000
0301
,  // measure 21
0200
2000
0300
3100
,  // measure 22
0020
0200
0030
0302
,  // measure 23
0023
2030
3020
0032
,  // measure 24
2003
0200
3000
0302
,  // measure 25
0010
0000
0100
0100
0100
0000
2003
0000
,  // measure 26
0100
0000
0001
0001
0001
0000
3020
0000
,  // measure 27
0000
1000
0000
0100
0000
0001
0230
0000
,  // measure 28
1000
0000
0010
0010
0010
0000
0302
0000
,  // measure 29
0100
0000
0010
0010
0010
0000
2003
0000
,  // measure 30
0010
0000
0001
0001
0001
0000
3200
0000
,  // measure 31
0000
0010
0000
0001
0000
1000
0320
0000
,  // measure 32
0032
0203
2300
3020
,  // measure 33
0032
0000
0203
0000
0300
0000
0010
0100
,  // measure 34
2000
3000
0010
0000
0001
0000
0002
0003
0010
0000
2000
3000
0100
0000
0001
0000
,  // measure 35
0002
0003
0010
0000
2000
3000
0100
0000
0010
0000
0002
0003
0010
0000
0001
0000
,  // measure 36
2000
3000
0001
0000
0100
0000
0010
0000
1000
0000
0010
0000
0100
0000
0001
0000
,  // measure 37
1000
0000
0002
0003
1000
0000
0100
0000
2000
3000
0010
0000
0002
0003
0100
0000
,  // measure 38
1000
0000
2000
3000
0010
0000
0002
0003
0010
0000
0100
0000
1000
0000
0100
0000
,  // measure 39
0010
0001
0100
1000
0100
0001
0010
0100
,  // measure 40
1000
0010
1002
0000
0000
0000
0200
0000
,  // measure 41
0003
0020
0300
2000
,  // measure 42
0030
0200
3000
0310
,  // measure 43
0002
0010
0100
0010
,  // measure 44
0100
2000
3003
0022
,  // measure 45
0033
2002
3003
2200
,  // measure 46
3300
2020
3030
0220
,  // measure 47
0330
0202
0303
0020
,  // measure 48
0100
0001
0100
2000
,  // measure 49
3030
2000
3002
2003
,  // measure 50
3020
0230
0320
2000
,  // measure 51
3030
2002
3003
0202
,  // measure 52
0303
0022
0033
2020
,  // measure 53
3030
0220
0330
0200
,  // measure 54
0001
1000
0001
0020
,  // measure 55
0330
2000
0010
0100
,  // measure 56
0010
0002
3003
0202
,  // measure 57
0303
2002
3003
2200
,  // measure 58
3300
0220
0330
0022
,  // measure 59
0033
2002
3003
0200
,  // measure 60
1000
0010
1000
0002
,  // measure 61
0303
0220
0330
2200
,  // measure 62
3300
0202
0303
0020
,  // measure 63
0100
1000
0100
0002
,  // measure 64
0033
2020
3030
2200
,  // measure 65
3300
0020
1000
0200
,  // measure 66
0330
0002
0203
0020
,  // measure 67
0330
0202
0303
0022
,  // measure 68
0030
0010
0100
2000
,  // measure 69
3003
2200
3300
0202
,  // measure 70
0303
0220
0330
2020
,  // measure 71
0030
0000
0010
0200
,  // measure 72
3300
0202
0303
2200
,  // measure 73
3300
0220
0330
0022
,  // measure 74
0033
2002
3003
0202
,  // measure 75
0003
0010
1000
0002
,  // measure 76
0303
2020
3030
2002
,  // measure 77
3000
0200
0303
0220
,  // measure 78
0330
0202
0003
0020
,  // measure 79
0330
2020
3030
0022
,  // measure 80
0033
0202
0303
2200
,  // measure 81
3300
0202
0303
0202
,  // measure 82
0303
2200
3300
2200
,  // measure 83
3300
2020
3030
0022
,  // measure 84
0033
0220
0330
2200
,  // measure 85
3300
2020
3030
0220
,  // measure 86
0330
0202
0303
0022
,  // measure 87
0033
2020
3030
0022
,  // measure 88
0033
0000
2001
0000
0010
0000
0100
0100
,  // measure 89
0100
0000
3002
0000
0100
0000
0010
0010
,  // measure 90
0010
0000
0203
0000
0001
0000
1000
1000
,  // measure 91
1000
0000
0320
0000
1000
0000
0001
0001
,  // measure 92
0001
0000
0130
1000
0002
0000
0013
1000
,  // measure 93
0200
0000
0301
0010
0200
0000
1300
0010
,  // measure 94
0002
0000
0013
1000
0100
1000
0100
1000
,  // measure 95
0010
0100
0001
0010
0001
0010
0001
0100
,  // measure 96
0010
0102
0000
1000
,  // measure 97
0100
0000
0100
1000
,  // measure 98
0000
1000
0010
0000
,  // measure 99
0010
0103
0000
0110
,  // measure 100
0000
0201
0000
0001
,  // measure 101
0010
0000
0010
0001
,  // measure 102
0000
0001
1000
0000
,  // measure 103
1000
0310
0000
1010
,  // measure 104
0000
2001
0000
0010
,  // measure 105
0100
0000
0100
0010
,  // measure 106
0000
0001
3100
0000
,  // measure 107
1000
0100
0001
0010
,  // measure 108
0000
1002
0000
1000
,  // measure 109
0100
0013
0000
0002
,  // measure 110
0100
1003
0000
0200
,  // measure 111
0010
1300
0000
0002
,  // measure 112
0100
0013
0000
2000
,  // measure 113
0001
3100
0000
2000
,  // measure 114
0100
3001
0000
2000
,  // measure 115
0010
3100
0000
0002
,  // measure 116
0010
0103
0000
2000
,  // measure 117
0100
3010
0000
0002
,  // measure 118
1000
0103
0000
0002
,  // measure 119
2003
3200
0320
0230
,  // measure 120
0302
0000
0000
0000
2000
3003
0000
0000
0000
0000
0000
0000
0000
0000
0000
0000
;

//---------------dance-double - ----------------
#NOTES:
     dance-double:
     :
     Challenge:
     16:
     0.610465,0.992490,0.639535,2.490310,0.000000,441.000000,375.000000,66.000000,257.000000,0.000000,0.000000,0.610465,0.992490,0.639535,2.490310,0.000000,441.000000,375.000000,66.000000,257.000000,0.000000,0.000000:
00000000
00000000
00000000
00000000
,
00000000
00000000
00000000
00000000
,
00000000
00000000
00000000
00000000
,
00002000
00003002
00000203
00002300
,
00023000
00000000
02030000
00000000
23000000
00000000
30200000
00300000
,
02000000
00100000
00010000
03002000
,
00000010
00000000
00000100
00000000
00003100
00000000
00000010
00001000
,
00000000
00101000
00000000
00011000
00000000
00010010
00000002
00000000
,
00000010
00000010
00000100
00000203
,
00000000
00020000
00000300
00002000
,
00030000
00200000
00003000
00020000
,
00300000
20000000
00030000
00200000
,
30000000
02000000
00300000
03020000
,
20030000
30020000
20030000
30200000
,
20300000
01000000
00010000
02000000
,
33000000
00220000
00330000
02200000
,
03300000
22000000
33000000
20000000
,
00000000
00200000
30000000
02000000
,
00300000
00020000
03000000
00200000
,
00030000
00002000
00300000
00020000
,
00003000
00002000
00030000
00103000
,
00020000
00230000
00302000
00023000
,
00030020
00002030
00003020
00020000
,
00030030
00022000
00033000
00022000
,
00033000
00022000
00033000
00021000
,
00100000
00000000
10000000
10000000
10000000
00000000
02030000
00000000
,
00100000
00000000
00001000
00001000
00001000
00000000
03020000
00000000
,
00000000
00000010
00000000
00001000
00000000
00000100
00032000
00000000
,
00000100
00000000
00000010
00000010
00000010
00000000
00003002
00000000
,
00000010
00000000
00001000
00001000
00001000
00000000
00000203
00000000
,
00010000
00000000
00001000
00001000
00001000
00000000
00002300
00000000
,
00000000
00100000
00000000
00010000
00000000
01003000
10000000
00000000
,
00200000
02300000
03002000
00023000
,
00032000
00000000
00203000
00000000
00302000
00000000
00013000
00001000
,
00020000
00030000
01000000
00000000
00100000
00000000
20000000
30000000
01000000
00000000
00020000
00030000
00100000
00000000
01000000
00000000
,
00002000
00003000
00000100
00000000
00020000
00030000
00000010
00000000
00001000
00000000
00000200
00000300
00000010
00000000
00000001
00000000
,
00000200
00000300
00000010
00000000
00001000
00000000
00010000
00000000
01000000
00000000
10000000
00000000
00100000
00000000
10000000
00000000
,
01000000
00000000
00200000
00300000
00010000
00000000
10000000
00000000
02000000
03000000
00100000
00000000
00020000
00030000
00100000
00000000
,
00001000
00000000
00000200
00000300
00001000
00000000
00000002
00000003
00000100
00000000
00000010
00000000
00001000
00000000
00000100
00000000
,
00000010
00000001
00000100
00001000
00010000
00100000
10000000
01000000
,
00100000
20010000
00000000
02000000
,
30000000
00020000
03000000
00002000
,
00030000
00000020
00003000
00002000
,
00000030
00020000
00003000
00200000
,
00300000
20000000
30030000
22000000
,
33000000
02020000
03030000
00220000
,
00330000
20020000
30030000
20020000
,
30030000
20020000
30030000
00200000
,
00000000
02000000
00300000
20000000
,
03000000
00200000
30000000
02000000
,
00300000
00002000
03000000
00020000
,
00033000
00022000
00033000
00022000
,
00033000
00022000
00033000
00022000
,
00033000
00022000
00033000
00000200
,
00000000
00000020
00000300
00002000
,
00000030
00000002
00003000
00000200
,
00000003
00000020
00000330
00002020
,
00003030
00002200
00003300
00000022
,
00000033
00002002
00003003
00002002
,
00003003
00002002
00003003
00000200
,
00000000
00000020
00000300
00000002
,
00000033
00000220
00000330
00002020
,
00003030
00000202
00000303
00000020
,
00000000
00002000
00000030
00000200
,
00003300
00000022
00000033
00002200
,
00003300
00020000
00000000
00000200
,
00030000
00002000
00000300
00020000
,
00033000
00022000
00033000
00022000
,
00030000
00100000
00000000
02000000
,
03003000
02200000
03300000
02200000
,
03300000
20020000
30030000
20020000
,
00030000
01000000
00000000
00200000
,
30300000
20020000
30030000
00220000
,
00330000
02020000
03030000
20020000
,
30030000
00220000
00330000
02020000
,
00030000
00100000
00000000
20000000
,
33000000
02020000
03030000
02002000
,
00003000
00020000
03030000
00022000
,
00033000
00020020
00000030
00002000
,
00033000
00002020
00003030
00002002
,
00003003
00000202
00000303
00000220
,
00000300
00001000
00000000
00020000
,
00030030
00022000
00033000
00202000
,
00303000
00220000
00330000
20020000
,
00030000
01000000
00000000
00200000
,
30300000
20020000
30030000
02200000
,
03300000
20020000
30030000
22000000
,
33000000
02200000
03300000
00220000
,
00330000
00000000
00021000
00000000
00000010
00000000
00000100
00000100
,
00000100
00000000
00030020
00000000
00000100
00000000
00010000
00010000
,
00010000
00000000
00002030
00000000
00000010
00000000
00000100
00000100
,
00000100
00000000
00203000
00000000
01000000
00000000
10000000
10000000
,
10000000
00000000
00320000
00000000
00001000
00000000
01000000
01000000
,
01000000
00000000
00230000
00000000
10000000
00000000
01000000
01000000
,
01000000
00000000
00302000
00000000
00010000
00000000
00000010
00000010
,
00000010
00000000
00003200
00000000
00000001
00000000
00000010
00000010
,
00000010
00020300
00000000
00100000
,
01000000
00000000
00100000
10000000
,
00000000
01000000
00100000
00000000
,
10030000
01000000
00100000
00010000
,
00000000
00001100
00000000
00000002
,
00000010
00000000
00000100
00001000
,
00000000
00000010
00000100
00000000
,
00001003
00100000
00010000
01000000
,
00000000
00110000
00000000
00200000
,
10000000
00000000
00010000
00302000
,
00000000
00000010
00003001
00000000
,
00002000
00000100
00000010
00003002
,
00000100
00000010
00000100
00000023
,
00001000
00000001
00002030
00000001
,
00000010
00000001
00003010
00000002
,
00001000
00000100
00001000
00000203
,
00010000
00000010
00010000
00000320
,
00010000
00001000
00020030
00001000
,
01000000
00001000
02030000
00001000
,
00010000
00001000
00010000
00001000
,
00010000
03002000
00010000
01000000
,
00010000
01003000
00200000
02300000
,
23000000
32000000
03020000
00032000
,
00003200
00000302
00000203
00002300
,
00023000
20000000
30030000
00000000
;
