#VERSION:0.83;
#TITLE:FURUHATA'S THEME;
#SUBTITLE:(kater15 edit);
#ARTIST:C.J.Crew feat.Sedge;
#TITLETRANSLIT:;
#SUBTITLETRANSLIT:;
#ARTISTTRANSLIT:;
#GENRE:;
#ORIGIN:;
#CREDIT:;
#BANNER:FURUHATA'S THEME(kater15 edit).png;
#BACKGROUND:FURUHATA'S THEME(kater15 edit)-bg.png;
#PREVIEWVID:;
#JACKET:FURUHATA'S THEME(kater15 edit)-jacket.png;
#CDIMAGE:;
#DISCIMAGE:;
#LYRICSPATH:;
#CDTITLE:cdtitle.png;
#MUSIC:FURUHATA'S THEME(kater15 edit).ogg;
#OFFSET:0.000000;
#SAMPLESTART:7.058000;
#SAMPLELENGTH:15.000000;
#SELECTABLE:YES;
#DISPLAYBPM:170.000000;
#BPMS:0.000=170.015;
#STOPS:;
#DELAYS:;
#WARPS:;
#TIMESIGNATURES:0.000=4=4;
#TICKCOUNTS:0.000=4;
#COMBOS:0.000=1;
#SPEEDS:0.000=1.000=0.000=0;
#SCROLLS:0.000=1.000;
#FAKES:;
#LABELS:0.000=Song Start;
#BGCHANGES:;
#KEYSOUNDS:;
#ATTACKS:
;

//---------------dance-single - ----------------
#NOTEDATA:;
#CHARTNAME:;
#STEPSTYPE:dance-single;
#DESCRIPTION:;
#CHARTSTYLE:;
#DIFFICULTY:Easy;
#METER:5;
#RADARVALUES:0.244693,0.377991,0.126878,0.465220,0.000000,162.000000,150.000000,12.000000,44.000000,0.000000,0.000000,0.000000,0.000000,0.000000,0.244693,0.377991,0.126878,0.465220,0.000000,162.000000,150.000000,12.000000,44.000000,0.000000,0.000000,0.000000,0.000000,0.000000;
#CREDIT:kater15;
#DISPLAYBPM:170.000000;
#NOTES:
0000
0000
0000
0000
,
0000
0000
0000
0000
,
0000
0000
0000
0000
,
0000
0000
0000
0000
,
0000
0000
0000
0000
,
2000
0000
3200
0000
,
0320
0000
0032
0000
,
0103
0100
0000
1001
,
0010
0010
0000
1001
,
0200
0000
0302
0000
,
2003
0000
3020
0000
,
0130
0100
0100
0100
,
0001
1000
0001
1000
,
0020
0000
0000
0030
,
0200
0000
0000
0300
,
0020
0000
0000
0030
,
0200
0000
0000
0300
,
2000
0000
0000
3000
,
0002
0000
0000
0003
,
2000
0000
0000
3000
,
0002
0000
0000
0003
,
2000
0000
3200
0000
,
0320
0000
0032
0000
,
0103
0100
0000
1001
,
0010
0010
0000
1001
,
0200
0000
0302
0000
,
2003
0000
3020
0000
,
0130
0100
0100
0100
,
0001
1000
0001
0000
,
0020
0000
1030
0000
,
0001
0010
0100
0000
,
0020
0000
0031
0000
,
1000
0010
0100
0000
,
2000
0000
3010
0000
,
0100
0010
0001
0000
,
2000
0000
3100
0000
,
0100
0010
1000
0000
,
1001
0001
0000
0100
,
0010
0010
0001
0100
,
0010
0000
1000
0100
,
0010
0010
0001
1000
,
0220
0330
1000
0100
,
1000
0010
0100
0100
,
0001
1000
0010
0001
,
0200
0000
0000
0300
,
1001
0000
0001
0000
,
1000
0000
0002
1000
,
0103
0000
0010
0000
,
0100
0000
0020
0100
,
0031
0000
1000
0000
,
0001
0000
2000
0001
,
3010
0000
0100
0000
,
0020
0000
0130
0000
,
2000
0000
3200
0000
,
0320
0000
0032
0000
,
0103
0100
0000
1001
,
0010
0010
0000
1001
,
0200
0000
0302
0000
,
2003
0000
3020
0000
,
0130
0100
0100
0100
,
0001
1000
0001
1000
,
0010
0000
0000
0010
0000
0000
0010
0000
,
0002
0000
0000
0003
,
1000
0100
0010
0001
,
1001
0000
0110
0000
0000
0100
0000
0000
,
1001
0000
0000
0000
;

//---------------dance-single - ----------------
#NOTEDATA:;
#CHARTNAME:;
#STEPSTYPE:dance-single;
#DESCRIPTION:;
#CHARTSTYLE:;
#DIFFICULTY:Beginner;
#METER:3;
#RADARVALUES:0.141983,0.206177,0.063439,0.169171,0.000000,94.000000,88.000000,6.000000,16.000000,0.000000,0.000000,0.000000,0.000000,0.000000,0.141983,0.206177,0.063439,0.169171,0.000000,94.000000,88.000000,6.000000,16.000000,0.000000,0.000000,0.000000,0.000000,0.000000;
#CREDIT:kater15;
#DISPLAYBPM:170.000000;
#NOTES:
0000
0000
0000
0000
,
0000
0000
0000
0000
,
0000
0000
0000
0000
,
0000
0000
0000
0000
,
0000
0000
0000
0000
,
0020
0000
0030
0000
,
0200
0000
0300
0000
,
0001
0001
0000
0000
,
1000
1000
0000
0000
,
0020
0000
0030
0000
,
0200
0000
0300
0000
,
0001
0001
0000
0000
,
1000
1000
0000
0000
,
0010
0000
0000
0000
,
0010
0000
0000
0000
,
0100
0000
0000
0000
,
0100
0000
0000
0000
,
0001
0000
0000
0000
,
0001
0000
0000
0000
,
1000
0000
0000
0000
,
1000
0000
0000
0000
,
0020
0000
0030
0000
,
0200
0000
0300
0000
,
0001
0001
0000
0000
,
1000
1000
0000
0000
,
0020
0000
0030
0000
,
0200
0000
0300
0000
,
0001
0000
1000
0000
,
0100
0100
0000
0000
,
0010
0000
0001
0000
,
0100
0000
0000
0000
,
1000
0000
0001
0000
,
0100
0000
0000
0000
,
0100
0000
1000
0000
,
0010
0000
0000
0000
,
1000
0000
0001
0000
,
0010
0000
0000
0000
,
0002
0003
0000
0000
,
0100
0000
0010
0000
,
1001
0000
0000
0000
,
1000
0000
0001
0000
,
0110
0000
0000
0000
,
0010
0000
0100
0000
,
1001
0000
0000
0000
,
0001
0000
1000
0000
,
0110
0000
0000
0000
,
0001
0000
2000
0000
,
3000
0000
0010
0000
,
0100
0000
0001
0000
,
0010
0000
0001
0000
,
1000
0000
0002
0000
,
0003
0000
0100
0000
,
0010
0000
0110
0000
,
0020
0000
0030
0000
,
0200
0000
0300
0000
,
0001
0001
0000
0000
,
1000
1000
0000
0000
,
0020
0000
0030
0000
,
0200
0000
0300
0000
,
0001
0001
0000
0000
,
1000
1000
0000
0000
,
0010
0000
0000
0000
,
0200
0000
0000
0300
,
0100
0000
0001
0000
,
1000
1000
0000
0000
,
1001
0000
0000
0000
;

//---------------dance-single - ----------------
#NOTEDATA:;
#CHARTNAME:;
#STEPSTYPE:dance-single;
#DESCRIPTION:;
#CHARTSTYLE:;
#DIFFICULTY:Medium;
#METER:9;
#RADARVALUES:0.392718,0.481079,0.169171,0.676683,0.116305,260.000000,244.000000,16.000000,64.000000,0.000000,0.000000,0.000000,0.000000,0.000000,0.392718,0.481079,0.169171,0.676683,0.116305,260.000000,244.000000,16.000000,64.000000,0.000000,0.000000,0.000000,0.000000,0.000000;
#CREDIT:kater15;
#DISPLAYBPM:170.000000;
#NOTES:
0000
0000
0000
0000
,
0000
0000
0000
0000
,
0000
0000
0000
0000
,
0000
0000
0000
0000
,
0000
0000
0000
0000
,
2000
3200
2300
3002
,
0023
0032
2000
3003
,
0100
0000
0100
0000
0000
0001
1000
0000
,
0010
0000
0010
0000
0000
1000
0001
0000
,
0002
0023
0032
2003
,
3200
2300
0002
3003
,
0100
0000
0100
0000
0001
1000
0001
0000
,
0010
0000
0010
0000
1000
0001
1000
0000
,
0200
0000
0000
1000
0000
0000
0000
0000
0302
0000
0000
0010
0000
0000
0000
0000
,
2003
0000
0000
0100
0000
0000
0000
0000
3020
0000
0000
0001
0000
0000
0000
0000
,
0230
0000
0000
1000
0000
0000
0000
0000
0302
0000
0000
0010
0000
0000
0000
0000
,
2003
0000
0000
0100
0000
0000
0000
0000
3020
0000
0000
0001
0000
0000
0000
0000
,
1030
0000
0000
1001
0000
0000
0000
0000
0010
0000
0000
0110
0000
0000
0000
0000
,
0001
0000
0000
0011
0000
0000
0000
0000
1000
0000
0000
1100
0000
0000
0000
0000
,
0010
0000
0000
1010
0000
0000
0000
0000
0100
0000
0000
0101
0000
0000
0000
0000
,
0001
0000
0000
1001
0000
0000
0000
0000
0100
0000
0000
0110
0000
0000
0000
0000
,
2000
3200
2300
3002
,
0023
0032
2000
3003
,
0100
0000
0100
0000
0000
0001
1000
0000
,
0010
0000
0010
0000
0000
1000
0001
0000
,
0002
0023
0032
2003
,
3200
2300
0002
3003
,
0100
0100
0010
0010
,
1001
1001
0000
0000
,
0200
0001
1300
0000
,
0001
0000
0010
0000
0100
0000
0000
0000
0010
0000
0000
0110
0000
0000
0000
0000
,
0200
1000
0301
0000
,
1000
0000
0010
0000
0100
0000
0000
0000
0100
0000
0000
0110
0000
0000
0000
0000
,
0002
0010
0103
0000
,
0010
0000
1000
0000
0001
0000
0000
0000
1000
0000
0000
1001
0000
0000
0000
0000
,
0002
0100
0013
0000
,
0100
0000
1000
0000
0001
0000
0000
0000
0001
0000
0000
1001
0000
0000
1000
0000
,
0200
0300
0000
0010
,
0010
0000
1000
0100
0010
0000
1000
0001
,
0010
0000
0000
0010
0100
0000
0001
0000
,
0001
0000
0100
0010
1000
0000
0010
0100
,
0002
0003
0000
1000
,
1000
0000
0001
1000
0010
0000
0100
0001
,
0001
0100
0020
1030
,
0100
1000
0100
0000
0010
0001
0010
0000
,
0200
0000
0001
0001
,
0302
0000
1000
1000
,
2003
0000
0010
0010
,
3020
0000
0100
0100
,
0130
1000
0001
0000
0010
0000
0100
0000
,
0001
1000
0001
0000
0010
0000
0001
0000
,
0100
0100
1000
0000
0010
0000
0100
0000
,
0101
0000
0010
0000
1000
0100
0001
0100
,
2000
3200
2300
3002
,
0023
0032
2000
3003
,
0100
0000
0100
0000
0000
0001
1000
0000
,
0010
0000
0010
0000
0000
1000
0001
0000
,
0002
0023
0032
2003
,
3200
2300
0002
3003
,
0100
0000
0100
0000
0001
1000
0001
0000
,
0010
0000
0010
0000
1000
0001
1000
0000
,
0010
0010
0000
0100
0100
0000
1000
0100
,
0002
0000
1000
1003
,
0020
0000
0000
0100
0000
0000
0000
0000
0230
0000
0000
0010
0000
0000
0000
0000
,
0301
0000
0001
0000
0000
1000
0000
1000
,
1001
0000
0000
0000
;

//---------------dance-single - ----------------
#NOTEDATA:;
#CHARTNAME:;
#STEPSTYPE:dance-single;
#DESCRIPTION:;
#CHARTSTYLE:;
#DIFFICULTY:Hard;
#METER:12;
#RADARVALUES:0.522617,0.584168,0.232610,0.560378,0.248470,346.000000,324.000000,22.000000,53.000000,0.000000,0.000000,0.000000,0.000000,0.000000,0.522617,0.584168,0.232610,0.560378,0.248470,346.000000,324.000000,22.000000,53.000000,0.000000,0.000000,0.000000,0.000000,0.000000;
#CREDIT:kater15;
#DISPLAYBPM:170.000000;
#NOTES:
// measure 0
0000
0000
0000
0000
,  // measure 1
0000
0000
0000
0000
,  // measure 2
0000
0000
0000
0000
,  // measure 3
0000
0000
0000
0000
,  // measure 4
0000
0000
0000
0000
,  // measure 5
2000
0000
0000
0001
0000
0000
0010
0000
3002
0000
0000
1000
0000
0000
0010
0000
,  // measure 6
0203
0000
0000
1000
0000
0000
0001
0000
0020
0000
0000
0000
0330
0000
0000
0000
,  // measure 7
1100
0000
1010
0000
0010
1000
0100
0000
,  // measure 8
0011
0000
0101
0000
0100
1000
0010
0000
,  // measure 9
0002
0000
0000
1000
0000
0000
0100
0000
2003
0000
0000
0001
0000
0000
0100
0000
,  // measure 10
3020
0000
0000
0001
0000
0000
1000
0000
0200
0000
0000
0000
0330
0000
0000
0000
,  // measure 11
1000
0100
0001
0100
1000
0010
0010
0010
,  // measure 12
0010
0010
0001
0100
1000
0100
0001
0000
,  // measure 13
0100
0000
0000
0100
0000
0000
0100
0000
0001
0000
0000
0001
0000
0000
0001
0000
,  // measure 14
0010
0000
0000
0010
0000
0000
0010
0000
1000
0000
0000
1000
0000
0000
1000
0000
,  // measure 15
0100
0000
0000
0100
0000
0000
0100
0000
1000
0000
0000
1000
0000
0000
1000
0000
,  // measure 16
0010
0000
0000
0010
0000
0000
0010
0000
0001
0000
0000
0001
0000
0000
0001
0000
,  // measure 17
0200
0000
0000
0001
0300
0000
1000
0000
0020
0000
0000
1000
0030
0000
0100
0000
,  // measure 18
2000
0000
0000
0100
3000
0000
0010
0000
0002
0000
0000
0010
0003
0000
0100
0000
,  // measure 19
0020
0000
0000
1000
0030
0000
0001
0000
2000
0000
0000
0010
3000
0000
0100
0000
,  // measure 20
0002
0000
0000
1000
0003
0000
0010
0000
0200
0000
0000
0001
0300
0000
1000
0000
,  // measure 21
2000
0000
0000
0001
0000
0000
0010
0000
3002
0000
0000
1000
0000
0000
0010
0000
,  // measure 22
0203
0000
0000
1000
0000
0000
0001
0000
0020
0000
0000
0000
0330
0000
0000
0000
,  // measure 23
1100
0000
1010
0000
0010
1000
0100
0000
,  // measure 24
0011
0000
0101
0000
0100
1000
0010
0000
,  // measure 25
0002
0000
0000
1000
0000
0000
0100
0000
2003
0000
0000
0001
0000
0000
0100
0000
,  // measure 26
3020
0000
0000
0001
0000
0000
1000
0000
0200
0000
0000
0000
0330
0000
0000
0000
,  // measure 27
1000
0100
1000
0100
0001
0010
0001
0010
,  // measure 28
0200
0000
0000
0000
0300
0000
0000
0000
1000
0001
1000
0001
1000
0000
0000
0000
,  // measure 29
0001
0000
1100
0000
0010
0000
0000
0001
,  // measure 30
0100
0000
0010
0000
0020
0000
0000
0000
0001
0000
0000
0001
0030
0000
0000
0000
,  // measure 31
1000
0000
0011
0000
0100
0000
0000
1000
,  // measure 32
0010
0000
0100
0000
0200
0000
0000
0000
1000
0000
0000
1000
0300
0000
0000
0000
,  // measure 33
0010
0000
0101
0000
1000
0000
0000
0010
,  // measure 34
0001
0000
1000
0000
2000
0000
0000
0000
0010
0000
0000
0010
3000
0000
0000
0000
,  // measure 35
0100
0000
1010
0000
0001
0000
0000
0100
,  // measure 36
1000
0000
0001
0000
0002
0000
0000
0000
0100
0000
0000
0100
0003
0000
1000
0000
,  // measure 37
1001
0000
0000
0000
0200
0000
0000
0000
0300
0000
0000
0100
0001
0000
0000
0000
,  // measure 38
0010
0000
1000
0100
1000
0010
0010
0100
,  // measure 39
0001
0000
0000
0100
0010
0000
1000
0100
,  // measure 40
1000
0010
0100
0100
0001
1000
0010
0100
,  // measure 41
0220
0000
0000
0000
0330
0000
0000
0001
1000
0000
0000
0000
0010
0000
0000
0000
,  // measure 42
1000
0010
0010
1000
0100
0010
0001
0001
,  // measure 43
0100
0000
0000
0100
0000
0000
0100
0000
0001
0000
0000
0001
0000
0000
0001
0000
,  // measure 44
0010
1000
0010
0001
0100
1000
0100
0010
,  // measure 45
0002
0000
2000
0003
,  // measure 46
0020
3000
0200
0030
,  // measure 47
2000
0300
0002
3000
,  // measure 48
0020
0003
0200
0030
,  // measure 49
0301
0010
1000
0010
0001
0010
1000
0010
,  // measure 50
0100
0001
0010
0001
0100
0001
0010
0001
,  // measure 51
0100
1000
0001
1000
0010
1000
0001
1000
,  // measure 52
0020
0000
0200
0330
,  // measure 53
2000
0000
0000
0001
0000
0000
0010
0000
3002
0000
0000
1000
0000
0000
0010
0000
,  // measure 54
0203
0000
0000
1000
0000
0000
0001
0000
0020
0000
0000
0000
0330
0000
0000
0000
,  // measure 55
1100
0000
1010
0000
0010
1000
0100
0000
,  // measure 56
0011
0000
0101
0000
0100
1000
0010
0000
,  // measure 57
0002
0000
0000
1000
0000
0000
0100
0000
2003
0000
0000
0001
0000
0000
0100
0000
,  // measure 58
3020
0000
0000
0001
0000
0000
1000
0000
0200
0000
0000
0000
0330
0000
0000
0000
,  // measure 59
1000
0100
0001
0100
1000
0010
0010
0010
,  // measure 60
0010
0010
0001
0100
1000
0100
0001
0000
,  // measure 61
1000
1100
0000
0001
0101
0000
1000
0001
,  // measure 62
0020
0000
1000
0031
,  // measure 63
2000
0000
0000
0001
3000
0000
0100
0000
0002
0000
0000
1000
0003
0000
0100
0000
,  // measure 64
0011
0000
0000
0000
1010
0000
0000
0000
0000
0000
0010
0000
0000
0000
0001
1000
,  // measure 65
0001
0000
0000
0000
;
