#TITLE:Enka 1;
#SUBTITLE:;
#ARTIST:Bust A Groove OST;
#TITLETRANSLIT:;
#SUBTITLETRANSLIT:;
#ARTISTTRANSLIT:;
#GENRE:;
#CREDIT:;
#BANNER:Enka 1.png;
#BACKGROUND:Enka 1-bg.png;
#LYRICSPATH:;
#CDTITLE:cdtitle.png;
#MUSIC:Enka 1.ogg;
#OFFSET:0.000000;
#SAMPLESTART:12.400000;
#SAMPLELENGTH:15.000000;
#SELECTABLE:YES;
#DISPLAYBPM:80.000000:160.000000;
#BPMS:0.000000=37.500000
,4.000000=160.000000
,212.000000=80.000000
,244.000000=160.000000
;
#STOPS:
;
#BGCHANGES:;
#KEYSOUNDS:;
#ATTACKS:;

//---------------dance-single - ----------------
#NOTES:
     dance-single:
     :
     Easy:
     5:
     0.202500,0.310344,0.139925,0.018251,0.000000,233.000000,210.000000,23.000000,3.000000,0.000000,0.000000,0.202500,0.310344,0.139925,0.018251,0.000000,233.000000,210.000000,23.000000,3.000000,0.000000,0.000000:
0000
0000
0000
0000
,
0000
0000
0000
0000
,
0000
0000
0000
0000
,
0000
0000
0000
0000
,
1000
0100
0010
0001
,
1000
0100
1001
0000
,
1000
0000
0100
0000
,
0100
0000
0001
0000
,
0100
0000
0001
0000
,
0010
0010
1001
0000
,
1000
0000
0100
0000
,
0100
0000
0010
0000
,
1000
0000
0001
0000
,
0100
0100
0110
0000
,
1000
0000
0100
0000
,
0100
0000
0001
0000
,
0001
0000
1000
0000
,
0010
0010
0110
0000
,
1000
0000
0001
0000
,
0001
0000
0100
0000
,
0100
0000
0010
0000
,
1000
0000
0000
0000
,
0001
0000
0000
0000
,
0100
0000
0000
0000
,
0010
0000
0000
0000
,
0001
0000
0000
0000
,
1000
0000
0000
0000
,
0100
0000
0000
0000
,
0010
0000
0000
0000
,
1000
0100
0001
0000
,
1000
0000
1000
0000
,
0001
0010
1000
0000
,
0001
0000
0001
1000
,
1001
0000
0100
0000
,
0010
0000
0001
0000
,
2000
0000
0000
3000
,
1000
0100
0001
0010
,
0100
0100
0110
0000
,
1000
0000
0100
0000
,
1000
0000
0001
0000
,
0010
0000
0001
0000
,
0001
0001
0110
0000
,
0100
0000
1000
0000
,
0010
0000
0100
0000
,
0001
0000
0010
0000
,
0010
0010
1001
0000
,
0100
0000
0001
0000
,
0010
0000
0100
0000
,
1000
0000
0001
0000
,
0001
0001
1001
0000
,
0100
0000
0100
0000
,
0001
0000
1000
0000
,
0200
0000
0000
0300
,
1000
0000
0100
0000
,
0010
0000
0100
0000
,
0100
0000
1000
0000
,
0001
0000
0010
0000
,
0100
0100
0010
0000
,
1000
0000
1000
0010
,
0010
0000
1000
0000
,
0100
1001
0010
1001
,
0100
0100
0110
0000
,
1000
0000
0001
0000
,
0100
0000
0010
0000
,
1000
0000
0100
0000
,
0001
0100
0110
0000
,
1000
0000
1000
0000
,
0001
0000
0010
0000
,
0001
0000
0100
0000
,
0010
1000
1001
0000
,
0100
0000
0100
0000
,
0001
0000
0010
0000
,
0010
0000
1000
0000
,
0010
0100
1001
0000
,
1000
0000
0001
0000
,
0100
0000
1000
0000
,
0020
0000
0000
0030
,
0100
0100
1001
0000
,
0010
0001
0100
0000
,
1000
1000
0110
0000
,
0001
1000
0001
1000
,
0100
0100
0110
0000
,
0100
1000
0001
0000
,
0010
0010
1001
0000
,
1000
0010
1000
0010
,
0100
0001
1001
0000
,
1000
0010
0100
0000
,
0001
1000
0110
0000
,
0100
0001
0100
0001
,
0010
0100
0110
0000
,
1000
1000
0001
0000
,
0100
0010
1001
0000
,
0100
0010
0100
0010
;

//---------------dance-single - ----------------
#NOTES:
     dance-single:
     :
     Beginner:
     2:
     0.078219,0.111331,0.000000,0.048669,0.000000,90.000000,90.000000,0.000000,8.000000,0.000000,0.000000,0.078219,0.111331,0.000000,0.048669,0.000000,90.000000,90.000000,0.000000,8.000000,0.000000,0.000000:
// measure 0
0000
0000
0000
0000
,  // measure 1
0000
0000
0000
0000
,  // measure 2
0000
0000
0000
0000
,  // measure 3
0000
0000
0000
0000
,  // measure 4
0000
0000
0000
0000
,  // measure 5
1000
1000
1000
0000
,  // measure 6
0000
0000
0000
0000
,  // measure 7
1000
0000
0000
0000
,  // measure 8
0000
0000
0000
0000
,  // measure 9
0100
0100
0100
0000
,  // measure 10
0000
0000
0000
0000
,  // measure 11
0100
0000
0000
0000
,  // measure 12
0000
0000
0000
0000
,  // measure 13
0010
0010
0010
0000
,  // measure 14
0000
0000
0000
0000
,  // measure 15
0010
0000
0000
0000
,  // measure 16
0000
0000
0000
0000
,  // measure 17
0001
0001
0001
0000
,  // measure 18
0000
0000
0000
0000
,  // measure 19
0001
0000
0000
0000
,  // measure 20
0000
0000
0000
0000
,  // measure 21
2000
0000
0000
3000
,  // measure 22
0000
0000
0000
0000
,  // measure 23
0200
0000
0000
0300
,  // measure 24
0000
0000
0000
0000
,  // measure 25
0020
0000
0000
0030
,  // measure 26
0000
0000
0000
0000
,  // measure 27
0002
0000
0000
0003
,  // measure 28
0000
0000
0000
0000
,  // measure 29
0100
0000
0100
0000
,  // measure 30
1000
0000
0000
0000
,  // measure 31
0010
0000
0000
0000
,  // measure 32
0100
0000
0000
0000
,  // measure 33
0010
0000
0010
0000
,  // measure 34
0001
0000
0000
0000
,  // measure 35
0100
0000
0000
0000
,  // measure 36
0100
0000
0000
0000
,  // measure 37
1000
1000
1000
0000
,  // measure 38
0000
0000
0000
0000
,  // measure 39
1000
0000
0000
0000
,  // measure 40
0000
0000
0000
0000
,  // measure 41
0100
0100
0100
0000
,  // measure 42
0000
0000
0000
0000
,  // measure 43
0100
0000
0000
0000
,  // measure 44
0000
0000
0000
0000
,  // measure 45
0010
0010
0010
0000
,  // measure 46
0000
0000
0000
0000
,  // measure 47
0010
0000
0000
0000
,  // measure 48
0000
0000
0000
0000
,  // measure 49
0001
0001
0001
0000
,  // measure 50
0000
0000
0000
0000
,  // measure 51
0001
0000
0000
0000
,  // measure 52
0000
0000
0000
0000
,  // measure 53
2000
0000
0000
0000
,  // measure 54
3000
0000
0000
0000
,  // measure 55
0200
0000
0000
0000
,  // measure 56
0300
0000
0000
0000
,  // measure 57
0020
0000
0000
0000
,  // measure 58
0030
0000
0000
0000
,  // measure 59
0002
0000
0000
0000
,  // measure 60
0003
0000
0000
0000
,  // measure 61
1000
1000
1000
0000
,  // measure 62
0000
0000
0000
0000
,  // measure 63
1000
0000
0000
0000
,  // measure 64
0000
0000
0000
0000
,  // measure 65
0100
0100
0100
0000
,  // measure 66
0000
0000
0000
0000
,  // measure 67
0100
0000
0000
0000
,  // measure 68
0000
0000
0000
0000
,  // measure 69
0010
0010
0010
0000
,  // measure 70
0000
0000
0000
0000
,  // measure 71
0010
0000
0000
0000
,  // measure 72
0000
0000
0000
0000
,  // measure 73
0001
0001
0001
0000
,  // measure 74
0000
0000
0000
0000
,  // measure 75
0001
0000
0000
0000
,  // measure 76
0000
0000
0000
0000
,  // measure 77
1000
1000
1000
0000
,  // measure 78
0000
0000
0000
0000
,  // measure 79
0100
0100
0100
0000
,  // measure 80
0000
0000
0000
0000
,  // measure 81
0001
0001
0001
0000
,  // measure 82
0000
0000
0000
0000
,  // measure 83
0010
0010
0010
0000
,  // measure 84
0000
0000
0000
0000
,  // measure 85
1000
1000
1000
0000
,  // measure 86
0000
0000
0000
0000
,  // measure 87
0100
0100
0100
0000
,  // measure 88
0000
0000
0000
0000
,  // measure 89
0010
0010
0010
0000
,  // measure 90
0000
0000
0000
0000
,  // measure 91
0001
0001
0001
0000
;

//---------------dance-single - ----------------
#NOTES:
     dance-single:
     :
     Medium:
     7:
     0.280719,0.367759,0.109506,0.103423,0.000000,323.000000,305.000000,18.000000,17.000000,0.000000,0.000000,0.280719,0.367759,0.109506,0.103423,0.000000,323.000000,305.000000,18.000000,17.000000,0.000000,0.000000:
0000
0000
0000
0000
,
0000
0000
0000
0000
,
0000
0000
0000
0000
,
0000
0000
0000
0000
,
0100
1000
0100
0001
,
0010
1000
1100
0000
,
1000
0000
0100
0000
,
1000
0000
0010
0000
,
0001
0000
0010
0000
0100
0000
0010
1000
,
0100
1000
0011
0000
,
1000
0000
0001
0000
,
0100
0000
0010
0000
,
1000
0000
0100
0000
1000
0000
1000
0001
,
0100
0010
1010
0000
,
0100
0000
0100
0000
,
0001
0000
1000
0000
,
0010
0000
0001
0000
0001
0000
1000
0010
,
1000
0100
0101
0000
,
1000
0000
0001
0000
,
1000
0000
0100
0000
,
0010
0000
0010
0000
1000
0000
0001
0100
,
1000
0000
1000
0000
0000
0001
0000
0000
,
0001
0000
0001
0000
0000
0100
0000
0000
,
0100
0000
0100
0000
0000
0010
0000
0000
,
0010
0000
0010
0000
0000
1000
0000
0000
,
1000
0000
0001
0000
0000
0010
0000
0000
,
0100
0000
0001
0000
0000
1000
0000
0000
,
1000
0000
0100
0000
0000
1000
0000
0000
,
0010
0000
0010
0000
0000
0100
0000
0000
,
0001
1000
0100
0000
,
0100
0000
1000
0100
,
0010
0010
1000
0000
,
0100
0000
2000
0001
,
3100
0000
0010
0000
,
1000
0000
0000
0000
0100
0000
0001
0100
,
1000
0000
1100
0000
,
1000
0100
0010
0001
,
0100
0010
0110
0000
,
1000
0000
0100
0000
,
0010
0000
0100
0000
,
1000
0000
0001
0000
0001
0000
0100
0010
,
1000
0100
1010
0000
,
0100
0000
0001
0000
,
0100
0000
0010
0000
,
0100
0000
0100
0000
0010
0000
0100
0001
,
1000
0001
0110
0000
,
1000
0000
0001
0000
,
1000
0000
0001
0000
,
0100
0000
0010
0000
1000
0000
0100
0001
,
0001
0100
0011
0000
,
1000
0000
0100
0000
,
0001
0000
1000
0000
,
2000
3002
2003
3002
,
0103
0000
1000
0000
0100
0000
0010
0001
,
0100
0010
0110
0000
,
1000
0100
0100
1000
,
0001
0010
0011
0000
,
1000
0100
1000
0010
,
0010
0000
0100
0000
1001
0000
0010
0001
,
0100
0000
0100
0000
0010
0000
1000
0100
,
0001
0101
1000
1100
,
0010
0001
0011
0000
,
0100
0000
0100
0000
,
0010
0000
1000
0000
,
0010
0000
0001
0000
0100
0000
1000
0001
,
0010
0010
0110
0000
,
0010
0000
1000
0000
,
0001
0000
0010
0000
,
0100
0000
0100
0000
0001
0000
0010
0010
,
0100
1000
1100
0000
,
1000
0000
0001
0000
,
0010
0000
0001
0000
,
0100
0000
0010
0000
1000
0000
0100
0100
,
0100
0001
1001
0000
,
1000
0000
0100
0000
,
1000
0000
0001
0000
,
0200
0320
0230
0320
,
2030
0000
0001
0000
0010
0000
0001
3000
,
0100
0000
0010
0000
1000
0000
0010
0001
,
0200
0000
1000
0000
0001
0000
1000
0300
,
0010
0000
1000
0000
0010
1000
0100
0010
,
0002
0000
0100
0000
0010
0000
0100
0003
,
1000
0000
0001
0000
0001
0000
0010
0010
,
0200
0000
0010
0000
0001
0000
0010
0300
,
1000
0000
0100
0000
0100
0010
1000
0001
,
0020
0000
0100
0000
0001
0000
0100
0030
,
1000
0000
0100
0000
0010
0000
1000
0100
,
2000
0000
0100
0000
0001
0000
0100
3000
,
0010
0000
0001
0000
1000
0100
0100
0001
,
0020
0000
0100
0000
1000
0000
0100
0030
,
1000
0000
0100
0000
0100
0000
0001
0001
,
0020
0000
1000
0000
0001
0000
1000
0030
,
0100
1000
0001
0000
0010
1000
0100
0010
,
1000
0000
0000
0000
;

//---------------dance-single - ----------------
#NOTES:
     dance-single:
     :
     Hard:
     11:
     0.418905,0.452018,0.164260,0.158176,0.000000,482.000000,455.000000,27.000000,26.000000,0.000000,0.000000,0.418905,0.452018,0.164260,0.158176,0.000000,482.000000,455.000000,27.000000,26.000000,0.000000,0.000000:
0000
0000
0000
0000
,
0000
0000
0000
0000
,
0000
0000
0000
0000
,
0000
0000
0000
0000
,
0000
0000
0000
0000
,
0200
1000
0301
0010
,
1000
0100
0001
0000
0010
0000
1000
0000
,
0001
0000
0100
0000
0010
0001
0010
0000
,
0100
0000
0010
0100
1000
0001
0010
0010
,
0200
0000
0001
0000
0310
0000
1000
0100
,
0010
0100
0001
1000
,
0100
0001
1000
0000
0001
0000
0101
0000
,
0000
0000
0100
0010
1000
0100
1000
1000
,
0002
0100
1003
0100
,
0010
1000
0100
1000
0001
0000
0100
0000
,
0010
1000
0100
0101
,
0010
0000
1000
0100
1000
0001
0010
0100
,
2000
0000
0010
0000
3100
0000
0001
0100
,
0010
1000
0100
0110
,
1000
1000
0100
0001
,
1000
0100
1000
0001
0010
0001
0100
0100
,
0010
0000
0001
0000
0000
0001
0000
0001
,
0010
0000
0100
0000
0000
0001
0000
1000
,
0010
0000
1000
0000
0000
0100
0000
0010
,
0010
0000
0100
0000
0000
0001
0000
0010
,
0001
0000
1000
0000
0000
1000
0000
0100
,
1000
0000
0010
0000
0000
0100
0000
0001
,
0100
0000
0010
0000
0000
0010
0000
0001
,
0100
0000
0010
0000
0000
0010
0000
1000
,
0100
0010
0101
0020
,
1000
0000
0130
0000
0001
0000
1000
0100
,
0010
0000
0101
0000
0001
0000
1000
0010
,
0002
1000
0103
0010
,
1000
0000
0001
0000
0100
0000
0010
1000
,
0200
0001
0001
1300
,
0100
0001
0100
0000
0010
1000
0010
0000
,
0011
0101
1100
1010
,
2000
0001
3100
0100
,
0010
0000
0001
1000
0100
0000
0010
0000
,
0100
0010
1000
0001
0200
0000
0301
0000
,
0010
1000
0100
0000
0001
1000
0010
0001
,
0002
0000
0010
0000
0103
0000
1000
0100
,
0010
0000
1000
0100
0001
0000
0010
0000
,
0001
0000
0100
0000
0001
1000
1000
0010
,
1000
0000
0001
0010
0100
0001
1000
1000
,
0200
0000
1000
0000
0301
0000
0010
0001
,
1000
0100
0011
1000
,
0100
0000
0010
1000
0100
0000
1000
0000
,
0010
0000
1000
0010
0001
0100
0010
1000
,
0200
0000
0001
0000
0310
0000
0001
1000
,
1000
0100
0001
0110
,
1000
0000
0100
0010
0100
0000
0011
0000
,
1000
0001
0100
0001
0010
1000
0100
1000
,
0010
0001
0100
0000
0010
0000
1000
0000
,
0100
0001
0100
0010
1000
0100
0010
0010
,
0001
0110
0010
1000
,
0100
0100
0002
0000
0010
0000
1003
0000
,
0100
0001
0010
0000
1000
0000
0001
0000
,
0100
0100
1000
0000
0010
0000
0001
0010
,
0001
0000
0100
0000
1000
0000
0010
1000
,
0100
0101
0001
1001
,
0020
0000
0100
0000
0031
0000
1000
0100
,
0001
0100
0011
1000
,
0100
0001
1000
1000
0200
0000
0301
0000
,
1000
0100
0001
0000
0010
0001
0010
0010
,
2000
0000
0001
0000
3001
0000
0100
1000
,
0001
0010
0011
1000
,
0100
0000
0001
0001
0100
0000
0010
0000
,
1100
1100
0011
1100
,
0200
0000
1000
0000
0310
0000
0001
1000
,
0010
1000
0110
0001
,
0100
0010
1000
0100
1000
0000
0010
0000
,
0001
0010
0001
0000
0100
0001
1000
0001
,
0020
0000
1000
0000
0031
0000
0100
0010
,
1000
0100
1001
0010
,
1000
0001
0100
0010
0001
0000
0100
0000
,
1010
0101
1010
0101
,
0200
0000
0001
0000
1000
0000
0010
0301
,
1000
0000
0010
0001
0100
0000
0010
1000
,
0002
0000
1000
0000
0100
0000
1000
0013
,
0100
0000
0001
0010
0001
1000
1000
0100
,
0020
0000
1000
0000
0001
0000
1000
0130
,
0010
0000
0001
1000
0100
0000
0001
0001
,
2000
0000
0010
0000
0001
0000
0010
3001
,
1000
0000
0010
0010
0001
1000
0010
0001
,
0200
0000
0001
0000
1000
0000
0010
0301
,
1000
0000
0010
0001
0100
0000
0010
1000
,
0002
0000
1000
0000
0100
0000
1000
0013
,
0100
0000
0001
0010
0001
1000
1000
0100
,
0020
0000
1000
0000
0001
0000
1000
0130
,
0010
0000
0001
1000
0100
0000
0001
0001
,
2000
0000
0010
0000
0001
0000
0010
3001
,
1000
0000
0010
0010
0001
1000
0010
0001
;

//---------------dance-single - ----------------
#NOTES:
     dance-single:
     :
     Challenge:
     14:
     0.550139,0.537133,0.237264,0.109506,0.267682,633.000000,594.000000,39.000000,18.000000,0.000000,0.000000,0.550139,0.537133,0.237264,0.109506,0.267682,633.000000,594.000000,39.000000,18.000000,0.000000,0.000000:
0000
0000
0000
0000
,
0000
0000
0000
0000
,
0000
0000
0000
0000
,
0000
0000
0000
0000
,
0000
0000
0000
0000
,
1100
0000
0011
0000
0101
0000
1000
0100
,
0001
0000
1000
0010
0001
0000
0100
0000
,
0010
0100
0001
0010
1000
0000
0100
0000
,
1000
0000
0100
0000
0001
0000
0000
0000
1000
0001
0100
0000
1000
0001
0010
0000
,
0100
0000
0011
0000
1010
0000
1000
0100
,
0100
0000
0001
0001
1000
0000
0010
0000
,
1000
0100
0001
0010
0001
0000
0100
0000
,
1000
0000
0100
0000
0001
0000
0000
0000
0100
1000
0001
0000
1000
0010
0100
0000
,
0001
0000
0110
0000
1100
0000
0001
1000
,
0100
0000
0010
0001
0100
0000
0010
0000
,
1000
0001
1000
0100
0010
0000
1000
0000
,
0001
0000
1000
0000
0100
0000
0000
0000
0010
1000
0001
0000
0100
1000
0001
0000
,
0100
0000
0011
0000
1001
0000
0100
0001
,
0010
0000
1000
0100
0010
0000
1000
0000
,
0010
0010
0001
0100
0010
0000
1000
0000
,
1000
0000
0100
0000
1000
0000
0000
0000
0001
0010
1000
0000
0001
0100
1000
0000
,
0010
0000
0011
0000
0000
0011
0000
0001
,
1000
0000
0110
0000
0000
1100
0000
1000
,
0001
0000
0011
0000
0000
1001
0000
0010
,
0001
0000
0000
0000
0101
0000
0000
0000
0000
0000
0010
0000
1000
0001
1000
0000
,
0100
0000
1001
0000
0010
0100
0001
1000
,
0100
0000
1010
0000
0000
0100
0001
0100
,
0010
1000
0100
0000
0000
1001
0000
1000
,
0001
0000
0000
0000
0110
0000
0000
0000
0000
0000
0001
0000
1000
0001
0100
0000
,
0010
0000
1000
0100
0001
0000
1000
0010
0001
0000
0000
0000
0100
0000
0000
0000
,
0010
0000
1000
0000
1100
0000
0010
0001
,
0100
0001
1000
0010
0100
0000
1001
0000
,
0001
0000
0000
0000
0010
0000
0000
0000
0100
0000
0010
0000
0001
1000
0100
0000
,
1000
0000
0001
0001
0010
0001
1000
0000
,
0010
0001
0100
0010
0100
0000
1001
1001
,
1002
0000
1000
0003
,
1100
0101
0011
1010
,
0200
0000
1000
0000
0301
0000
1000
0100
,
0010
0000
1000
0001
0010
0000
0100
0001
,
0010
0000
1000
0100
0010
0000
1001
0000
,
1000
0000
0100
0000
0001
0000
1000
0100
0001
0000
1000
0001
1000
0010
1000
0001
,
0020
0000
0001
0000
1030
0000
0001
0010
,
0100
0000
0001
1000
0100
0000
0010
1000
,
0100
0000
0001
0010
0100
0000
1001
0000
,
0001
0000
0010
0000
1000
0000
0001
0010
1000
0000
0001
1000
0001
0100
0001
1000
,
0002
0000
0100
0000
0013
0000
0100
0001
,
1000
0000
0100
0010
1000
0000
0001
0010
,
1000
0000
0100
0001
1000
0000
0110
0000
,
0100
0000
0001
0000
0010
0000
0100
0001
0010
0000
0100
0010
0100
1000
0100
0010
,
2000
0000
0010
0000
3100
0000
0010
1000
,
0001
0000
0010
0100
0001
0000
1000
0100
,
0001
0000
0010
1000
0001
0000
0110
0000
,
0010
0000
1000
0000
0100
0000
0010
1000
0100
0000
0010
0100
0001
0000
0010
0000
,
0001
1000
0100
0000
0010
0000
0001
0010
,
1000
1000
0100
0010
0100
0000
0001
0000
,
1000
0000
0100
0000
1000
0000
1000
0000
0001
0000
0000
0000
0000
1000
0100
0010
,
0001
0000
0100
0000
1000
0000
0000
0000
0010
0000
0001
0000
0100
0000
0010
1000
,
0002
0100
0100
1003
,
1000
0100
0001
0000
0010
0000
0000
0000
1000
0000
0000
0000
0001
0000
0010
0000
,
1000
0000
0100
0000
1000
0000
0010
0000
0010
0000
0001
0000
0000
0000
1000
0100
,
0001
0101
1000
1100
,
0200
0000
1000
0000
0301
0000
1000
0100
,
0010
0000
1000
0001
0010
0000
0100
0001
,
0010
0000
1000
0100
0010
0000
1001
0000
,
1000
0000
0100
0000
0001
0000
1000
0100
0001
0000
1000
0001
1000
0010
1000
0001
,
0020
0000
0001
0000
1030
0000
0001
0010
,
0100
0000
0001
1000
0100
0000
0010
1000
,
0100
0000
0001
0010
0100
0000
1001
0000
,
0001
0000
0010
0000
1000
0000
0001
0010
1000
0000
0001
1000
0001
0100
0001
1000
,
0002
0000
0100
0000
0013
0000
0100
0001
,
1000
0000
0100
0010
1000
0000
0001
0010
,
1000
0000
0100
0001
1000
0000
0110
0000
,
0100
0000
0001
0000
0010
0000
0100
0001
0010
0000
0100
0010
0100
1000
0100
0010
,
2000
0000
0010
0000
3100
0000
0010
1000
,
0001
0000
0010
0100
0001
0000
1000
0100
,
0001
0000
0010
1000
0001
0000
0110
0000
,
0010
0000
1000
0000
0100
0000
0010
1000
0100
0000
0010
0100
0001
1000
0001
0100
,
0002
0000
1000
0000
1000
0000
1000
0103
,
0010
0000
0000
0000
1000
0100
0001
0000
1000
0001
0010
0001
0100
0001
0010
0001
,
2000
0000
0001
0000
0001
0000
0001
3010
,
0100
0000
0000
0000
0001
0010
1000
0000
0001
1000
0100
1000
0010
1000
0100
1000
,
0020
0000
0100
0000
0100
0000
0100
0031
,
1000
0000
0000
0000
0100
0001
0010
0000
0100
0010
1000
0010
0001
0010
1000
0010
,
0200
0000
0010
0000
0010
0000
0010
1300
,
0001
0000
0000
0000
0010
1000
0100
0000
0010
0100
0001
0100
1000
0100
0001
0100
,
2000
0000
0001
0000
0001
0000
0001
3010
,
0100
0000
0000
0000
0001
0010
1000
0000
0001
1000
0100
1000
0010
1000
0100
1000
,
0002
0000
1000
0000
1000
0000
1000
0103
,
0010
0000
0000
0000
1000
0100
0001
0000
1000
0001
0010
0001
0100
0001
0010
0001
,
0200
0000
0010
0000
0010
0000
0010
1300
,
0001
0000
0000
0000
0010
1000
0100
0000
0010
0100
0001
0100
1000
0100
0001
0100
,
0020
0000
0100
0000
0100
0000
0100
0031
,
1000
0000
0000
0000
0100
0001
0010
0000
0100
0010
1000
0010
0001
0010
1000
0010
;
