#TITLE:Darkness Divine;
#SUBTITLE:;
#ARTIST:TripMX;
#TITLETRANSLIT:;
#SUBTITLETRANSLIT:;
#ARTISTTRANSLIT:;
#GENRE:;
#CREDIT:;
#BANNER:Darkness Divine.png;
#BACKGROUND:Darkness Divine-bg.png;
#LYRICSPATH:;
#CDTITLE:;
#MUSIC:Darkness Divine.ogg;
#OFFSET:1.166000;
#SAMPLESTART:5.800000;
#SAMPLELENGTH:15.000000;
#LASTBEATHINT:0.462033;
#SELECTABLE:YES;
#DISPLAYBPM:167.000000;
#BPMS:0.000000=167.000000
;
#STOPS:
;
#BGCHANGES:;
#KEYSOUNDS:;
#ATTACKS:;

//---------------dance-single - ----------------
#NOTES:
     dance-single:
     :
     Easy:
     5:
     0.176503,0.374126,0.131881,0.423408,0.000000,178.000000,159.000000,19.000000,61.000000,0.000000,0.000000,0.176503,0.374126,0.131881,0.423408,0.000000,178.000000,159.000000,19.000000,61.000000,0.000000,0.000000:
0000
0000
0000
0000
,
0000
0000
0000
0000
,
0000
0000
0000
0000
,
0000
0000
0000
0000
,
0000
0000
0000
0000
,
1000
0100
0100
0010
,
0001
0000
0000
1000
0000
0000
0100
0000
,
0010
0000
0000
0001
0000
0000
0100
0000
,
1001
0000
0000
0000
,
1000
0000
0001
0000
,
0100
0000
0010
0000
,
0100
0000
0001
0000
,
0010
0000
1001
0100
,
0010
0000
0001
0000
,
1000
0010
0000
0000
,
0001
0000
0100
0000
,
0010
0110
0000
1000
,
0010
0000
1000
0000
,
0100
1001
0000
1000
,
0100
0000
1000
0000
,
0001
0000
0000
0100
,
0010
0000
0001
0000
,
0100
0110
0000
1000
,
0001
0000
0010
0000
,
0001
1000
0000
0010
,
0100
0000
1000
0000
,
0010
0000
0000
0100
,
0010
0000
1000
0000
,
0200
0000
0000
0300
,
0020
0030
0002
0003
,
2000
0000
0000
3000
,
0020
0030
0002
0003
,
0200
0000
0000
0300
,
0020
0030
2000
3000
,
0002
0000
0000
0000
,
0000
0000
0000
0000
,
0000
0000
0000
0000
,
0000
0000
0000
0003
,
0200
0300
2000
3000
,
0020
0030
0200
0300
,
0002
0000
0000
0003
,
0200
0000
0000
0300
,
0020
0000
0000
0030
,
2000
0000
0000
3000
,
0002
0000
0000
0000
,
0000
0000
0000
0000
,
0003
0000
0000
0000
,
0001
0000
0010
0000
,
1000
0000
0100
0000
,
0010
0000
0000
0000
,
0001
0000
0000
0000
,
1000
0000
0000
0000
,
0100
0100
0100
0100
,
0010
0010
0010
0010
,
1000
1000
0000
0001
,
0010
0000
1001
0000
,
0100
0001
0100
1000
,
0100
0010
1000
0001
,
0010
0100
1000
0010
,
0010
0100
0010
1000
,
0110
0001
0100
0001
,
0010
0010
1000
0010
,
1001
0100
0010
0100
,
0110
0001
1000
0001
,
0020
0030
0002
0003
,
0200
0300
0010
0100
,
2000
0000
0000
3000
,
0002
0000
0000
0003
,
0020
0000
0000
0030
,
0200
0000
0000
0300
,
2002
0000
0000
3003
,
0200
0000
0000
0300
,
0002
0000
0000
0003
,
0200
0300
0020
0030
,
2000
3000
0020
0030
,
0200
0000
0000
0300
,
0020
0000
0000
0030
,
2000
0000
0000
3000
,
0002
0000
0000
0003
,
0200
0000
0000
0300
,
2002
0000
0000
0000
,
0000
0000
0000
3003
,
0220
0000
0000
0030
,
0002
0000
0000
0303
,
2200
0000
0000
0000
,
0000
0000
0000
3300
,
0202
0000
0000
0300
,
2000
0000
0000
3003
,
0022
0000
0000
0000
,
0000
0000
0000
0033
,
0202
0000
0000
0003
,
0020
0000
0000
0330
,
2002
0000
0000
0000
,
0000
0000
0000
3003
,
2020
0000
0000
3000
,
0200
0000
0000
0330
,
2002
0000
0000
0000
,
0000
0000
0000
0000
,
3003
0000
0000
0000
;

//---------------dance-single - ----------------
#NOTES:
     dance-single:
     :
     Beginner:
     4:
     0.126923,0.238080,0.034706,0.104117,0.000000,128.000000,123.000000,5.000000,15.000000,0.000000,0.000000,0.126923,0.238080,0.034706,0.104117,0.000000,128.000000,123.000000,5.000000,15.000000,0.000000,0.000000:
0000
0000
0000
0000
,
0000
0000
0000
0000
,
0000
0000
0000
0000
,
0000
0000
0000
0000
,
0000
0000
0000
0000
,
1000
0000
0000
0000
,
0100
0000
0000
0000
,
1000
0000
0000
0000
,
0010
0000
0000
0000
,
0001
0000
1000
0000
,
0001
0000
1000
0000
,
0100
0000
0010
0000
,
0001
0000
0000
0000
,
1000
0000
1000
0000
,
1000
0000
0000
0000
,
0001
0000
0001
0000
,
0001
0000
0000
0000
,
0010
0000
0010
0000
,
0010
0000
0000
0000
,
0100
0000
0100
0000
,
0100
0000
0000
0000
,
0010
0000
0010
0000
,
0010
0000
0000
0000
,
1000
0000
1000
0000
,
1000
0000
0000
0000
,
0001
0000
0001
0000
,
0001
0000
0000
0000
,
0100
0000
0100
0000
,
0100
0000
0000
0000
,
0010
0000
0001
0000
,
0100
0000
0000
0000
,
0010
0000
0000
0000
,
0001
0000
0000
0000
,
0100
0000
0000
0000
,
2000
0000
0000
0000
,
0000
0000
0000
0000
,
3000
0000
0000
0000
,
0000
0000
0000
0000
,
0100
0000
0010
0000
,
0001
0000
0100
0000
,
1000
0000
0000
0000
,
0100
0000
0000
0000
,
0010
0000
0000
0000
,
0001
0000
0000
0000
,
1000
0000
0000
0000
,
0000
0000
0000
0000
,
1001
0000
0000
0000
,
0100
0000
0000
0000
,
0000
0000
0000
0000
,
0110
0000
0000
0000
,
0110
0000
0000
0000
,
0110
0000
0000
0000
,
0001
0001
0001
0000
,
1000
1000
1000
0000
,
0001
0001
0000
0000
,
0010
0000
1000
0000
,
0100
0000
0001
0000
,
0010
0000
0100
0000
,
1000
0000
1000
0000
,
0001
0000
0001
0000
,
0100
0000
0010
0000
,
1000
0000
0010
0000
,
0100
0000
0001
0000
,
0001
0000
1000
0000
,
0010
0000
0100
0000
,
1000
0000
0010
0010
,
0010
0000
0000
0000
,
1000
0000
0000
0000
,
0100
0000
0010
0000
,
0001
0000
0100
0000
,
0010
0000
0000
0000
,
1000
0000
0001
0001
,
0001
0000
0000
0000
,
0010
0000
0100
0000
,
0001
0000
0100
0000
,
1000
0000
0000
0000
,
0001
0000
0000
0000
,
1000
0000
0100
0000
,
0010
0000
0000
0000
,
0001
0000
0100
0100
,
0200
0000
0000
0000
,
0000
0000
0300
0000
,
0020
0000
0030
0000
,
0002
0000
0003
0000
,
0200
0000
0000
0000
,
0000
0000
0300
0000
,
0002
0000
0003
0000
,
2000
0000
3000
0000
,
0020
0000
0000
0000
,
0000
0000
0030
0000
,
2000
0000
3000
0000
,
0002
0000
0003
0000
,
0020
0000
0000
0000
,
0000
0000
0030
0000
,
0200
0000
0300
0000
,
2000
0000
3000
0000
,
0220
0000
0000
0000
,
0000
0000
0000
0000
,
0330
0000
0000
0000
;

//---------------dance-single - ----------------
#NOTES:
     dance-single:
     :
     Medium:
     9:
     0.255830,0.476161,0.145763,0.381762,0.027764,258.000000,237.000000,21.000000,55.000000,0.000000,0.000000,0.255830,0.476161,0.145763,0.381762,0.027764,258.000000,237.000000,21.000000,55.000000,0.000000,0.000000:
0000
0000
0000
0000
,
0000
0000
0000
0000
,
0000
0000
0000
0000
,
0000
0000
0000
0000
,
0000
0000
0000
0000
,
0100
0000
0010
0001
0000
0000
0100
0000
,
0010
0000
0000
1100
0000
0000
0010
0000
,
0001
0000
0000
0101
0000
0000
0100
0000
,
0010
0001
0000
0000
0000
0000
0000
0000
,
0100
0000
1000
0000
0010
0000
0100
0000
0001
0000
1000
0000
,
1000
0000
0010
0000
0100
0000
0010
0000
0100
0000
0001
0000
,
1000
0000
0000
0010
,
1000
0001
1000
0000
0000
0000
0010
0000
,
0002
0000
2003
0000
,
3010
0100
0010
0000
0000
0000
1000
0000
,
0020
0000
0230
0000
,
0301
0010
0001
0000
0000
0000
1000
0000
,
0020
0000
0230
0000
,
1300
0001
1000
0000
0000
0000
0100
0000
,
2000
0000
3002
0000
,
0013
1000
0010
0000
0000
0000
0001
0000
,
0200
0000
0320
0000
,
0031
1000
0001
0000
0000
0000
0010
0000
,
0002
0000
2003
0000
,
3100
0001
0100
0000
0000
0000
0100
0000
,
2000
0000
3002
0000
,
0103
0010
0100
0000
0000
0000
0001
0000
,
0200
0000
0320
0000
,
2030
0000
0000
0000
,
0010
0000
0001
0000
,
3200
0000
0000
0000
,
0320
0000
0000
0000
,
0032
0000
0000
0000
,
0203
0000
0000
0000
,
0320
0000
0000
0000
,
0000
0000
0000
0000
,
0200
0000
0000
0000
,
0000
0000
0000
0330
,
1100
0000
0101
0000
,
1100
0000
1010
0000
,
0012
0000
0000
0000
,
2003
0000
0000
0000
,
3200
0000
0000
0000
,
0320
0000
0000
0000
,
0032
0000
0000
0000
,
0000
0000
0000
0000
,
0003
0000
0000
0000
,
0010
0000
1000
0000
,
0010
0000
0000
0000
,
0010
0000
0010
0000
0001
1000
0001
0000
,
0010
0000
0010
0000
1000
0001
1000
0000
,
0010
0000
0010
0000
0001
1000
0001
0000
,
0100
0000
0010
0000
0100
0001
0010
0000
,
1000
0000
0001
0000
1000
0100
0001
0000
,
0100
0000
0010
0001
0000
0000
0100
0000
,
1001
0000
0110
0000
,
1000
0100
0010
0010
,
0100
0001
0010
0010
,
1001
0110
0100
0001
,
1000
0010
0100
0001
,
1000
0100
0010
0000
0100
0000
0100
0000
,
0001
0010
0100
0000
0010
0000
0010
0000
,
1000
0100
0001
0010
,
1000
0100
0010
0001
,
0110
0001
1001
0100
,
0110
1000
1001
0010
,
0110
0100
0100
0100
,
1001
0001
0001
0001
,
0120
1000
1000
1030
,
2001
0010
0010
3010
,
0001
0010
0100
1000
,
0002
0100
0010
0103
,
1000
1000
1000
1000
,
0020
0031
0200
0301
,
2000
3010
0002
0013
,
0200
0001
1000
0301
,
0020
0100
1000
0130
,
0002
1000
0010
1003
,
0020
0001
0100
1030
,
2000
0010
0100
3001
,
0220
0000
0000
0000
,
0000
0000
0000
0030
,
0002
0000
0000
0300
,
2000
0000
0000
0003
,
0020
0000
0000
0000
,
0000
0000
0000
3000
,
0200
0000
0000
0030
,
2000
0000
0000
0300
,
0002
0000
0000
0000
,
0000
0000
0000
3000
,
0020
0000
0000
0003
,
0200
0000
0000
0030
,
2000
0000
0000
0000
,
0000
0000
0000
0300
,
0020
0000
0000
3000
,
0200
0000
0000
0330
,
2002
0000
0000
0000
,
0000
0000
0000
0000
,
3003
0000
0000
0000
;

//---------------dance-single - ----------------
#NOTES:
     dance-single:
     :
     Hard:
     13:
     0.434316,0.952321,0.201292,0.395644,0.333174,438.000000,409.000000,29.000000,57.000000,0.000000,0.000000,0.434316,0.952321,0.201292,0.395644,0.333174,438.000000,409.000000,29.000000,57.000000,0.000000,0.000000:
// measure 0
0000
0000
0000
0000
,  // measure 1
0000
0000
0000
0000
,  // measure 2
0000
0000
0000
0000
,  // measure 3
0000
0000
0000
0000
,  // measure 4
0000
0000
0000
0000
,  // measure 5
1000
0100
0010
0001
0000
0000
0100
0010
,  // measure 6
0100
0000
0000
0110
0000
0000
0001
1000
,  // measure 7
0001
0000
0000
1001
0000
0000
0100
0010
,  // measure 8
0001
0100
1000
0000
0000
0000
0000
0000
0000
0000
0000
0000
0000
0000
0000
0000
,  // measure 9
0100
0010
0100
0001
0010
0100
0001
1000
0010
1000
0100
0010
,  // measure 10
0100
0001
0010
0100
1000
0010
0100
0010
0001
0010
0100
1000
,  // measure 11
0001
0000
0000
1000
0100
0010
0001
0000
0000
0110
0000
0000
,  // measure 12
1000
0001
1000
0001
0000
0000
0000
0000
0000
0000
0000
0000
0010
0000
0000
0000
,  // measure 13
0210
0000
0002
0303
,  // measure 14
0010
0100
0010
0100
0000
0000
0000
0000
0000
0000
0000
0000
1000
0000
0000
0000
,  // measure 15
1002
0000
0200
0303
,  // measure 16
0100
0010
0100
0010
0000
0000
0000
0000
0000
0000
0000
0000
1000
0000
0000
0000
,  // measure 17
1002
0000
0020
0033
,  // measure 18
1000
0001
1000
0001
0000
0000
0000
0000
0000
0000
0000
0000
0100
0000
0000
0000
,  // measure 19
0120
0000
0002
0033
,  // measure 20
0001
1000
0001
1000
0000
0000
0000
0000
0000
0000
0000
0000
0100
0000
0000
0000
,  // measure 21
0120
0000
2000
3030
,  // measure 22
0100
0010
0100
0010
0000
0000
0000
0000
0000
0000
0000
0000
0001
0000
0000
0000
,  // measure 23
2001
0000
0020
3030
,  // measure 24
0010
0100
0010
0100
0000
0000
0000
0000
0000
0000
0000
0000
0001
0000
0000
0000
,  // measure 25
2001
0000
0200
3300
,  // measure 26
0001
1000
0001
1000
0000
0000
0000
0000
0000
0000
0000
0000
0010
0000
0000
0000
,  // measure 27
0210
0000
2000
3300
,  // measure 28
0002
0000
0000
0000
,  // measure 29
0200
0003
0020
0300
,  // measure 30
2000
0000
0030
0000
,  // measure 31
0002
0000
3000
0000
,  // measure 32
0200
0000
0003
0000
,  // measure 33
0020
0000
0300
0000
,  // measure 34
0002
0000
0000
0000
,  // measure 35
0030
0000
0000
0000
,  // measure 36
2000
0000
0000
0000
,  // measure 37
0003
0000
0000
0000
,  // measure 38
0002
3000
0200
0003
,  // measure 39
0020
0300
0002
0030
,  // measure 40
2000
0000
0003
0000
,  // measure 41
0020
0000
3000
0000
,  // measure 42
0200
0000
0030
0000
,  // measure 43
0002
0000
0300
0000
,  // measure 44
2000
0000
0000
0000
,  // measure 45
0000
0000
0000
0000
,  // measure 46
3003
0000
0000
0000
,  // measure 47
0100
0000
0010
0000
0001
0100
0000
0100
0000
0000
0010
0000
0000
0000
0000
0000
,  // measure 48
0001
1000
0001
1000
0001
0000
0100
0010
0000
0000
0000
0000
0000
0000
0000
0000
,  // measure 49
1000
0001
1000
0001
1000
0000
0100
0000
0010
0000
0001
0000
0100
0000
0000
0000
,  // measure 50
0010
0100
0010
0100
0010
0000
1000
0000
0001
0000
0100
0000
0010
0000
0000
0000
,  // measure 51
1000
0010
1000
0010
1000
0000
0001
0000
0010
0000
0100
0000
0001
0000
0000
0000
,  // measure 52
1000
0100
1000
0010
1000
0100
1000
0000
,  // measure 53
0010
0001
0010
0100
0010
0001
0010
0000
,  // measure 54
1000
0100
0010
0100
0000
0010
0001
0010
,  // measure 55
0100
0000
1100
0000
,  // measure 56
0010
0000
0000
0001
0100
0000
0000
0100
0010
0000
0000
0010
0001
0000
0000
0001
,  // measure 57
0100
0000
0000
0100
0010
0000
0000
0010
1000
0000
0000
1000
0100
0000
0000
0100
,  // measure 58
0010
0000
0000
0010
0001
0000
0000
0100
0001
0000
0000
0010
1000
0000
0000
0100
,  // measure 59
0010
0000
0000
0001
1000
0000
0000
0001
0010
0000
0000
0100
0001
0000
0000
0010
,  // measure 60
0001
0000
0000
0100
0010
0000
0000
0100
0001
0000
0000
0100
1000
0000
0000
0010
,  // measure 61
0100
0000
0000
0100
0001
0000
0000
0010
1000
0000
0000
0100
0010
0000
0000
1000
,  // measure 62
0001
0000
0000
0010
0100
0000
0000
0100
0001
0000
0000
0010
0001
0000
0000
0100
,  // measure 63
1000
0000
0000
0010
0001
0000
0000
0100
0001
0000
0000
0010
0001
0000
0000
1000
,  // measure 64
0100
0000
0000
0010
0100
0000
0000
0001
0010
0000
0000
0000
1000
0000
0000
0000
,  // measure 65
1001
0100
0011
0110
,  // measure 66
2100
0001
0010
3001
,  // measure 67
0200
0010
0010
0310
,  // measure 68
1002
0100
0010
0103
,  // measure 69
1020
0100
0001
1030
,  // measure 70
0210
0001
0010
0301
,  // measure 71
1002
0000
0013
0000
1000
0100
0010
0001
,  // measure 72
0100
0000
0000
0100
0001
0000
0000
0001
0100
0000
0000
0100
1000
0000
0000
1000
,  // measure 73
0020
0031
2100
3001
,  // measure 74
0210
1300
1002
0013
,  // measure 75
2010
0100
0001
3100
,  // measure 76
0012
1000
0100
0103
,  // measure 77
2100
0010
0100
3010
,  // measure 78
0012
0100
1000
0013
,  // measure 79
0210
0000
0301
0000
1000
0001
0100
0010
,  // measure 80
0002
0000
1000
0000
,  // measure 81
1000
0000
1000
0000
,  // measure 82
0200
0003
0010
0000
,  // measure 83
0002
0300
1000
0000
,  // measure 84
0020
0003
0100
0000
,  // measure 85
1000
0000
0100
0000
,  // measure 86
2000
0030
0001
0000
,  // measure 87
0200
3000
0010
0300
,  // measure 88
0010
0001
0010
1000
0010
0001
0010
1000
,  // measure 89
0100
0001
0100
1000
0100
0001
0100
0000
,  // measure 90
0001
1000
0001
0100
0001
1000
0001
0000
,  // measure 91
1000
0010
1000
0001
1000
0010
1000
0000
,  // measure 92
0001
0010
0100
1000
0010
0100
0001
0010
,  // measure 93
0100
1000
0010
0100
0001
0010
0100
0000
,  // measure 94
1000
0001
1000
0001
1000
0001
1000
0001
1000
0001
1000
0001
1000
0000
0000
0000
,  // measure 95
0010
0100
0010
0100
0010
0100
0010
0100
0010
0100
0010
0100
0010
0000
0000
0000
,  // measure 96
2002
0000
0000
0000
,  // measure 97
0000
0000
0000
0000
,  // measure 98
3003
0000
0000
0000
;
