#TITLE:Dark Wings;
#SUBTITLE:;
#ARTIST:Within Temptation;
#TITLETRANSLIT:;
#SUBTITLETRANSLIT:;
#ARTISTTRANSLIT:;
#GENRE:;
#CREDIT:;
#BANNER:Dark Wings.png;
#BACKGROUND:Dark Wings-bg.png;
#LYRICSPATH:;
#CDTITLE:cdtitle.png;
#MUSIC:Dark Wings.ogg;
#OFFSET:-0.250000;
#SAMPLESTART:40.250000;
#SAMPLELENGTH:16.000000;
#SELECTABLE:YES;
#DISPLAYBPM:120.000000;
#BPMS:0.000000=120.000000
;
#STOPS:
;
#BGCHANGES:;
#KEYSOUNDS:;
#ATTACKS:;

//---------------dance-single - ----------------
#NOTES:
     dance-single:
     :
     Beginner:
     2:
     0.077354,0.096810,0.008204,0.188698,0.000000,66.000000,65.000000,1.000000,23.000000,0.000000,0.000000,0.077354,0.096810,0.008204,0.188698,0.000000,66.000000,65.000000,1.000000,23.000000,0.000000,0.000000:
0000
0000
0000
0000
,
0000
0000
0000
0000
,
0000
0000
0000
0000
,
0000
0000
0000
0000
,
0001
0000
0000
0000
,
1000
0000
0000
0000
,
0001
0000
0000
0000
,
0100
0000
0010
0000
,
0200
0000
0000
0000
,
0000
0000
0000
0000
,
0000
0000
0000
0000
,
0300
0000
0000
0000
,
0010
0000
0001
0000
,
0020
0000
0030
0000
,
1000
0000
0100
0000
,
2000
0000
3000
0000
,
0100
0000
0001
0000
,
0200
0000
0300
0000
,
1000
0000
0010
0000
,
2000
0000
3000
0000
,
0200
0000
0000
0300
,
0100
0000
0000
0000
,
0020
0000
0000
0030
,
0010
0000
1000
0000
,
0002
0000
0000
0003
,
0001
0000
0000
0000
,
2000
0000
0000
3000
,
1000
0000
0001
0000
,
0200
0000
0000
0000
,
0000
0000
0000
0300
,
0100
0000
1000
0000
,
0200
0000
0300
0000
,
0001
0000
0100
0000
,
0002
0000
0003
0000
,
1000
0000
0010
0000
,
2000
0000
3000
0000
,
0010
0000
0001
0000
,
0020
0000
0030
0000
,
0200
0000
0000
0300
,
0100
0000
0000
0000
,
0020
0000
0000
0030
,
0010
0000
1000
0000
,
0002
0000
0000
0003
,
0001
0000
0000
0000
,
2000
0000
0000
3000
,
1000
0000
0001
0000
,
0200
0000
0000
0300
,
0100
0000
0000
0000
,
0020
0000
0000
0030
,
0010
0000
1000
0000
,
0002
0000
0000
0003
,
0001
0000
0000
0000
,
2000
0000
0000
3000
,
1000
0000
0001
0000
,
0200
0000
0000
0000
,
0000
0000
0000
0000
,
0300
0000
0000
0000
,
0000
0000
0000
0000
,
0010
0010
0000
0000
,
1001
0000
0000
0000
;

//---------------dance-single - ----------------
#NOTES:
     dance-single:
     :
     Easy:
     6:
     0.203934,0.265664,0.131268,0.114860,0.000000,174.000000,158.000000,16.000000,14.000000,0.000000,0.000000,0.203934,0.265664,0.131268,0.114860,0.000000,174.000000,158.000000,16.000000,14.000000,0.000000,0.000000:
0000
0000
0000
0000
,
0000
0000
0000
0000
,
0000
0000
0000
0000
,
0000
0000
0000
0000
,
0001
0001
0000
0000
,
1000
1000
0000
0000
,
0001
0001
0000
0000
,
1000
0100
0010
0001
,
0200
0000
0000
0000
,
0000
0000
0000
0000
,
0000
0000
0000
0000
,
0300
0000
0000
0000
,
1001
0100
0010
0000
,
0100
0000
0010
0000
0001
0001
0001
0000
,
0000
0100
0010
2000
,
0000
0000
3001
0000
,
0100
0010
0100
0000
0001
0000
1000
0000
,
0010
1001
0100
1001
,
0000
0200
0000
0301
,
1000
0010
0200
0000
,
0300
0010
0110
1000
,
0200
0001
1000
0010
,
0300
1000
1001
0000
,
0010
1000
0100
0001
,
1000
0002
0013
0000
,
0110
0100
0110
0010
,
0001
0000
1000
0100
0001
0000
0000
0000
,
1000
1000
0001
0001
,
0020
0000
0000
0000
,
0000
0000
0000
0030
,
1001
0100
0010
0100
,
0000
1000
0001
1000
,
0000
0100
0010
2000
,
0001
0000
0100
3000
,
0000
0010
0100
0010
,
0000
0001
1000
0001
,
0000
0010
0100
0002
,
1000
0000
0010
0003
,
0000
0010
0110
1000
,
0200
0001
1000
0010
,
0300
1000
1001
0000
,
0010
1000
0100
0001
,
1000
0002
0013
0000
,
0110
0100
0110
0010
,
0001
0000
1000
0100
0001
0000
0000
0000
,
1000
1000
0001
0001
,
0000
1000
1001
0100
,
0002
0010
0100
1000
,
0003
0100
0110
0000
,
1000
0100
0001
0010
,
0100
0020
1030
0000
,
1001
0001
1001
1000
,
0010
0000
0100
0001
0010
0000
0000
0000
,
0100
0100
0010
0010
,
2000
0000
0000
0000
,
0000
0000
0000
0000
,
3001
0000
0000
1000
0000
0000
0001
0000
,
0000
1000
0000
0000
0010
0000
0100
0000
,
0001
0001
0001
0000
0000
1000
1000
1000
;

//---------------dance-single - ----------------
#NOTES:
     dance-single:
     :
     Medium:
     10:
     0.321138,0.362269,0.229719,0.147677,0.000000,274.000000,246.000000,28.000000,18.000000,0.000000,0.000000,0.321138,0.362269,0.229719,0.147677,0.000000,274.000000,246.000000,28.000000,18.000000,0.000000,0.000000:
0000
0000
0000
0000
,
0000
0000
0000
0000
,
0000
0000
0000
0000
,
0000
0000
0000
0000
,
1000
0000
1001
0000
0000
0001
0000
1000
,
0010
0000
0110
0000
0000
0010
0000
0100
,
0001
0000
1001
0000
0000
1000
0000
0001
,
0010
1000
0100
0010
,
0002
0000
0000
0000
,
2000
0000
0003
0000
,
0020
0000
3000
0000
,
0000
0000
0130
0100
,
0101
0000
0001
0010
1000
0000
0100
0001
,
0000
0110
0000
0010
0100
0001
0100
0000
,
0000
0000
0011
0000
1010
0000
1000
0010
,
0000
0011
0000
1010
0000
0000
0001
1000
,
0001
0000
0100
0100
0100
0000
0001
1000
,
0000
1010
0000
0100
0000
1000
0001
0000
,
0010
0000
1000
0100
1000
0000
0001
2000
,
0000
0010
0000
3100
0000
0000
0001
1000
,
0001
0110
0110
1000
,
0100
0000
0010
0001
1000
0000
0200
0000
,
0301
0000
0010
0000
1000
0100
0001
0000
,
0102
0100
1000
0103
,
1001
0000
0100
0010
0100
0000
0000
0000
,
1000
0000
0001
0010
0001
0000
0200
0000
,
0310
0000
1000
0010
0200
0000
0300
0000
,
0001
0000
0001
1000
0000
1000
0001
0000
,
0100
0100
0100
0100
,
0100
0001
0100
0000
0100
1000
0100
0000
,
0110
0000
0001
0000
1000
0001
1000
0000
,
0100
0000
0110
0000
0010
0100
0010
0000
,
1000
0000
1001
0000
0001
0000
0200
0010
,
0000
0010
0000
0001
0000
0001
0000
0300
,
1001
0000
0010
0000
0100
0010
0100
0000
,
0001
0000
1001
0000
1000
0001
1000
0000
,
0100
0000
0110
0000
0010
0000
0002
1000
,
0000
1000
0000
0010
0000
0010
0000
0003
,
0100
1001
1001
0010
,
1000
0000
0001
0100
0010
0000
2000
0000
,
3100
0000
0001
0000
0010
1000
0100
0000
,
1200
1000
0010
1300
,
0110
0000
1000
0001
1000
0000
0000
0000
,
0010
0000
0100
0001
0100
0000
2000
0000
,
3001
0000
0010
0001
2000
0000
3000
0000
,
0100
0000
0100
0010
0000
0010
0100
0000
,
0001
0110
0110
1000
,
0100
0000
0010
0001
1000
0000
0200
0000
,
0301
0000
0010
0000
1000
0100
0001
0000
,
0102
0100
1000
0103
,
1001
0000
0100
0010
0100
0000
0000
0000
,
1000
0000
0001
0010
0001
0000
0200
0000
,
0310
0000
1000
0010
0200
0000
0300
0000
,
0001
0000
0001
1000
0000
1000
0001
0000
,
0100
0100
0100
0100
,
0100
0001
0100
0000
0100
1000
0100
0000
,
0100
0001
0100
1000
0100
0001
0100
0000
,
0100
0001
0100
1000
0100
0001
0100
0000
,
1000
0100
0010
0001
0001
0010
0100
1000
;

//---------------dance-single - ----------------
#NOTES:
     dance-single:
     :
     Hard:
     12:
     0.516868,0.507177,0.730179,0.155881,0.004102,441.000000,352.000000,89.000000,19.000000,0.000000,0.000000,0.516868,0.507177,0.730179,0.155881,0.004102,441.000000,352.000000,89.000000,19.000000,0.000000,0.000000:
// measure 0
0000
0000
0000
0000
,  // measure 1
0000
0000
0000
0000
,  // measure 2
0000
0000
0000
0000
,  // measure 3
0000
0000
0000
0000
,  // measure 4
1001
0001
0101
0000
0000
1000
0000
0001
,  // measure 5
1001
1000
1100
0000
0000
0001
0000
1000
,  // measure 6
1001
0001
0101
0000
0000
1000
0000
0001
,  // measure 7
1001
1000
1100
0000
0011
0001
1001
0000
,  // measure 8
1000
0011
0000
0001
0000
0101
0000
0100
,  // measure 9
0000
0110
0000
0010
0000
1010
0000
1000
,  // measure 10
0000
1001
0000
0001
0000
0101
0000
0100
,  // measure 11
0000
1100
0000
1000
0000
1010
0022
0000
,  // measure 12
0033
0000
1000
0100
0010
0100
0001
0110
,  // measure 13
0100
1100
1000
0001
0010
0100
2001
0000
,  // measure 14
3100
0000
0010
0010
0001
0100
0010
1100
,  // measure 15
1000
0100
0010
0101
0000
0000
1001
0001
,  // measure 16
0101
0000
0100
0010
0010
1000
0100
0001
,  // measure 17
0010
0100
0001
1000
0110
0101
2000
0000
,  // measure 18
3100
0000
0010
0100
0001
0001
1000
0110
,  // measure 19
0001
0100
0010
1001
0000
0000
1001
1000
,  // measure 20
1100
0000
1000
0100
0100
0010
1000
0100
,  // measure 21
0010
0001
0100
0010
1100
0001
0202
0000
,  // measure 22
0303
0000
1000
0001
1100
0101
0000
0000
,  // measure 23
0100
0100
0001
1000
0010
1000
1001
0001
,  // measure 24
0101
0000
2000
0001
0200
0000
3300
0000
,  // measure 25
0001
0010
0100
0101
0001
0010
0200
0000
,  // measure 26
1300
0000
0011
0110
1100
0000
0000
0000
,  // measure 27
1001
0100
0010
1100
0001
1000
0110
0001
,  // measure 28
0100
0100
0100
0100
0100
0100
0100
0100
,  // measure 29
0100
0000
0001
0000
0100
0000
1000
0000
0100
0000
0001
1000
0001
0000
0000
0000
,  // measure 30
0110
0000
1000
0100
1000
0010
0101
0000
,  // measure 31
0010
0001
0001
1000
0100
0010
1100
0000
,  // measure 32
1000
1000
0010
0100
0001
0010
0100
1001
,  // measure 33
0010
0100
0001
1001
0100
0010
1000
1100
,  // measure 34
0101
0000
0001
0010
0001
0100
1010
0000
,  // measure 35
0100
1000
1000
0001
0010
0100
0011
0000
,  // measure 36
0001
0001
0100
0010
1000
0100
0010
1001
,  // measure 37
0100
0010
1000
1001
0010
0100
0001
0011
,  // measure 38
1010
0000
0010
1000
1000
0001
0010
1000
,  // measure 39
0001
0100
1000
0001
1010
0100
2200
0000
,  // measure 40
3300
0000
0010
0100
1010
1100
0000
0000
,  // measure 41
1000
1000
0100
0010
0001
0010
0110
0100
,  // measure 42
1100
0000
0020
0100
2000
0000
3030
0000
,  // measure 43
0100
0001
1000
1100
0100
0001
2000
0000
,  // measure 44
3010
0000
0101
1001
1010
0000
0000
0000
,  // measure 45
0110
1000
0001
1010
0100
0010
1001
0001
,  // measure 46
0101
0000
1000
0100
0100
0010
1000
0100
,  // measure 47
0010
0001
0100
0010
1100
0001
0202
0000
,  // measure 48
0303
0000
1000
0001
1100
0101
0000
0000
,  // measure 49
0100
0100
0001
1000
0010
1000
1001
0001
,  // measure 50
0101
0000
2000
0001
0200
0000
3300
0000
,  // measure 51
0001
0010
0100
0101
0001
0010
0200
0000
,  // measure 52
1300
0000
0011
0110
1100
0000
0000
0000
,  // measure 53
1001
0100
0010
1100
0001
1000
0110
0001
,  // measure 54
0100
0100
0100
0100
0100
0100
0100
0100
,  // measure 55
0100
0001
0100
0100
1000
0100
0100
0001
,  // measure 56
0100
1000
0100
0001
0100
1000
0100
0001
,  // measure 57
0100
1000
0100
0001
0100
1000
0100
0001
,  // measure 58
1001
1000
1100
0010
0010
1001
0001
0101
;

//---------------dance-single - ----------------
#NOTES:
     dance-single:
     :
     Challenge:
     14:
     0.638760,0.627933,0.918876,0.049226,0.065634,545.000000,433.000000,112.000000,6.000000,0.000000,0.000000,0.638760,0.627933,0.918876,0.049226,0.065634,545.000000,433.000000,112.000000,6.000000,0.000000,0.000000:
0000
0000
0000
0000
,
0000
0000
0000
0000
,
0000
0000
0000
0000
,
0000
0000
0000
0000
,
0001
0000
1000
0001
0100
0000
0000
0000
0000
0000
0100
0000
0010
0000
0001
0000
,
1000
0000
0001
1000
0100
0000
0000
0000
0000
0000
0010
0000
0100
0000
1000
0000
,
0001
0000
1000
0001
0100
0000
0000
0000
0000
0000
0100
0000
0010
0000
0001
0000
,
0100
0100
0010
0010
1000
1000
0001
0001
,
0100
1010
0100
0001
0010
0101
0010
1000
,
0001
0110
1000
0100
0010
1100
0001
0100
,
0010
0110
0100
1000
0001
0011
1000
0100
,
0010
1010
0010
0100
0001
1100
0101
0000
,
0100
0100
1001
0001
1000
0100
0110
0001
,
0010
1000
0011
1000
0100
0100
1010
0010
,
1000
0001
0110
1000
1000
0001
1001
0100
,
0010
0000
1000
0000
0011
0000
0100
0000
1000
0000
0100
0000
0010
0001
1000
0001
,
0100
0000
0110
1000
0100
0100
1010
0001
,
0100
0010
0101
0010
1000
0001
1001
1000
,
0010
0100
0101
0001
1000
0100
1100
1000
,
0001
0000
0010
0000
0110
0000
0100
0000
1000
0000
0001
0000
0010
1000
0001
1000
,
0100
0000
1100
0001
0101
0010
1000
0100
,
0011
0001
0100
1010
0001
0011
0200
0010
,
0310
0000
1000
0100
0011
0101
1000
1000
,
0110
0001
1010
0100
1001
0010
0101
1000
,
0110
0000
1000
0100
0011
1001
0100
0010
,
1100
0001
0010
0001
0101
0010
2000
0001
,
3001
0000
1001
1100
0101
0010
1000
0001
,
0110
1000
0100
0101
0001
0010
0110
1000
,
0100
0001
0100
1000
0100
0001
0100
1000
,
0100
0000
0001
0000
0100
0000
1000
0000
0100
0000
0001
0100
1000
0000
0000
0000
,
1100
0000
0101
0001
0010
1000
1100
0010
,
0100
0001
0110
0010
1000
0100
1001
0010
,
0001
0100
1010
0100
0001
0010
0110
0001
,
1000
0000
0010
0000
1100
0000
0001
0000
0001
0000
1000
0000
0100
0010
1000
0010
,
0100
0000
1010
1000
0100
0001
0011
0100
,
0010
1000
0110
0100
0001
0010
1001
0100
,
1000
0010
0101
0010
1000
0100
0110
1000
,
0001
0000
0100
0000
0011
0000
1000
0000
1000
0000
0001
0000
0010
0100
0001
0100
,
0010
0000
0011
1000
1010
0100
0001
0010
,
1100
1000
0010
0101
1000
1100
0020
0100
,
0130
0000
0001
0010
1100
1010
0001
0001
,
0110
1000
0101
0010
1001
0100
1010
0001
,
0110
0000
0001
0010
1100
1001
0010
0100
,
0011
1000
0100
1000
1010
0100
0002
1000
,
1003
0000
1001
0011
1010
0100
0001
1000
,
0110
0001
0010
1010
1000
0100
0110
0001
,
0010
0000
1100
0001
0101
0010
1000
0100
,
0011
0001
0100
1010
0001
0011
0200
0010
,
0310
0000
1000
0100
0011
0101
1000
1000
,
0110
0001
1010
0100
1001
0010
0101
1000
,
0110
0000
1000
0100
0011
1001
0100
0010
,
1100
0001
0010
0001
0101
0010
2000
0001
,
3001
0000
1001
1100
0101
0010
1000
0001
,
0110
1000
0100
0101
0001
0010
0110
1000
,
0100
0001
0100
1000
0100
0001
0100
1000
,
0100
0001
0100
1000
0100
0001
0100
1000
,
0110
0001
0100
1001
0100
0001
0110
1000
,
0100
0000
1001
0000
0100
0000
0001
0000
0100
0010
0100
0010
1000
0001
1000
0001
,
1100
0001
0101
0010
0100
1100
0001
0101
;
