#TITLE:Dark Wings;
#SUBTITLE:-full song-;
#ARTIST:Within Temptation;
#TITLETRANSLIT:;
#SUBTITLETRANSLIT:;
#ARTISTTRANSLIT:;
#GENRE:;
#CREDIT:;
#BANNER:Dark Wings -full song-.png;
#BACKGROUND:Dark Wings-full song--bg.png;
#LYRICSPATH:;
#CDTITLE:cdtitle.png;
#MUSIC:Dark Wings -full song-.ogg;
#OFFSET:-0.250000;
#SAMPLESTART:208.250000;
#SAMPLELENGTH:16.000000;
#SELECTABLE:YES;
#DISPLAYBPM:120.000000;
#BPMS:0.000000=120.000000
;
#STOPS:
;
#BGCHANGES:;
#KEYSOUNDS:;
#ATTACKS:;

//---------------dance-single - ----------------
#NOTES:
     dance-single:
     :
     Challenge:
     16:
     0.677801,0.825591,0.688357,0.392791,0.451127,1220.000000,1043.000000,177.000000,101.000000,0.000000,0.000000,0.677801,0.825591,0.688357,0.392791,0.451127,1220.000000,1043.000000,177.000000,101.000000,0.000000,0.000000:
// measure 0
0000
0000
0000
0000
,  // measure 1
0000
0000
0000
0000
,  // measure 2
0000
0000
0000
0000
,  // measure 3
0000
0000
0000
0000
,  // measure 4
1000
0001
1000
0001
0010
0000
0200
0000
0000
0000
0301
0000
0000
0000
0010
0000
,  // measure 5
1000
0001
1000
0001
0010
0000
0200
0000
0000
0000
0301
0000
0000
0000
0010
0000
,  // measure 6
1000
0001
1000
0001
0010
0000
0200
0000
0000
0000
0301
0000
0000
0000
0010
0000
,  // measure 7
1000
0100
1000
0100
1000
0000
0010
0000
0001
1000
0001
1000
0001
0000
0100
0000
,  // measure 8
0010
0000
0100
0001
0000
0000
0100
1000
0000
0000
0100
0001
0000
0000
0100
1000
,  // measure 9
0000
0000
0010
0001
0000
0000
0010
1000
0000
0000
0010
0001
0000
0000
0010
1000
,  // measure 10
0000
0000
0100
0001
0000
0000
0001
0100
0000
0000
0100
1000
0000
0000
1000
0100
,  // measure 11
0000
0000
0010
0001
0000
0000
0001
0010
0000
0000
0010
1000
0010
0000
1000
0000
,  // measure 12
0001
0100
0011
1000
0100
1000
0110
0001
,  // measure 13
1000
0000
0100
0000
1100
0000
0001
0000
0010
0100
1000
0100
0010
0000
0001
1000
,  // measure 14
0001
0100
0011
0100
0001
1000
1001
0100
,  // measure 15
0010
0000
0010
0000
0101
0000
1000
0100
1000
0001
0010
0000
0100
0001
1000
0000
,  // measure 16
0010
0100
1100
0010
0010
0001
0110
1000
,  // measure 17
0100
0000
0010
0000
0011
0000
1000
0000
0100
0010
0100
1000
0001
0000
0010
0001
,  // measure 18
0100
1000
1100
0100
0001
0010
1010
0100
,  // measure 19
0001
0000
0001
0000
0011
0000
0100
0000
0010
0001
1000
0001
0100
0001
1000
0001
,  // measure 20
0020
0000
0000
0000
1030
0000
0100
0010
0001
0000
0010
0100
1000
0000
0100
0000
,  // measure 21
0010
0001
0010
0100
1000
0000
0100
0000
0011
0000
0100
0000
1010
0000
0100
0010
,  // measure 22
2000
0000
0000
0000
3010
0001
0100
0010
1000
0000
0110
0000
0022
0000
0033
0000
,  // measure 23
1000
0100
0010
0001
0100
0000
1000
0000
0001
0010
0100
1000
0010
0000
0001
0000
,  // measure 24
0200
0000
0000
0000
0310
1000
0001
0010
1000
0000
0011
0000
0202
0000
0303
0000
,  // measure 25
0010
1000
0001
0100
0010
0000
0100
0000
1000
0001
0100
0010
1000
0000
0001
0000
,  // measure 26
0110
0000
0000
0000
1000
0010
0001
0100
0020
0000
0000
0000
1030
0000
0000
0000
,  // measure 27
1000
0000
0010
0001
0100
0000
0010
1000
0100
0000
0001
0010
1000
0000
0100
0000
,  // measure 28
0020
1000
1000
1030
0020
0001
0001
0031
,  // measure 29
0020
0000
1000
0000
1000
0000
1030
0000
0010
0000
1000
0100
0001
0000
0000
0000
,  // measure 30
0100
1000
0101
0010
1000
0010
1001
0100
,  // measure 31
0010
0000
1000
0000
1010
0000
0100
0000
0001
1000
0010
1000
0001
0000
0100
0010
,  // measure 32
0100
1000
0101
1000
0100
0010
0110
1000
,  // measure 33
0001
0000
0001
0000
1100
0000
0010
1000
0010
0100
0001
0000
1000
0100
0010
0000
,  // measure 34
0001
1000
1010
0001
0001
0100
1001
0010
,  // measure 35
1000
0000
0001
0000
0101
0000
0010
0000
1000
0001
1000
0010
0100
0000
0001
0100
,  // measure 36
1000
0010
1010
1000
0100
0001
0011
1000
,  // measure 37
0100
0000
0100
0000
0101
0000
1000
0000
0001
0100
0010
0100
1000
0100
0010
0100
,  // measure 38
0002
0000
0000
0000
0013
0000
1000
0001
0100
0000
0001
1000
0010
0000
1000
0000
,  // measure 39
0001
0100
0001
1000
0010
0000
1000
0000
0101
0000
1000
0000
0011
0000
1000
0001
,  // measure 40
0020
0000
0000
0000
0031
0100
1000
0001
0010
0000
1001
0000
0202
0000
0303
0000
,  // measure 41
0010
1000
0001
0100
1000
0000
0010
0000
0100
0001
1000
0010
0001
0000
0100
0000
,  // measure 42
2000
0000
0000
0000
3001
0010
0100
0001
0010
0000
0101
0000
2200
0000
3300
0000
,  // measure 43
0001
0010
0100
1000
0001
0000
1000
0000
0010
0100
1000
0001
0010
0000
0100
0000
,  // measure 44
1001
0000
0000
0000
0010
0001
0100
1000
0002
0000
0000
0000
0013
0000
0000
0000
,  // measure 45
0010
0000
0001
0100
1000
0000
0001
0010
1000
0000
0100
0001
0010
0000
1000
0000
,  // measure 46
0002
0010
0010
0013
0002
0100
0100
0103
,  // measure 47
0002
0000
0010
0000
0010
0000
0013
0000
0001
0100
0010
1000
0100
0010
0001
0100
,  // measure 48
0011
0101
0200
1000
1300
1100
1010
0020
,  // measure 49
0001
0031
0011
0101
0200
0000
0020
0330
,  // measure 50
1010
0011
0002
0100
0103
0101
1100
2000
,  // measure 51
0010
3010
1010
0011
0002
0000
2000
3003
,  // measure 52
0101
1100
2000
0010
3010
1010
0011
0002
,  // measure 53
0100
0103
0101
1100
2000
0000
0002
3003
,  // measure 54
1100
1010
0020
0001
0031
0011
0101
0200
,  // measure 55
1000
1300
1100
1010
0020
0000
0200
0330
,  // measure 56
1001
1100
0110
0000
1000
0110
0011
1010
,  // measure 57
0001
0000
1100
0101
0110
0022
0000
0033
,  // measure 58
1100
0011
0101
0000
1000
1001
0101
0110
,  // measure 59
0001
0000
2000
0000
0000
3002
0000
0000
0023
0000
1030
0100
1000
0000
0010
0000
,  // measure 60
1001
0011
0110
0000
0001
0110
1100
0101
,  // measure 61
1000
0000
0011
1010
0110
2200
0000
3300
,  // measure 62
0011
1100
1010
0000
0001
1001
1010
0110
,  // measure 63
1000
0000
0002
0000
0000
2003
0000
0000
3200
0000
0301
0010
0001
0000
0100
0000
,  // measure 64
0011
0101
1100
1100
0110
0011
0101
1100
,  // measure 65
1100
0110
0011
0101
1100
0220
0000
0330
,  // measure 66
1010
0011
0101
0101
1001
1010
0011
0101
,  // measure 67
0101
0000
1000
0100
0010
0001
0100
1000
0010
0000
0100
0010
0001
1000
0100
0010
,  // measure 68
1100
1010
0011
0011
0110
1100
1010
0011
,  // measure 69
0011
0110
1100
1010
0011
0220
0000
0330
,  // measure 70
0101
1100
1010
1010
1001
0101
1100
1010
,  // measure 71
1010
0000
0002
0000
0000
0203
0000
0000
2300
0000
0000
3020
0001
0000
0030
0000
,  // measure 72
0200
0000
0000
1000
0000
0000
0001
0000
0310
0000
0000
1000
0010
0000
0000
0000
,  // measure 73
0002
0000
0000
0100
0000
0000
0010
0000
1003
0000
0000
0100
1000
0000
0000
0000
,  // measure 74
2000
0000
0000
0010
0000
0000
0100
0000
3001
0000
0000
0100
0001
0000
0000
0000
,  // measure 75
0020
0000
0000
0001
0000
0000
1000
0000
0130
0000
0000
0001
0100
0000
0000
0000
,  // measure 76
0020
0000
0000
1000
0000
0000
0001
0000
1030
0000
0000
0100
1000
0000
0000
0000
,  // measure 77
0002
0000
0000
1000
0000
0000
0010
0000
0103
0000
0000
0100
1000
0000
0000
0000
,  // measure 78
0200
0000
0000
0010
0000
0000
1000
0000
0310
0000
0000
0010
0001
0000
0000
0000
,  // measure 79
2000
0000
0000
0001
0000
0000
0100
0000
3100
0000
0000
1000
0010
0000
0000
0000
,  // measure 80
0200
0000
0000
1000
0000
0000
0001
0000
0310
0000
0000
1000
0010
0000
0000
0000
,  // measure 81
0002
0000
0000
0100
0000
0000
0010
0000
1003
0000
0000
0100
1000
0000
0000
0000
,  // measure 82
2000
0000
0000
0010
0000
0000
0100
0000
3001
0000
0000
0100
0001
0000
0000
0000
,  // measure 83
0020
0000
0000
0001
0000
0000
1000
0000
0130
0000
0000
0001
0100
0000
0000
0000
,  // measure 84
0020
0000
0000
1000
0000
0000
0001
0000
1030
0000
0000
0100
1000
0000
0000
0000
,  // measure 85
0002
0000
0000
1000
0000
0000
0010
0000
0103
0000
0000
0100
1000
0000
0000
0000
,  // measure 86
0200
0000
0000
0010
0000
0000
1000
0000
0310
0000
0000
0010
0001
0000
0000
0000
,  // measure 87
1001
0000
0000
0101
0000
0000
0110
0000
1000
0100
0010
1000
0010
0100
0001
1000
,  // measure 88
0100
0010
0100
0010
1000
0000
0002
0000
0000
0000
0013
0000
0000
0000
1000
0000
,  // measure 89
0100
0010
0100
0010
1000
0000
0002
0000
0000
0000
0013
0000
0000
0000
1000
0000
,  // measure 90
0100
0010
0100
0010
1000
0000
0002
0000
0000
0000
0013
0000
0000
0000
1000
0000
,  // measure 91
0100
0001
0100
0001
0100
0000
1000
0000
0010
0100
0010
0100
0010
0000
0001
0000
,  // measure 92
1000
0001
1000
0001
0010
0000
0200
0000
0000
0000
0301
0000
0000
0000
0010
0000
,  // measure 93
1000
0001
1000
0001
0010
0000
0200
0000
0000
0000
0301
0000
0000
0000
0010
0000
,  // measure 94
1000
0001
1000
0001
0010
0000
0200
0000
0000
0000
0301
0000
0000
0000
0010
0000
,  // measure 95
1000
0100
1000
0100
1000
0000
0010
0000
0001
1000
0001
1000
0001
0000
0100
0000
,  // measure 96
0001
0100
0011
1000
0100
1000
0110
0001
,  // measure 97
1000
0000
0100
0000
1100
0000
0001
0000
0010
0100
1000
0100
0010
0000
0001
1000
,  // measure 98
0001
0100
0011
0100
0001
1000
1001
0100
,  // measure 99
0010
0000
0010
0000
0101
0000
1000
0100
1000
0001
0010
0000
0100
0001
1000
0000
,  // measure 100
0010
0100
1100
0010
0010
0001
0110
1000
,  // measure 101
0100
0000
0010
0000
0011
0000
1000
0000
0100
0010
0100
1000
0001
0000
0010
0001
,  // measure 102
0100
1000
1100
0100
0001
0010
1010
0100
,  // measure 103
0100
1000
0001
1000
0010
1000
0001
1000
0010
0001
1000
0001
0100
0001
1000
0001
,  // measure 104
0020
0000
0000
0000
1030
0000
0100
0010
0001
0000
0010
0100
1000
0000
0100
0000
,  // measure 105
0010
0001
0010
0100
1000
0000
0100
0000
0011
0000
0100
0000
1010
0000
0100
0010
,  // measure 106
2000
0000
0000
0000
3010
0001
0100
0010
1000
0000
0110
0000
0022
0000
0033
0000
,  // measure 107
1000
0100
0010
0001
0100
0000
1000
0000
0001
0010
0100
1000
0010
0000
0001
0000
,  // measure 108
0200
0000
0000
0000
0310
1000
0001
0010
1000
0000
0011
0000
0202
0000
0303
0000
,  // measure 109
0010
1000
0001
0100
0010
0000
0100
0000
1000
0001
0100
0010
1000
0000
0001
0000
,  // measure 110
0110
0000
0000
0000
1000
0010
0001
0100
0020
0000
0000
0000
1030
0000
0000
0000
,  // measure 111
1000
0000
0010
0001
0100
0000
0010
1000
0100
0000
0001
0010
1000
0000
0100
0000
,  // measure 112
0002
0000
0000
0000
0013
0000
1000
0001
0100
0000
0001
1000
0010
0000
1000
0000
,  // measure 113
0001
0100
0001
1000
0010
0000
1000
0000
0101
0000
1000
0000
0011
0000
1000
0001
,  // measure 114
0020
0000
0000
0000
0031
0100
1000
0001
0010
0000
1001
0000
0202
0000
0303
0000
,  // measure 115
0010
1000
0001
0100
1000
0000
0010
0000
0100
0001
1000
0010
0001
0000
0100
0000
,  // measure 116
2000
0000
0000
0000
3001
0010
0100
0001
0010
0000
0101
0000
2200
0000
3300
0000
,  // measure 117
0001
0010
0100
1000
0001
0000
1000
0000
0010
0100
1000
0001
0010
0000
0100
0000
,  // measure 118
1001
0000
0000
0000
0010
0001
0100
1000
0002
0000
0000
0000
0013
0000
0000
0000
,  // measure 119
0010
0000
0001
0100
1000
0000
0001
0010
1000
0000
0100
0001
0010
0000
1000
0000
,  // measure 120
0002
0010
0010
0013
0002
0100
0100
0103
,  // measure 121
0002
0010
0010
0013
0002
0100
0100
0103
,  // measure 122
1001
0010
0010
1001
0100
0100
1001
0010
,  // measure 123
0010
0000
1001
0000
0100
0000
0100
0000
0001
0100
0010
1000
0100
0010
0001
1000
,  // measure 124
0011
0101
0200
1000
1300
1100
1010
1001
;
