#VERSION:0.83;
#TITLE:Chaoz Survivor;
#SUBTITLE:;
#ARTIST:ParagonX9;
#TITLETRANSLIT:;
#SUBTITLETRANSLIT:;
#ARTISTTRANSLIT:;
#GENRE:;
#ORIGIN:;
#CREDIT:;
#BANNER:Chaoz Survivor.png;
#BACKGROUND:Chaoz Survivor-bg.png;
#PREVIEWVID:;
#JACKET:Chaoz Survivor-jacket.png;
#CDIMAGE:;
#DISCIMAGE:;
#LYRICSPATH:;
#CDTITLE:cdtitle.png;
#MUSIC:Chaoz Survivor.ogg;
#OFFSET:-0.166000;
#SAMPLESTART:11.499000;
#SAMPLELENGTH:15.000000;
#SELECTABLE:YES;
#DISPLAYBPM:180.000000:360.000000;
#BPMS:0.000=180.020,
28.000=360.040,
348.000=180.020,
380.000=360.040;
#STOPS:28.000=2.000;
#DELAYS:;
#WARPS:;
#TIMESIGNATURES:0.000=4=4;
#TICKCOUNTS:0.000=4;
#COMBOS:0.000=1;
#SPEEDS:0.000=1.000=0.000=0;
#SCROLLS:0.000=1.000;
#FAKES:;
#LABELS:0.000=Song Start;
#BGCHANGES:;
#KEYSOUNDS:;
#ATTACKS:
;

//---------------dance-single - ----------------
#NOTEDATA:;
#CHARTNAME:;
#STEPSTYPE:dance-single;
#DESCRIPTION:;
#CHARTSTYLE:;
#DIFFICULTY:Easy;
#METER:9;
#RADARVALUES:0.420590,0.582169,0.150723,0.271302,0.100482,293.000000,278.000000,15.000000,27.000000,0.000000,0.000000,0.000000,0.000000,0.000000,0.420590,0.582169,0.150723,0.271302,0.100482,293.000000,278.000000,15.000000,27.000000,0.000000,0.000000,0.000000,0.000000,0.000000;
#CREDIT:kater15;
#DISPLAYBPM:180.000000:360.000000;
#NOTES:
0000
0000
0000
0000
,
0000
0000
0000
0000
,
0000
0000
0000
0000
,
0000
0000
0000
0000
,
1000
0100
0010
0000
,
0010
0001
0100
0000
,
1000
0100
0010
0100
,
1001
0000
0100
0000
,
0010
0000
0010
0000
,
0010
0010
0010
0000
,
1000
1000
1000
0000
,
0001
0000
0001
0000
,
0010
0000
0001
0000
,
0100
0100
0100
0000
,
0001
0001
0001
0010
,
0001
0000
0100
0000
,
1000
0000
0001
0000
,
0100
1000
0100
0000
,
0100
0001
0100
0000
,
0010
0000
1000
0000
,
0100
0000
0010
0000
,
0001
0001
0100
1000
,
0020
0000
0200
0000
,
0330
0000
1000
0000
,
0100
0000
0010
0000
,
0100
0100
0100
0000
,
0001
1000
0001
0000
,
0010
0000
0100
0000
,
0001
0000
0001
0000
,
1000
1000
1000
0000
,
0010
0010
0001
0010
,
0001
0000
0100
0000
,
1000
0000
0010
0000
,
0100
0100
0100
0000
,
0010
0001
0010
0000
,
0100
0000
0010
0000
,
0010
0000
1000
0000
,
2000
0000
0100
0000
,
0001
0000
3010
0000
,
2000
0000
0001
0000
,
0010
0000
0001
3000
,
0200
0000
1000
0000
,
0001
0000
1000
0300
,
0020
0000
0100
0000
,
1000
0000
0100
0030
,
0002
0000
1000
0000
,
0010
0000
1000
0003
,
2000
0000
0001
0000
,
0010
0000
0001
3000
,
0200
0000
1000
0000
,
0001
0000
1000
0300
,
0020
0000
0100
0000
,
1000
0000
0100
0030
,
2000
0000
3002
0000
,
2003
0000
3001
0000
,
1000
0000
0100
0000
,
0010
0000
0000
0000
,
0010
0000
0100
0000
,
0010
0000
0000
0000
,
0100
0000
0001
0000
,
0010
0000
0000
0000
,
1000
0000
1001
0000
,
0001
0000
1001
0000
,
1000
0000
0100
0000
,
0001
0000
0000
0000
,
1000
0000
0010
0000
,
0001
0000
0000
0000
,
0100
0000
0010
0000
,
0100
0000
0000
0000
,
0100
0000
0110
0000
,
0010
0000
0110
0000
,
1000
0000
0000
0000
0010
0000
0000
0000
0001
0000
0000
0000
,
0100
0000
0000
0000
,
0100
0000
0000
0000
1000
0000
0000
0000
0001
0000
0000
0000
,
1000
0000
0000
0000
,
0100
0000
0000
0000
0010
0000
0000
0000
1000
0000
0000
0000
,
0100
0000
0000
0000
,
0010
0000
0000
0000
1000
0000
0000
0000
0100
0000
0000
0000
,
0010
0000
0000
0000
0001
0000
0000
0000
1000
0000
0000
0000
,
0100
0000
0000
0000
1000
0000
0000
0000
0010
0000
0000
0000
,
0001
0000
0000
0000
,
0001
0000
0000
0000
0100
0000
0000
0000
0010
0000
0000
0000
,
0100
0000
0000
0000
,
0001
0000
0000
0000
1000
0000
0000
0000
0100
0000
0000
0000
,
0001
0000
0000
0000
,
1000
0000
0000
0000
0100
0000
0000
0000
0001
0000
0000
0000
,
1000
0000
0000
0000
0010
0000
0000
0000
0100
0000
0000
0000
,
0002
0000
0000
1003
,
2000
0000
0000
3010
,
0020
0000
0000
0130
,
0200
0000
0001
0310
,
0002
0000
0000
1003
,
2000
0000
0000
3010
,
0020
0000
0000
0130
,
0200
0000
0001
0310
,
1000
0000
0010
0000
,
0010
1000
0100
0000
,
0010
0000
0100
0000
,
0001
0010
0100
0000
,
1000
0000
0010
0000
,
0100
0100
0100
0000
,
0002
0000
0100
0000
,
1000
0000
0013
0000
,
0100
0000
1001
0000
,
0010
1000
0001
0000
,
0100
0000
0110
0000
,
1000
0010
0100
0000
,
1000
0000
0011
0000
,
1000
0010
1000
0000
,
2000
0000
0010
0000
,
0001
0000
3100
0000
,
1000
0100
0010
0000
,
0100
0000
1010
0000
,
0001
1000
0010
0000
,
0100
0000
0110
0000
,
0001
0001
0010
0000
,
1000
0000
0011
0000
,
0200
0000
1000
0000
,
0001
0000
1300
0000
,
0010
0001
1000
0000
,
0010
0000
1100
0000
,
1000
0001
0001
0000
,
0010
0000
1001
0000
,
0100
0001
1000
0000
,
0100
0000
0110
0000
,
0020
0000
0001
0000
,
1000
0000
0031
0000
,
0202
0000
0000
0000
,
0000
0000
0000
0303
;

//---------------dance-single - ----------------
#NOTEDATA:;
#CHARTNAME:;
#STEPSTYPE:dance-single;
#DESCRIPTION:;
#CHARTSTYLE:;
#DIFFICULTY:Challenge;
#METER:19;
#RADARVALUES:1.089515,1.293710,0.622990,0.070338,0.728497,759.000000,697.000000,62.000000,7.000000,0.000000,0.000000,0.000000,0.000000,0.000000,1.089515,1.293710,0.622990,0.070338,0.728497,759.000000,697.000000,62.000000,7.000000,0.000000,0.000000,0.000000,0.000000,0.000000;
#CREDIT:kater15;
#DISPLAYBPM:180.000000:360.000000;
#NOTES:
0000
0000
0000
0000
,
0000
0000
0000
0000
,
0000
0000
0000
0000
,
0000
0000
0000
0000
,
1000
0100
0010
0100
1000
0000
0001
0010
,
0000
0100
0010
0010
1000
0000
0001
0010
,
0000
1000
0100
0010
0001
0000
0100
1000
,
1100
1000
0100
0001
,
0010
1000
0100
0010
,
0110
0001
1000
0100
,
0010
1000
1000
0001
,
0010
0010
0001
0100
,
1001
0100
0010
1000
,
1000
0100
0010
0010
,
1000
0100
1000
0010
0100
0010
0001
0100
,
1000
0100
0001
0010
,
1000
0100
0001
1000
,
1001
0010
0100
0001
,
1000
0100
0100
0010
,
1000
1000
0010
0001
,
0110
0001
1000
0100
,
0100
0010
0001
0010
1000
0001
1000
0010
,
0100
0001
0100
1000
0001
1000
0010
0002
,
0000
0013
1000
0100
,
0001
0010
1000
0001
,
1001
0100
0010
1000
,
0001
0000
0010
0000
0010
1000
0100
1000
,
0001
0001
0100
1000
,
0110
1000
0001
0010
,
0010
1000
0001
0001
,
0010
1000
0010
0001
1000
0001
0100
1000
,
0010
1000
0100
0001
,
0010
1000
0100
0010
,
0110
0001
1000
0100
,
0010
0000
1000
0000
1000
0100
0001
0100
,
0010
0010
0001
0100
,
1001
0100
0010
1000
,
1000
0001
0100
0001
0010
0100
0010
0001
,
1000
0100
1000
0010
0100
0010
0001
0000
,
1000
0000
0110
0000
0001
0000
1000
0100
,
0000
1000
0010
0000
0011
0000
1010
0000
,
0100
0000
0001
0000
1000
0000
0010
0100
,
0000
0100
1000
0000
1100
0000
0110
0000
,
0010
0000
1000
0000
0001
0000
0100
0001
,
0000
1000
0001
0000
1001
0000
1100
0000
,
1000
0010
1000
0010
0100
0000
0110
0000
,
0001
1000
0001
1000
0010
0000
1001
0000
,
1000
0000
0100
0000
0010
0000
0100
0010
,
0000
1000
0010
0000
0110
0000
1001
0000
,
0100
0000
0010
0000
1000
0000
1000
0100
,
0000
0100
0010
0000
0011
0000
0101
0000
,
0010
0000
1000
0000
0001
0000
1000
0001
,
0000
0001
0100
0000
1010
0000
1100
0000
,
0002
0000
0023
0000
,
0230
0000
1300
0000
,
1000
0000
0100
0000
0010
0000
1000
0000
0010
0000
0001
0000
,
0100
0000
0010
0000
1000
0000
0100
0000
0000
0000
0000
0000
,
0100
0000
0010
0000
0001
0000
0100
0000
0100
0000
0010
0000
,
1000
0000
0100
0000
0010
0000
1000
0000
0000
0000
0000
0000
,
0100
0000
0010
0000
1000
0000
0100
0000
0001
0000
0010
0000
,
0001
0000
0100
0000
0100
0000
0001
0000
0000
0000
0000
0000
,
0010
0000
1000
0000
0010
0000
0001
0000
0100
0000
0010
0000
,
1000
0000
0100
0000
1000
0000
0010
0000
0001
0000
0100
0000
,
0010
0000
1000
0000
0001
0000
0010
0000
0001
0000
0100
0000
,
1000
0000
0001
0000
0010
0000
1000
0000
0001
0000
1000
0000
,
0100
0000
0001
0000
0100
0000
1000
0000
1000
0000
0001
0000
,
0010
0000
1000
0000
0001
0000
0010
0000
0100
0000
1000
0000
,
0001
0000
0001
0000
0010
0000
1000
0000
0100
0000
0001
0000
,
0100
0000
1000
0000
1000
0000
0100
0000
0001
0000
0001
0000
,
0001
0000
0010
0000
0001
0000
0100
0000
1000
0000
0001
0000
,
0010
0000
1001
0000
,
0001
0000
0010
0000
0100
0000
0001
0000
0100
0000
1000
0000
,
0010
0000
0100
0000
0001
0000
0010
0000
0100
0001
1000
0001
,
1000
0000
0100
0000
1000
0000
0010
0000
0010
0000
0100
0000
,
0001
0000
0010
0000
0100
0000
0001
0000
1000
0010
0100
0010
,
0100
0000
1000
0000
0001
0000
0010
0000
1000
0000
0100
0000
,
1000
0000
0010
0000
0010
0000
0100
0000
1000
0001
0100
0001
,
0100
0000
0001
0000
0100
0000
1000
0000
0010
0000
0100
0000
,
0001
0000
0010
0000
0001
0000
0100
0000
1000
0000
0010
0000
,
1000
0000
0100
0000
0010
0000
1000
0000
0010
0000
0001
0000
,
0100
0000
0010
0000
1000
0000
0100
0000
0010
1000
0100
1000
,
0100
0000
0010
0000
0001
0000
0100
0000
0100
0000
0010
0000
,
1000
0000
0100
0000
0010
0000
1000
0000
0001
0100
1000
0100
,
1000
0000
0010
0000
1000
0000
0100
0000
0001
0000
0010
0000
,
0001
0000
0100
0000
0100
0000
0001
0000
0100
1000
0010
1000
,
0010
0000
1000
0000
0010
0000
0001
0000
0100
0000
0010
0000
,
1000
0000
0100
0000
1000
0000
0010
0000
0001
0000
0100
0000
,
0010
0000
0000
0101
0000
0000
1010
0000
0000
0110
0000
0000
0001
0000
0000
0100
,
0010
0000
0000
1100
0000
0000
1001
0000
0000
0101
0000
0000
0010
0000
0000
1000
,
0001
0000
0000
1001
0000
0000
1100
0000
0000
0110
0000
0000
1000
0000
0000
0010
,
0001
0000
0000
0011
0000
0000
0110
0000
0000
1010
0000
0000
1000
0000
0000
0100
,
0010
0000
0000
0101
0000
0000
1010
0000
0000
0110
0000
0000
0001
0000
0000
0100
,
0010
0000
0000
1100
0000
0000
1001
0000
0000
0101
0000
0000
0010
0000
0000
1000
,
0001
0000
0000
1001
0000
0000
1100
0000
0000
0110
0000
0000
1000
0000
0000
0010
,
0002
0000
0000
1003
,
0010
1000
0100
0010
0001
0100
0010
1000
,
0010
0100
0010
0100
0001
0100
0001
1000
,
0001
1000
0100
0010
0001
0100
1000
0100
,
1000
0001
0100
0001
0010
0100
0010
0100
,
1000
0010
1000
0010
1000
0100
0001
0100
,
0001
0010
0100
1000
0010
1000
0010
0001
,
0100
0001
0100
0010
1000
0100
0010
0100
,
0010
1000
0001
0100
0010
1000
0100
0010
,
0100
0010
1000
0100
1000
0010
0001
0100
,
0001
0100
0010
1000
0001
1000
0001
0100
,
0010
1000
0010
1000
0100
0010
0001
0100
,
0010
0001
0100
0001
0010
0100
1000
0010
,
1000
0010
0001
1000
0001
1000
0010
1000
,
0010
0100
0010
0100
0001
1000
0100
0001
,
0010
0001
0010
1000
0100
0010
1000
0010
,
1000
0000
0110
0000
,
1000
0100
0010
0001
0100
0000
0010
0001
,
0000
1000
0100
0000
0011
0000
1100
0000
,
0001
1000
0100
1000
0001
0000
0100
0010
,
0000
1000
0010
0000
0110
0000
0011
0000
,
1000
0100
1000
0010
0001
0000
0100
0001
,
0000
1000
0001
0000
1001
0000
1100
0000
,
0010
0001
0100
0001
0010
0000
0011
0000
,
0100
1000
0100
0010
0001
0000
1100
0000
,
0001
0010
0100
1000
0010
0000
0100
1000
,
0000
0001
0010
0000
1100
0000
0011
0000
,
1000
0001
0010
0001
1000
0000
0010
0100
,
0000
0001
0100
0000
0110
0000
1100
0000
,
0001
0010
0001
0100
1000
0000
0010
1000
,
0000
0001
1000
0000
1001
0000
0011
0000
,
0100
1000
0010
1000
0100
0010
1000
0100
,
0010
0001
0010
0100
1000
0010
0001
0000
,
2002
0000
0000
0000
,
0000
0000
0000
3003
;

//---------------dance-single - ----------------
#NOTEDATA:;
#CHARTNAME:;
#STEPSTYPE:dance-single;
#DESCRIPTION:;
#CHARTSTYLE:;
#DIFFICULTY:Beginner;
#METER:6;
#RADARVALUES:0.256948,0.452798,0.030145,0.261254,0.000000,179.000000,176.000000,3.000000,26.000000,0.000000,0.000000,0.000000,0.000000,0.000000,0.256948,0.452798,0.030145,0.261254,0.000000,179.000000,176.000000,3.000000,26.000000,0.000000,0.000000,0.000000,0.000000,0.000000;
#CREDIT:kater15;
#DISPLAYBPM:180.000000:360.000000;
#NOTES:
0000
0000
0000
0000
,
0000
0000
0000
0000
,
0000
0000
0000
0000
,
0000
0000
0000
0000
,
0100
0000
0000
0000
,
0100
0000
0000
0000
,
0100
0000
0000
0000
,
1001
0000
0100
0000
,
0000
0000
0001
0000
,
1000
0000
0001
0000
,
0010
0000
0100
0000
,
0000
0000
0010
0000
,
0000
0000
1000
0000
,
0100
0000
0100
0000
,
0010
0000
0010
0000
,
0000
0000
1000
0000
,
0000
0000
0001
0000
,
0010
0000
1000
0000
,
0010
0000
0100
0000
,
0000
0000
1000
0000
,
0000
0000
0001
0000
,
0100
0000
0100
0000
,
0220
0000
0330
0000
,
1000
0000
0000
0000
,
0100
0000
0000
0000
,
0010
0000
1000
0000
,
0100
0000
0010
0000
,
0001
0000
0000
0000
,
1000
0000
0000
0000
,
0100
0000
0001
0000
,
1000
0000
0001
0000
,
0010
0000
0000
0000
,
0100
0000
0000
0000
,
0010
0000
0010
0000
,
0100
0000
0100
0000
,
0001
0000
0000
0000
,
1000
0000
0000
0000
,
0020
0000
0000
0000
,
0000
0000
0030
0000
,
1000
0000
0000
0000
,
0000
0000
0010
0000
,
0010
0000
0000
0000
,
0000
0000
0100
0000
,
0100
0000
0000
0000
,
0000
0000
0001
0000
,
0001
0000
0000
0000
,
0010
0000
0100
0000
,
1000
0000
0000
0000
,
0000
0000
0010
0000
,
0010
0000
0000
0000
,
0000
0000
0100
0000
,
0100
0000
0000
0000
,
0000
0000
0001
0000
,
0002
0000
0003
0000
,
2000
0000
3000
0000
,
0200
0000
0000
0000
,
0300
0000
0000
0000
,
0002
0000
0000
0000
,
0003
0000
0000
0000
,
0020
0000
0000
0000
,
0030
0000
0000
0000
,
2000
0000
3000
0000
,
0002
0000
0003
0000
,
0200
0000
0000
0000
,
0300
0000
0000
0000
,
2000
0000
0000
0000
,
3000
0000
0000
0000
,
0020
0000
0000
0000
,
0030
0000
0000
0000
,
2000
0000
3000
0000
,
0002
0000
0003
0000
,
0002
0000
0000
0000
,
0003
0000
0000
0000
,
0020
0000
0000
0000
,
0030
0000
0000
0000
,
2000
0000
0000
0000
,
3000
0000
0000
0000
,
0200
0000
0300
0000
,
0020
0000
0030
0000
,
0002
0000
0000
0000
,
0003
0000
0000
0000
,
0200
0000
0000
0000
,
0300
0000
0000
0000
,
2000
0000
0000
0000
,
3000
0000
0000
0000
,
0200
0000
0300
0000
,
0020
0000
0030
0000
,
1000
1000
1000
0000
,
0001
0001
0001
0000
,
1000
1000
1000
0000
,
0001
0001
0001
0000
,
0100
0100
0100
0000
,
0010
0010
0010
0000
,
0100
0100
0100
0000
,
0010
0010
0010
0000
,
1000
0000
0100
0000
,
0010
0000
0010
0000
,
1000
0000
0100
0000
,
1000
0000
0010
0000
,
0100
0000
0100
0000
,
0001
0000
1000
0000
,
0010
0000
1000
0000
,
0100
0000
0010
0000
,
0100
0000
0100
0000
,
0001
0000
0001
0000
,
0010
0000
0001
0000
,
0100
0000
0010
0000
,
1000
0000
0100
0000
,
0010
0000
0010
0000
,
0100
0000
0100
0000
,
0001
0000
1001
0000
,
0100
0000
0100
0000
,
0001
0000
0010
0000
,
1000
0000
1000
0000
,
0010
0000
0100
0000
,
0001
0000
0001
0000
,
1000
0000
0100
0000
,
0010
0000
0010
0000
,
0100
0000
0100
0000
,
0001
0000
0001
0000
,
0010
0000
1000
0000
,
0100
0000
0100
0000
,
1000
0000
0001
0000
,
0010
0000
0010
0000
,
0100
0000
0001
0000
,
1000
1000
1000
0000
,
0001
0001
0001
0000
,
0200
0000
0000
0000
,
0000
0000
0000
0300
;

//---------------dance-single - ----------------
#NOTEDATA:;
#CHARTNAME:;
#STEPSTYPE:dance-single;
#DESCRIPTION:;
#CHARTSTYLE:;
#DIFFICULTY:Medium;
#METER:14;
#RADARVALUES:0.579926,0.711540,0.160772,0.422026,0.080386,404.000000,388.000000,16.000000,42.000000,0.000000,0.000000,0.000000,0.000000,0.000000,0.579926,0.711540,0.160772,0.422026,0.080386,404.000000,388.000000,16.000000,42.000000,0.000000,0.000000,0.000000,0.000000,0.000000;
#CREDIT:kater15;
#DISPLAYBPM:180.000000:360.000000;
#NOTES:
0000
0000
0000
0000
,
0000
0000
0000
0000
,
0000
0000
0000
0000
,
0000
0000
0000
0000
,
2000
0100
0001
3010
,
0100
0100
0100
0100
,
0002
0010
1000
0103
,
0010
0000
1000
0000
,
0100
0000
0010
0000
,
1000
0100
0100
0010
,
1000
0100
0010
0001
,
0100
0000
0010
0000
,
1000
0000
0100
0000
,
0001
0010
0001
0100
,
1000
0010
1000
0100
,
0010
0000
0101
0000
,
1000
0000
0010
0000
,
0100
0100
0001
0010
,
0001
0001
1000
0100
,
0010
0000
0100
0000
,
0001
0000
1100
0000
,
0001
0001
1000
1000
,
0200
0000
0302
0000
,
0003
0000
1001
0000
,
1000
0000
0100
0000
,
0010
0001
0010
0010
,
1000
0100
0001
0001
,
1000
0000
0110
0000
,
1000
0000
0001
0000
,
0010
0010
1000
0100
,
0010
0010
1000
0001
,
0010
0000
0100
0000
,
1000
0000
1000
0000
,
0010
0001
0100
0010
,
1000
0100
0010
0001
,
0100
0000
0010
0000
,
1000
0000
0100
0000
,
0010
0000
0010
0000
0010
0000
0000
1000
,
0000
1000
0000
0000
0100
0000
0100
0000
,
0010
0000
0001
0000
0100
0000
0000
0010
,
0000
0010
0000
0000
0010
0000
0001
0000
,
0100
0000
0100
0000
0010
0000
0000
0001
,
0000
0001
0000
0000
1000
0000
0001
0000
,
0010
0000
0100
0000
1000
0000
0000
0100
,
0000
0100
0000
0000
0100
0000
0010
0000
,
1000
0100
0010
1000
,
0001
0010
0100
0001
,
1000
0000
0100
0000
0010
0000
0000
1000
,
0000
1000
0000
0000
0010
0000
0100
0000
,
0001
0000
1000
0000
0001
0000
0000
0010
,
0000
0010
0000
0000
1000
0000
1000
0000
,
0010
0000
0100
0000
1000
0000
0000
0001
,
0000
0001
0000
0000
0100
0000
0010
0000
,
0011
0000
1010
0000
,
1100
0000
0101
0000
,
2000
0000
3002
0000
,
2003
0000
3002
0000
,
0203
0000
0320
0000
,
0230
0000
0320
0000
,
2030
0000
3200
0000
,
2300
0000
3200
0000
,
0302
0000
0023
0000
,
0230
0000
2300
0000
,
3020
0000
0032
0000
,
0023
0000
0032
0000
,
0203
0000
2300
0000
,
3200
0000
2300
0000
,
3002
0000
0203
0000
,
0302
0000
0203
0000
,
0320
0000
2030
0000
,
3002
0000
0203
0000
,
0310
0000
0100
0000
,
1000
0000
0100
0000
1000
0000
0100
0000
0000
0000
0000
0000
,
0001
0000
1000
0000
,
0001
0000
0010
0000
0001
0000
0010
0000
0000
0000
0000
0000
,
1000
0000
0100
0000
,
0010
0000
0100
0000
0010
0000
0100
0000
0000
0000
0000
0000
,
1000
0000
0000
0000
0010
0000
0011
0000
0000
0000
0000
0000
,
0001
0000
0000
0000
1000
0000
1100
0000
0000
0000
0000
0000
,
0100
0000
0010
0000
,
0001
0000
0010
0000
0001
0000
0010
0000
0000
0000
0000
0000
,
1000
0000
0001
0000
,
1000
0000
0100
0000
1000
0000
0100
0000
0000
0000
0000
0000
,
0001
0000
0010
0000
,
0100
0000
0010
0000
0100
0000
0010
0000
0000
0000
0000
0000
,
0001
0000
0000
0000
0100
0000
1100
0000
0000
0000
0000
0000
,
1000
0000
0000
0000
0001
0000
0011
0000
0000
0000
0000
0000
,
1000
0000
0100
0000
0100
0000
0010
0001
,
0100
0000
0010
0000
1000
0000
0100
1000
,
0100
0000
0010
0000
0010
0000
0100
0001
,
1000
0000
0010
0000
1000
0000
0100
0010
,
0002
0000
0000
0000
0003
0000
0100
0010
,
2000
0000
0000
0000
3000
0000
0010
0001
,
0200
0000
0000
0000
0300
0000
0010
0100
,
2000
0000
3000
0110
,
0100
0001
0010
0100
,
0010
0100
0010
0001
,
1000
0010
0001
1000
,
0010
0100
1000
0001
,
0001
0100
0001
0010
,
0001
0001
1000
0100
,
0010
0001
0100
0001
,
1000
0000
0011
0000
,
0001
0100
1000
0100
,
0010
1000
0001
0100
,
0010
0001
0001
0010
,
0100
1000
0001
0010
,
0001
0100
0001
0010
,
0001
0001
0100
0010
,
1000
0100
0100
0010
,
0100
0000
1100
0000
,
1000
0000
0010
0000
0001
0000
0000
1000
,
0000
1000
0000
0000
1000
0000
0010
0000
,
0001
0000
0001
0000
1000
0000
0000
0010
,
0000
0010
0000
0000
0100
0000
0010
0000
,
1000
0000
0001
0000
0100
0000
0000
0001
,
0000
0001
0000
0000
0001
0000
1000
0000
,
0100
0001
1000
0100
,
0010
1000
0001
0010
,
0100
0000
0001
0000
1000
0000
0000
0100
,
0000
0100
0000
0000
1000
0000
0001
0000
,
0010
0000
0100
0000
0010
0000
0000
1000
,
0000
1000
0000
0000
0100
0000
0100
0000
,
1000
0000
0001
0000
0100
0000
0000
0010
,
0000
0010
0000
0000
0001
0000
1000
0000
,
0100
0100
1000
0001
,
0010
0001
1000
1000
,
0220
0000
0000
0000
,
0000
0000
0000
0330
;

//---------------dance-single - ----------------
#NOTEDATA:;
#CHARTNAME:;
#STEPSTYPE:dance-single;
#DESCRIPTION:;
#CHARTSTYLE:;
#DIFFICULTY:Hard;
#METER:18;
#RADARVALUES:0.940227,1.099653,0.381833,0.130627,0.587822,655.000000,617.000000,38.000000,13.000000,0.000000,0.000000,0.000000,0.000000,0.000000,0.940227,1.099653,0.381833,0.130627,0.587822,655.000000,617.000000,38.000000,13.000000,0.000000,0.000000,0.000000,0.000000,0.000000;
#CREDIT:kater15;
#DISPLAYBPM:180.000000:360.000000;
#NOTES:
// measure 0
0000
0000
0000
0000
,  // measure 1
0000
0000
0000
0000
,  // measure 2
0000
0000
0000
0000
,  // measure 3
0000
0000
0000
0000
,  // measure 4
1000
0001
0000
0001
1000
0000
0001
0010
,  // measure 5
0000
1001
0000
0100
1000
0000
0001
0010
,  // measure 6
0000
1000
1000
0000
0011
0000
0100
1000
,  // measure 7
0001
0010
0010
1000
,  // measure 8
0001
0101
1000
0001
,  // measure 9
1010
0010
0010
0001
,  // measure 10
0001
1000
1000
1010
,  // measure 11
0001
0001
0100
1000
,  // measure 12
0110
1000
0001
0010
,  // measure 13
0010
1000
0001
0100
,  // measure 14
0010
0000
0010
0000
1000
0001
1000
0001
,  // measure 15
0010
1000
0001
0001
,  // measure 16
0010
0010
0001
1000
,  // measure 17
0101
0010
1000
1000
,  // measure 18
0010
1000
0010
0001
,  // measure 19
0010
0100
0001
1000
,  // measure 20
1001
0010
0010
1000
,  // measure 21
1000
0001
0100
0001
0100
0000
0010
0000
,  // measure 22
1000
0100
1000
0100
0010
0000
2002
0000
,  // measure 23
3003
1000
1000
0100
,  // measure 24
0010
0011
0100
0010
,  // measure 25
1100
1000
1000
0010
,  // measure 26
0010
0100
0100
1100
,  // measure 27
0010
0010
0001
0100
,  // measure 28
1001
0100
0010
1000
,  // measure 29
1000
0100
0010
0001
,  // measure 30
1000
0000
1000
0000
0100
0010
0100
0010
,  // measure 31
1000
0100
0010
0010
,  // measure 32
1000
1000
0010
0100
,  // measure 33
0011
1000
0100
0100
,  // measure 34
1000
0100
1000
0010
,  // measure 35
1000
0001
0010
0100
,  // measure 36
0110
1000
1000
0100
,  // measure 37
0100
0010
0001
0010
0001
0000
1000
0000
,  // measure 38
0100
0001
0100
0001
1000
0000
0220
0000
,  // measure 39
0330
0000
0001
0000
0001
0000
0000
1000
,  // measure 40
0000
1000
0000
0000
0010
0000
0010
0000
,  // measure 41
0100
0000
0001
0000
0010
0000
0000
0100
,  // measure 42
0000
0100
0000
0000
1000
0000
0010
0000
,  // measure 43
0010
0000
1000
0000
0001
0000
0000
0001
,  // measure 44
0000
0001
0000
0000
0001
0000
0100
0000
,  // measure 45
0001
0000
1000
0010
0100
0000
0010
0000
,  // measure 46
1000
0000
0001
1000
0010
0000
0001
0000
,  // measure 47
1000
0000
0100
0000
0010
0000
0100
0010
,  // measure 48
0000
1000
0010
0000
0110
0000
1001
0000
,  // measure 49
0100
0000
0010
0000
1000
0000
1000
0100
,  // measure 50
0000
0100
0010
0000
0011
0000
0101
0000
,  // measure 51
0010
0000
1000
0000
0001
0000
1000
0001
,  // measure 52
0000
0001
0100
0000
1010
0000
1100
0000
,  // measure 53
0002
0000
0023
0000
,  // measure 54
0230
0000
1300
0000
,  // measure 55
1000
0000
0100
0000
0010
0000
1000
0000
0010
0000
0001
0000
,  // measure 56
0100
0000
0010
0000
1000
0000
0100
0000
0000
0000
0000
0000
,  // measure 57
0100
0000
0010
0000
0001
0000
0100
0000
0100
0000
0010
0000
,  // measure 58
1000
0000
0100
0000
0010
0000
1000
0000
0000
0000
0000
0000
,  // measure 59
0100
0000
0010
0000
1000
0000
0100
0000
0001
0000
0010
0000
,  // measure 60
0001
0000
0100
0000
0100
0000
0001
0000
0000
0000
0000
0000
,  // measure 61
0010
0000
1000
0000
0010
0000
0001
0000
0100
0000
0010
0000
,  // measure 62
1000
0000
0100
0000
1000
0000
0010
0000
0001
0000
0100
0000
,  // measure 63
0010
0000
1000
0000
0001
0000
0010
0000
0001
0000
0100
0000
,  // measure 64
1000
0000
0001
0000
0010
0000
1000
0000
0000
0000
0000
0000
,  // measure 65
0100
0000
0001
0000
0100
0000
1000
0000
1000
0000
0001
0000
,  // measure 66
0010
0000
1000
0000
0001
0000
0010
0000
0000
0000
0000
0000
,  // measure 67
0001
0000
0001
0000
0010
0000
1000
0000
0100
0000
0001
0000
,  // measure 68
0100
0000
1000
0000
1000
0000
0100
0000
0000
0000
0000
0000
,  // measure 69
0001
0000
0010
0000
0001
0000
0100
0000
1000
0000
0001
0000
,  // measure 70
0010
0000
0100
0000
0100
0000
0001
0000
0010
0000
1000
0000
,  // measure 71
0001
0000
0010
0000
0100
0000
0001
0000
0100
0000
1000
0000
,  // measure 72
0010
0000
0100
0000
0001
0000
0010
0000
0000
0000
0000
0000
,  // measure 73
1000
0000
0100
0000
1000
0000
0010
0000
0010
0000
0100
0000
,  // measure 74
0001
0000
0010
0000
0100
0000
0001
0000
0000
0000
0000
0000
,  // measure 75
0100
0000
1000
0000
0001
0000
0010
0000
1000
0000
0100
0000
,  // measure 76
1000
0000
0010
0000
0010
0000
0100
0000
0000
0000
0000
0000
,  // measure 77
0100
0000
0001
0000
0100
0000
1000
0000
0010
0000
0100
0000
,  // measure 78
0001
0000
0010
0000
0001
0000
0100
0000
1000
0000
0010
0000
,  // measure 79
1000
0000
0100
0000
0010
0000
1000
0000
0010
0000
0001
0000
,  // measure 80
0100
0000
0010
0000
1000
0000
0100
0000
0000
0000
0000
0000
,  // measure 81
0100
0000
0010
0000
0001
0000
0100
0000
0100
0000
0010
0000
,  // measure 82
1000
0000
0100
0000
0010
0000
1000
0000
0000
0000
0000
0000
,  // measure 83
1000
0000
0010
0000
1000
0000
0100
0000
0001
0000
0010
0000
,  // measure 84
0001
0000
0100
0000
0100
0000
0001
0000
0000
0000
0000
0000
,  // measure 85
0202
0000
0000
0000
,  // measure 86
0000
0000
0000
0303
,  // measure 87
0010
0000
0000
0001
0000
0000
0010
0000
0000
0100
0000
0000
0001
0000
0000
0100
,  // measure 88
0010
0000
0000
1000
0000
0000
1000
0000
0000
0100
0000
0000
0010
0000
0000
1000
,  // measure 89
0001
0000
0000
1000
0000
0000
0100
0000
0000
0100
0000
0000
1000
0000
0000
0010
,  // measure 90
0001
0000
0000
0010
0000
0000
0010
0000
0000
1000
0000
0000
1000
0000
0000
0100
,  // measure 91
0010
0000
0000
0001
0000
0000
1000
0000
0000
0010
0000
0000
0001
0000
0000
0100
,  // measure 92
0010
0000
0000
0100
0000
0000
0001
0000
0000
0100
0000
0000
0010
0000
0000
1000
,  // measure 93
0001
0000
0000
0001
0000
0000
0100
0000
0000
0100
0000
0000
1000
0000
0000
0010
,  // measure 94
0200
0000
0000
0301
,  // measure 95
0010
1000
0100
0010
0001
0100
0010
1000
,  // measure 96
0010
0100
0010
0100
0001
0100
0001
1000
,  // measure 97
0001
1000
0100
0010
0001
0100
1000
0100
,  // measure 98
1000
0100
0010
0001
,  // measure 99
1000
0010
1000
0010
1000
0100
0001
0100
,  // measure 100
0001
0010
0100
1000
0010
1000
0010
0001
,  // measure 101
0100
0001
0100
0010
1000
0100
0010
0100
,  // measure 102
0010
0001
1000
0100
,  // measure 103
0100
0010
1000
0100
1000
0010
0001
0100
,  // measure 104
0001
0100
0010
1000
0001
1000
0001
0100
,  // measure 105
0010
1000
0010
1000
0100
0010
0001
0100
,  // measure 106
0010
0100
0010
0100
,  // measure 107
1000
0010
0001
1000
0001
1000
0010
1000
,  // measure 108
0010
0100
0010
0100
0001
1000
0100
0001
,  // measure 109
0010
0001
0010
1000
0100
0010
1000
0010
,  // measure 110
2000
0010
0010
3010
,  // measure 111
0010
1000
0001
0000
1000
0000
0001
0100
,  // measure 112
0000
0010
1000
0000
0101
0000
0011
0000
,  // measure 113
0100
0010
1000
0000
0100
0000
1000
0001
,  // measure 114
0000
0010
0001
0000
1001
0000
1100
0000
,  // measure 115
0010
1000
0010
0000
0100
0000
1000
0100
,  // measure 116
0000
0010
0100
0000
0101
0000
1010
0000
,  // measure 117
0001
0100
1000
0100
0001
0000
0110
0000
,  // measure 118
1000
0010
1000
0001
0100
0000
0011
0000
,  // measure 119
0100
0001
1000
0000
0001
0000
1000
0010
,  // measure 120
0000
0100
0001
0000
0011
0000
0110
0000
,  // measure 121
0010
0100
0001
0000
0010
0000
0001
1000
,  // measure 122
0000
0100
1000
0000
1001
0000
1010
0000
,  // measure 123
0100
0001
0100
0000
0010
0000
0001
0010
,  // measure 124
0000
0100
0010
0000
0110
0000
0101
0000
,  // measure 125
1000
0010
0001
0010
1000
0001
0010
1000
,  // measure 126
0001
0100
0001
1000
0010
0001
0100
0000
,  // measure 127
0220
0000
0000
0000
,  // measure 128
0000
0000
0000
0330
;
