#TITLE:Candles;
#SUBTITLE:-Full Song-;
#ARTIST:Within Temptation;
#TITLETRANSLIT:;
#SUBTITLETRANSLIT:;
#ARTISTTRANSLIT:;
#GENRE:;
#CREDIT:;
#BANNER:Candles -Full Song-.png;
#BACKGROUND:Candles -Full Song--bg.png;
#LYRICSPATH:;
#CDTITLE:;
#MUSIC:Candles -Full Song-.ogg;
#OFFSET:-19.902000;
#SAMPLESTART:207.725006;
#SAMPLELENGTH:18.000000;
#SELECTABLE:YES;
#DISPLAYBPM:128.000000:256.000000;
#BPMS:0.000000=127.779991
,352.000000=255.559982
,544.000000=127.779991
,592.000000=255.559982
,688.000000=127.779991
,796.000000=255.559982
,892.000000=127.779991
,988.000000=255.559982
;
#STOPS:
;
#BGCHANGES:;
#KEYSOUNDS:;
#ATTACKS:;

//---------------dance-single - ----------------
#NOTES:
     dance-single:
     :
     Easy:
     7:
     0.221076,0.385947,0.114719,0.110036,0.000000,661.000000,612.000000,49.000000,47.000000,0.000000,0.000000,0.221076,0.385947,0.114719,0.110036,0.000000,661.000000,612.000000,49.000000,47.000000,0.000000,0.000000:
0000
0000
0000
0000
,
0000
0000
0000
0000
,
0000
0000
0000
0000
,
0000
0000
0000
0000
,
0001
0000
0000
0000
,
0000
0000
1000
0000
,
0000
0000
0000
0000
,
0001
0000
0000
0000
,
0000
0000
1000
0000
,
0000
0000
0000
0000
,
0010
0000
0000
0000
,
0000
0000
0100
0000
,
0000
0000
0000
0000
,
0010
0000
0000
0000
,
0000
0000
0100
0000
,
0000
0000
0000
0000
,
0010
0000
0000
0000
,
0000
0000
1000
0001
,
0000
0000
0000
0001
,
1000
0000
0000
0000
,
0000
0000
0010
0100
,
0000
0000
0000
0100
,
0010
0000
0000
0000
,
0000
0000
1000
0100
,
0001
0000
0001
0100
,
1000
0000
0000
0000
,
0000
0000
1000
0010
,
0001
0000
0001
0010
,
2000
0000
0000
0002
,
0000
0000
3000
0000
,
0000
0003
0100
1001
,
0010
1000
0100
0000
,
0000
0001
0110
1000
,
0100
0010
0000
0000
,
0020
0000
0000
0000
,
0000
0000
0200
0000
,
0000
0000
0000
0330
,
1000
1000
0001
0010
,
0100
0001
0200
0000
,
0001
0301
0000
0000
,
0020
0000
0000
0000
,
0000
1000
2000
0000
,
0000
0000
0000
3030
,
1000
0100
1000
1001
,
0010
0110
0200
0000
,
0001
0310
0000
0000
,
0002
0000
0000
0003
,
0000
0000
2000
0000
,
0000
0000
3000
0000
,
1001
0100
0001
0010
,
0110
1000
0002
0000
,
1000
2000
0000
3003
,
0100
0000
0000
0100
,
0001
0100
1000
0000
,
0000
1000
0100
0010
,
0001
0000
0000
0100
,
1000
0010
0100
0000
,
0000
0010
0001
0100
,
0010
0000
0000
0001
,
0100
0010
1000
0000
,
0000
0000
0000
0100
,
1000
0010
0001
0000
,
0000
1000
0010
0100
,
0010
0000
1000
0000
,
0001
0001
1000
0001
,
1000
0101
1100
0000
,
0100
0010
0100
1010
,
0011
0000
1000
0100
,
1000
1100
0011
0000
,
0001
0010
1000
0110
,
1001
0000
0100
0010
,
1000
0101
1001
0000
,
0010
1000
0001
0110
,
1010
0000
1000
1000
,
0001
0011
0110
0000
,
1000
1001
0000
0000
,
0110
0000
0000
0100
,
0001
0001
0001
0000
0110
0000
0000
0000
,
0000
0010
0100
0010
,
1001
0000
0000
0000
,
0000
0001
0101
0000
,
0000
1100
0000
0010
,
1010
0000
0000
0001
,
1000
1000
1000
0000
0110
0000
0000
0000
,
0000
0001
0100
1000
,
0011
0000
0000
1000
,
0010
0010
0010
0000
1001
0000
0000
0000
,
0000
0100
1001
0010
,
1000
0000
0100
0000
,
0001
0000
1000
0000
,
0010
0000
0001
0000
,
1000
0000
0010
0000
,
1000
0000
0001
0000
,
0001
0100
1000
0000
,
0001
0000
0010
0000
,
1000
0000
0001
0000
,
0100
0000
1000
0000
,
0001
0000
0100
0000
,
0001
0000
1000
0000
,
1000
0010
0001
0000
,
0010
0000
1000
0000
,
0100
0000
0010
0000
,
0001
0000
0100
0000
,
0010
0000
0001
0000
,
0010
0000
0100
0000
,
0100
1000
0010
0000
,
0100
0000
0001
0000
,
0010
0000
0100
0000
,
1000
0000
0010
0000
,
0100
0000
1000
0000
,
0100
0000
0010
0000
,
0010
0001
0100
0000
,
1000
1000
0001
0000
,
1000
0000
0001
0000
,
1000
0000
0001
0001
,
1000
1000
0001
0000
,
1000
0000
0001
0000
,
1000
0000
0001
0001
,
1000
1000
0001
0000
,
1000
0000
0001
0000
,
1000
0000
0001
0001
,
1000
1000
0001
0000
,
1000
0000
0001
0000
,
1000
0000
0001
0001
,
0100
0100
0010
0000
,
0100
0000
0010
0000
,
0100
0000
0010
0010
,
0100
0100
0010
0000
,
0100
0000
0010
0000
,
0100
0000
0010
0010
,
0100
0100
0010
0000
,
0100
0000
0010
0000
,
0100
0000
0010
0010
,
0100
0100
0010
0000
,
0100
0000
0010
0000
,
0100
0000
0010
0010
,
0200
0000
0000
0300
,
0000
1000
0100
0020
,
0000
0000
0000
0030
,
1000
0000
0100
0010
,
0000
0010
0001
0100
,
0010
1000
0100
0000
,
0002
2000
0000
3003
,
0000
0000
0100
0100
,
0001
0001
1000
1000
,
0020
0000
0000
0030
,
0100
1000
0100
1000
,
0001
0010
0100
1000
,
0001
0000
1001
0000
,
1000
0000
0100
0000
,
0110
0000
0001
0000
,
1000
0000
0010
0000
,
1000
1000
1000
0000
,
0110
0000
1000
0000
,
0001
0000
0100
0000
,
0010
0000
0100
0000
,
1001
0000
0100
0000
,
0001
0000
0010
0000
,
0100
0000
1000
0000
,
1010
0000
0000
0000
,
0000
0000
0011
0000
,
1000
0000
0100
0000
,
0101
0000
1000
0000
,
0010
0000
1000
0000
,
0001
0001
0001
0000
,
0110
0000
0100
0000
,
0001
0000
1000
0000
,
0010
0000
0001
0000
,
1100
0000
1000
0000
,
0100
0000
0001
0000
,
0100
0100
0100
0000
,
1001
0000
0100
0000
,
0010
1001
0100
0000
,
0000
0010
1001
0100
,
0000
0001
0000
0010
,
1001
0100
0000
1000
,
0000
0010
1001
0100
,
0000
0001
0000
0001
,
0110
1000
0000
0010
,
0000
0001
0110
1000
,
0000
0100
0000
0001
,
0110
1000
0000
0010
,
0000
0001
0110
1000
,
0000
0100
0000
0000
,
0002
0000
0000
2003
,
0000
0000
3020
0000
,
0000
0230
0000
0000
,
0302
0000
0000
0203
,
0000
0000
0320
0000
,
0000
2030
0000
0000
,
3002
0000
0000
2003
,
0000
0000
3020
0000
,
0000
0230
0000
0000
,
0302
0000
0000
0203
,
0000
0000
0320
0000
,
0000
2030
0000
0000
,
3001
0001
0001
0001
,
0001
0001
1000
0001
,
1000
0001
1000
0001
,
1000
1000
0001
0000
,
1000
0000
0001
0000
,
1000
0000
0001
0001
,
1000
1000
0001
0000
,
1000
0000
0001
0000
,
1000
0000
0001
0001
,
1000
1000
0001
0000
,
1000
0000
0001
0000
,
1000
0000
0001
0001
,
1000
1000
0001
0000
,
1000
0000
0001
0000
,
1000
0000
0001
0001
,
0100
0100
0010
0000
,
0100
0000
0010
0000
,
0100
0000
0010
0010
,
0100
0100
0010
0000
,
0100
0000
0010
0000
,
0100
0000
0010
0010
,
0100
0100
0010
0000
,
0100
0000
0010
0000
,
0100
0000
0010
0010
,
0100
0100
0010
0000
,
0100
0000
0010
0000
,
0100
0000
0010
0010
,
0200
0000
0000
0300
,
0001
1000
0200
0000
,
0000
0300
1000
0001
,
0020
0000
0000
0030
,
0001
1000
0020
0000
,
0000
0030
1000
0001
,
0200
0000
0000
0300
,
0001
1000
0200
0000
,
0000
0300
1000
0001
,
0020
0000
0000
0030
,
0001
1000
0020
0000
,
0000
0030
1000
0001
,
0200
0000
0000
0300
,
0000
1000
0100
0020
,
0000
0000
0000
0030
,
1000
0000
0100
0010
,
0000
0010
0001
0100
,
0010
1000
0100
0000
,
0002
2000
0000
3003
,
0000
0000
0100
0100
,
0001
0001
1000
1000
,
0020
0000
0000
0030
,
0100
1000
0100
1000
,
0001
0010
0100
1000
,
0001
0001
1000
0000
,
0001
0000
1000
0000
,
0001
0000
1000
1000
,
0001
0001
1000
0000
,
0001
0000
1000
0000
,
0001
0000
1000
1000
,
0001
0001
1000
0000
,
0001
0000
1000
0000
,
0001
0000
1000
1000
,
0001
0001
1000
0000
,
0001
0000
1000
0000
,
0001
0000
1000
1000
,
0010
0010
0100
0000
,
0010
0000
0100
0000
,
0010
0000
0100
0100
,
0010
0010
0100
0000
,
0010
0000
0100
0000
,
0010
0000
0100
0100
,
0010
0010
0100
0000
,
0010
0000
0100
0000
,
0010
0000
0100
0100
,
0010
0010
0100
0000
,
0010
0000
0100
0000
,
0010
0000
0100
0100
,
0020
0000
0000
0000
,
0000
0000
0000
0000
,
0000
0000
0000
0000
,
0000
0000
0000
0030
;

//---------------dance-single - ----------------
#NOTES:
     dance-single:
     :
     Beginner:
     4:
     0.136459,0.225136,0.007024,0.067895,0.000000,408.000000,405.000000,3.000000,29.000000,0.000000,0.000000,0.136459,0.225136,0.007024,0.067895,0.000000,408.000000,405.000000,3.000000,29.000000,0.000000,0.000000:
0000
0000
0000
0000
,
0000
0000
0000
0000
,
0000
0000
0000
0000
,
0000
0000
0000
0000
,
0001
0000
0000
0000
,
0000
0000
0000
0000
,
0000
0000
0000
0000
,
0001
0000
0000
0000
,
0000
0000
0000
0000
,
0000
0000
0000
0000
,
1000
0000
0000
0000
,
0000
0000
0000
0000
,
0000
0000
0000
0000
,
1000
0000
0000
0000
,
0000
0000
0000
0000
,
0000
0000
0000
0000
,
0010
0000
0000
0000
,
0000
0000
0000
0000
,
0000
0000
0000
0000
,
0010
0000
0000
0000
,
0000
0000
0000
0000
,
0000
0000
0000
0000
,
0100
0000
0000
0000
,
0000
0000
0000
0000
,
0000
0000
0000
0000
,
0100
0000
0000
0000
,
0000
0000
0000
0000
,
0000
0000
0000
0000
,
1000
0000
0000
0000
,
0000
0000
0001
0000
,
0000
0000
0000
0010
,
0010
0000
1000
0000
,
0000
0010
0010
0000
,
0001
0000
0000
0000
,
0020
0000
0000
0000
,
0030
0000
0200
0000
,
0000
0000
0300
0000
,
0010
0000
0100
0000
,
0001
0000
1000
0000
,
0001
0001
0000
0000
,
0010
0000
0000
0000
,
0000
0000
2002
0000
,
0000
0000
3003
0000
,
1000
0000
0100
0000
,
0010
0000
0001
0000
,
0100
0100
0000
0000
,
0002
0000
0000
0000
,
0003
0000
2000
0000
,
0000
0000
3000
0000
,
1001
0000
0000
0000
,
0110
0000
0000
0000
,
1000
1000
0000
0000
,
0100
0000
0000
0000
,
0000
0000
0000
0000
,
0000
0000
0000
0000
,
0010
0000
0000
0000
,
0000
0000
0000
0000
,
0000
0000
0000
0000
,
1000
0000
0000
0000
,
0000
0000
0000
0000
,
0000
0000
0000
0000
,
0001
0000
0000
0000
,
0000
0000
0000
0000
,
0000
0000
0000
0000
,
0001
0000
1000
1000
,
0000
0100
0100
0000
,
1000
1000
0000
0010
,
0010
0000
0001
0001
,
0000
0010
0010
0000
,
0100
0100
0000
1000
,
1000
0000
0100
0100
,
0000
0001
0001
0000
,
1000
1000
0000
0010
,
0010
0000
1000
1000
,
0000
0010
0010
0000
,
0001
0002
0000
0000
,
0003
0000
0000
0000
,
0000
0000
0200
0000
,
0000
0000
0300
0000
,
2000
0000
0000
0000
,
0000
3000
1000
0000
,
0000
0001
0000
0010
,
0020
0000
0000
0030
,
0000
0000
0020
0000
,
0000
0000
0030
0000
,
0002
0000
0000
0003
,
0000
0000
1000
0000
,
0000
0000
0001
0000
,
1000
0000
0000
0000
,
1000
0000
0000
0000
,
0100
0000
0100
0000
,
0001
0000
0000
0000
,
0001
0000
0000
0000
,
0100
0000
0100
0000
,
0010
0000
0000
0000
,
0010
0000
0000
0000
,
1000
0000
1000
0000
,
0010
0000
0000
0000
,
0010
0000
0000
0000
,
0100
0100
0100
0000
,
0001
0000
0000
0000
,
0001
0000
0000
0000
,
0010
0000
0010
0000
,
1000
0000
0000
0000
,
1000
0000
0000
0000
,
0010
0000
0010
0000
,
0100
0000
0000
0000
,
0100
0000
0000
0000
,
0001
0000
0001
0000
,
0100
0000
0000
0000
,
0100
0000
0000
0000
,
0010
0010
0010
0000
,
1000
0000
1000
0000
,
1000
0000
1000
0000
,
1000
0000
1000
0000
,
0001
0000
0001
0000
,
0001
0000
0001
0000
,
0001
0000
0001
0000
,
1000
0000
1000
0000
,
1000
0000
1000
0000
,
1000
0000
1000
0000
,
0001
0000
0001
0000
,
0001
0000
0001
0000
,
0001
0000
0001
0000
,
0100
0000
0100
0000
,
0100
0000
0100
0000
,
0100
0000
0100
0000
,
0010
0000
0010
0000
,
0010
0000
0010
0000
,
0010
0000
0010
0000
,
0100
0000
0100
0000
,
0100
0000
0100
0000
,
0100
0000
0100
0000
,
0010
0000
0010
0000
,
0010
0000
0010
0000
,
0010
0000
0010
0000
,
0010
0000
0000
0010
,
0000
0000
1000
1000
,
0000
0000
0000
0000
,
1000
0000
0000
0010
,
0000
0001
0001
0000
,
0010
0000
0100
0000
,
1000
2000
0000
0000
,
3000
0000
0100
0000
,
0001
0000
1000
0000
,
0020
0000
0000
0030
,
0010
0000
1000
0000
,
0001
0000
0100
0000
,
0001
0000
0001
0000
,
1000
0000
0100
0000
,
0100
0000
0001
0000
,
1000
0000
1000
0000
,
0010
0000
0100
0000
,
0001
0001
0001
0000
,
0100
0000
1000
0000
,
0010
0000
0100
0000
,
0001
0000
0100
0000
,
0001
0000
0010
0000
,
0100
0000
1000
0000
,
0010
0000
1000
1000
,
1000
0000
0001
0000
,
1000
0000
0100
0000
,
0100
0000
1000
0000
,
0010
0000
1000
0000
,
1000
0000
0001
0000
,
0010
0010
0010
0000
,
0001
0000
1000
0000
,
0010
0000
0001
0000
,
1000
0000
1000
0000
,
0100
0000
0001
0000
,
0100
0000
0010
0000
,
0100
0100
0100
0000
,
0010
0000
1000
0000
,
0000
0000
1000
1000
,
0000
0001
0000
0000
,
0001
0001
0000
1000
,
0000
0000
1000
1000
,
0000
0001
0000
0000
,
0100
0100
0000
0010
,
0000
0000
0010
0010
,
0000
0100
0000
0000
,
0100
0100
0000
0010
,
0000
0000
0010
0010
,
0000
0100
0000
0000
,
0002
0000
0000
0003
,
0000
0000
0020
0000
,
0000
0030
0000
0000
,
0200
0000
0000
0300
,
0000
0000
2000
0000
,
0000
3000
0000
0000
,
0002
0000
0000
0003
,
0000
0000
0020
0000
,
0000
0030
0000
0000
,
0200
0000
0000
0300
,
0000
0000
2000
0000
,
0000
3000
0000
0000
,
0001
0001
0001
0001
,
0001
0000
1000
0000
,
0001
0000
1000
0000
,
0001
0000
0001
0000
,
0001
0000
0001
0000
,
0001
0000
0001
0000
,
1000
0000
1000
0000
,
1000
0000
1000
0000
,
1000
0000
1000
0000
,
0001
0000
0001
0000
,
0001
0000
0001
0000
,
0001
0000
0001
0000
,
1000
0000
1000
0000
,
1000
0000
1000
0000
,
1000
0000
1000
0000
,
0010
0000
0010
0000
,
0010
0000
0010
0000
,
0010
0000
0010
0000
,
0100
0000
0100
0000
,
0100
0000
0100
0000
,
0100
0000
0100
0000
,
0010
0000
0010
0000
,
0010
0000
0010
0000
,
0010
0000
0010
0000
,
0100
0000
0100
0000
,
0100
0000
0100
0000
,
0100
0000
0100
0000
,
0200
0000
0000
0000
,
0000
0000
0300
0000
,
0100
0000
0010
0000
,
0020
0000
0000
0000
,
0000
0000
0030
0000
,
0010
0000
0100
0000
,
2000
0000
0000
0000
,
0000
0000
3000
0000
,
1000
0000
0001
0000
,
0002
0000
0000
0000
,
0000
0000
0003
0000
,
0001
0000
1000
0000
,
0010
0000
0000
0010
,
0000
0000
1000
1000
,
0000
0000
0000
0000
,
1000
0000
0000
0010
,
0000
0001
0001
0000
,
0010
0000
0100
0000
,
1000
2000
0000
0000
,
3000
0000
0100
0000
,
0001
0000
1000
0000
,
0020
0000
0000
0030
,
0010
0000
1000
0000
,
0001
0000
0100
0000
,
1000
0000
1000
0000
,
1000
0000
1000
0000
,
1000
0000
1000
0000
,
0001
0000
0001
0000
,
0001
0000
0001
0000
,
0001
0000
0001
0000
,
1000
0000
1000
0000
,
1000
0000
1000
0000
,
1000
0000
1000
0000
,
0001
0000
0001
0000
,
0001
0000
0001
0000
,
0001
0000
0001
0000
,
0100
0000
0100
0000
,
0100
0000
0100
0000
,
0100
0000
0100
0000
,
0010
0000
0010
0000
,
0010
0000
0010
0000
,
0010
0000
0010
0000
,
0100
0000
0100
0000
,
0100
0000
0100
0000
,
0100
0000
0100
0000
,
0010
0000
0010
0000
,
0010
0000
0010
0000
,
0010
0000
0010
0000
,
0200
0000
0000
0000
,
0000
0000
0000
0000
,
0000
0000
0000
0000
,
0000
0000
0000
0300
;

//---------------dance-single - ----------------
#NOTES:
     dance-single:
     :
     Medium:
     11:
     0.372251,0.482434,0.173249,0.095989,0.004682,1113.000000,1039.000000,74.000000,41.000000,0.000000,0.000000,0.372251,0.482434,0.173249,0.095989,0.004682,1113.000000,1039.000000,74.000000,41.000000,0.000000,0.000000:
0000
0000
0000
0000
,
0000
0000
0000
0000
,
0000
0000
0000
0000
,
0000
0000
0000
0000
,
1001
0000
1000
0100
,
0001
0100
1000
0000
,
0001
0100
1000
0100
,
0001
0000
1000
0100
,
0001
0100
1000
0000
,
1000
0100
0001
0100
,
0010
0000
0100
0001
,
0100
1000
0100
0000
,
0010
1000
0010
0001
,
0010
0000
0100
1000
,
0100
0001
0100
0000
,
0010
1000
0010
0001
,
0010
0000
0000
0000
1000
0100
0001
0000
,
0100
0100
1000
0000
,
0100
0001
1000
0000
0100
0000
0001
0000
,
1000
0000
0000
0000
0010
0100
1000
0000
,
0001
1000
0010
0000
,
0010
1000
0100
0000
0001
0000
0100
0000
,
0010
0000
0000
0000
0001
0001
1000
0000
,
0100
0010
1000
0000
,
0001
0100
1000
0000
0001
0000
0100
0000
,
1000
0000
0000
0000
0010
0100
0001
0000
,
0010
0100
1000
0000
,
0001
1000
0100
0000
0001
0000
0010
0000
,
2000
0001
0010
0001
,
0001
0100
0020
0000
,
0000
3030
0001
0101
,
0100
0000
0010
1000
0100
0000
0011
0000
,
0100
0001
0010
1100
,
0100
1000
0010
0000
1000
0100
0001
0000
,
0020
1000
0100
1000
,
0001
1000
0200
0000
,
0000
0000
0000
0330
,
1000
0000
0100
0000
1000
0000
0010
1000
,
0100
0000
0001
1000
0020
0000
0000
0000
,
1000
0000
1030
0000
0100
0001
0100
0000
,
0020
0100
0001
0100
,
0001
1000
2000
0000
,
0000
0000
0000
3030
,
1000
0100
1000
1001
,
0010
1000
0010
0001
0200
0000
0000
0000
,
0001
0000
0310
0000
1000
0100
0010
0000
,
0002
0000
0100
0103
,
0010
0001
0100
0000
2000
0000
0000
0000
,
0001
0001
3010
0000
,
1001
0010
0100
0000
1001
0010
0100
0000
,
0010
0100
1000
0100
0002
0000
0000
0000
,
1000
2000
0000
3003
,
1001
0000
0000
0000
1000
0001
0100
0000
,
0001
0100
1000
0000
,
0001
1000
0100
0000
1000
0000
0100
0000
,
0001
0000
0000
0000
1000
0010
0100
0000
,
0001
0100
1000
0000
,
1000
0010
0100
0000
0001
0000
0100
0000
,
0010
0000
0000
0000
0100
0010
0001
0000
,
0100
1000
0100
0000
,
0010
0100
1000
0000
0010
0000
0001
0000
,
0010
0000
0000
0000
0100
0001
1000
0000
,
0100
0001
0100
0000
,
0010
0001
1000
0000
0010
0000
0001
0000
,
0110
0000
1001
0000
1000
0100
0001
0010
,
0100
1100
1010
1000
,
0100
0001
1000
0010
0100
0000
0011
0000
,
1010
0000
1000
0000
0010
0100
1000
0010
,
0001
1100
0011
1000
,
0010
1000
0100
1000
0001
0000
0101
0000
,
1010
0000
0100
0000
0001
0001
1000
0010
,
0100
0110
1001
0100
,
0001
0100
1000
1000
0001
0000
0100
0000
,
1001
0000
0011
0000
0010
0100
0001
0100
,
0010
1100
1010
0100
,
0001
1000
0100
0010
0001
0000
1010
0000
,
0220
0000
0330
0100
,
0001
0010
1000
0000
0010
0000
0000
1000
,
0000
0000
0010
0001
0100
1000
0010
0000
,
1001
0000
0000
0100
0000
0000
1000
0000
,
0010
0000
1000
0000
0010
0000
0100
0000
0000
0000
0000
0000
0001
0000
0000
0000
0000
0000
0000
0000
0000
0010
0000
0000
,
0000
0000
0100
0000
0000
1000
0000
0000
,
1001
0000
0000
0100
0000
0000
0001
0000
,
1000
0100
0001
0000
0010
0000
0000
1100
,
0000
0000
0000
0001
0000
0000
0100
0000
0000
0001
0100
0001
,
0010
0000
0000
0110
0000
0000
1000
0000
,
0100
0010
0100
0000
1001
0000
0000
0100
,
0000
0000
0101
0000
0000
1001
0000
0000
,
1000
0100
0001
0100
,
1000
0100
0001
0100
,
1000
0100
0001
0100
,
1000
0010
0001
0010
,
1000
0010
0001
0010
,
1000
0010
0001
0010
,
1000
0100
0001
0100
,
1000
0100
0001
0100
,
1000
0100
0001
0100
,
1000
0010
0001
0010
,
1000
0010
0001
0010
,
1000
0010
0001
0010
,
0100
0001
0010
0001
,
0100
0001
0010
0001
,
0100
0001
0010
0001
,
0100
1000
0010
1000
,
0100
1000
0010
1000
,
0100
1000
0010
1000
,
0100
0001
0010
0001
,
0100
0001
0010
0001
,
0100
0001
0010
0001
,
0100
1000
0010
1000
,
0100
1000
0010
1000
,
0100
1000
0010
1000
,
0100
0010
0100
0100
,
1000
1000
0001
0001
,
0100
0100
0010
0010
,
0100
0010
0100
0100
,
1000
1000
0001
0001
,
0100
0100
0010
0010
,
0100
0010
0100
0100
,
1000
1000
0001
0001
,
0100
0100
0010
0010
,
0100
0010
0100
0100
,
1000
1000
0001
0001
,
0100
0100
0010
0010
,
0001
1000
0001
0001
,
0100
0100
0010
0010
,
0001
0001
1000
1000
,
0001
1000
0001
0001
,
0100
0100
0010
0010
,
0001
0001
1000
1000
,
0001
1000
0001
0001
,
0100
0100
0010
0010
,
0001
0001
1000
1000
,
0001
1000
0001
0001
,
0100
0100
0010
0010
,
0001
0001
1000
1000
,
0200
0000
0000
0300
,
0100
0001
0100
0010
1000
0100
0020
0000
,
0000
0000
0000
0030
,
1000
0100
0001
0000
0101
0000
1010
0000
,
0100
0000
0010
0000
0001
1000
0100
0000
,
0010
0001
1000
0000
0110
0000
0110
0000
,
0002
0100
2000
0000
0000
0000
3003
0000
,
0000
0000
0000
0000
0010
0010
0010
0000
,
0001
0001
0001
0000
0100
0100
0100
0000
,
0020
1000
0100
1030
,
0001
0010
0100
0000
0100
0010
1000
0000
,
0001
0100
0010
0001
0100
0010
1000
0000
,
0001
0100
1001
0000
,
1000
0100
0100
0000
,
0100
0010
0001
0000
,
1000
0000
0010
1000
,
0100
0010
0001
0000
,
0110
0000
1001
0000
,
0001
1000
0100
1000
,
0010
0000
0100
0000
,
1001
0010
0100
1000
,
0001
0100
0010
0000
,
0100
0000
1000
0000
,
1010
0000
0001
0100
,
1000
0000
0011
0000
,
1000
0000
0100
0000
,
0011
0001
1000
0100
,
0010
0000
1000
0000
,
0001
0010
0100
0000
,
0010
1000
0100
0010
,
0001
0000
1000
0000
,
0110
0000
1001
0000
,
1000
1000
0001
0010
,
0100
0000
0001
0000
,
0100
0010
1000
0000
,
1001
0000
0100
1000
,
0010
0000
0000
0001
0000
0000
0100
0000
,
0000
0010
0000
0000
1001
0000
0000
1000
,
0000
0000
0001
0000
0000
0100
0000
0000
,
0011
0000
0000
0100
0000
0000
1000
0000
,
0000
0010
0000
0000
1100
0000
0000
0100
,
0000
0000
0001
0000
0000
1000
0000
0000
,
0110
0000
0000
1000
0000
0000
0010
0000
,
0000
0100
0000
0000
1100
0000
0000
0010
,
0000
0000
0001
0000
0000
1000
0000
0000
,
0101
0000
0000
0100
0000
0000
0010
0000
,
0000
1000
0000
0000
0110
0000
0000
1000
,
0000
0000
0100
0000
0000
1000
0000
0000
,
0002
0000
0000
1000
0000
0000
2003
0000
,
0000
0010
0000
0000
3020
0000
0000
0100
,
0000
0000
0230
0000
0000
0001
0000
0000
,
0302
0000
0000
0100
0000
0000
0203
0000
,
0000
0010
0000
0000
0320
0000
0000
1000
,
0000
0000
2030
0000
0000
0001
0000
0000
,
3002
0000
0000
1000
0000
0000
2003
0000
,
0000
0010
0000
0000
3020
0000
0000
0100
,
0000
0000
0230
0000
0000
0001
0000
0000
,
0302
0000
0000
0100
0000
0000
0203
0000
,
0000
0010
0000
0000
0320
0000
0000
1000
,
0000
0000
2030
0000
0000
0001
0000
0000
,
3010
0010
0010
0000
0001
0001
0001
0000
,
0001
0100
1000
0000
0001
0100
1000
0000
,
0010
0100
0001
0010
1000
0100
0010
0000
,
0100
0010
0100
0100
,
1000
1000
0001
0001
,
0100
0100
0010
0010
,
0100
0010
0100
0100
,
1000
1000
0001
0001
,
0100
0100
0010
0010
,
0100
0010
0100
0100
,
1000
1000
0001
0001
,
0100
0100
0010
0010
,
0100
0010
0100
0100
,
1000
1000
0001
0001
,
0100
0100
0010
0010
,
0001
1000
0001
0001
,
0100
0100
0010
0010
,
0001
0001
1000
1000
,
0001
1000
0001
0001
,
0100
0100
0010
0010
,
0001
0001
1000
1000
,
0001
1000
0001
0001
,
0100
0100
0010
0010
,
0001
0001
1000
1000
,
0001
1000
0001
0001
,
0100
0100
0010
0010
,
0001
0001
1000
1000
,
0100
0000
1000
0100
0001
0100
1000
0000
,
0110
0000
0110
0000
0001
0000
0001
0010
,
1000
0010
0001
0000
0110
0000
0110
0000
,
0001
0000
0100
0001
0010
0001
0100
0000
,
1001
0000
1001
0000
0010
0000
0010
1000
,
0100
1000
0010
0000
1001
0000
1001
0000
,
0010
0000
0001
0010
1000
0010
0001
0000
,
0110
0000
0110
0000
1000
0000
1000
0100
,
0001
0100
1000
0000
0110
0000
0110
0000
,
1000
0000
0010
1000
0100
1000
0010
0000
,
1001
0000
1001
0000
0100
0000
0100
0001
,
0010
0001
0100
0000
1001
0000
1001
0000
,
0200
0000
0000
0300
,
0100
0001
0100
0010
1000
0100
0020
0000
,
0000
0000
0000
0030
,
1000
0100
0001
0000
0101
0000
1010
0000
,
0100
0000
0010
0000
0001
1000
0100
0000
,
0010
0001
1000
0000
0110
0000
0110
0000
,
0002
0100
2000
0000
0000
0000
3003
0000
,
0000
0000
0000
0000
0010
0010
0010
0000
,
0001
0001
0001
0000
0100
0100
0100
0000
,
0020
1000
0100
1030
,
0001
0010
0100
0000
0100
0010
1000
0000
,
0001
0100
0010
0001
0100
0010
1000
0000
,
0100
0010
0100
0100
,
1000
1000
0001
0001
,
0100
0100
0010
0010
,
0100
0010
0100
0100
,
1000
1000
0001
0001
,
0100
0100
0010
0010
,
0100
0010
0100
0100
,
1000
1000
0001
0001
,
0100
0100
0010
0010
,
0100
0010
0100
0100
,
1000
1000
0001
0001
,
0100
0100
0010
0010
,
0001
1000
0001
0001
,
0100
0100
0010
0010
,
0001
0001
1000
1000
,
0001
1000
0001
0001
,
0100
0100
0010
0010
,
0001
0001
1000
1000
,
0001
1000
0001
0001
,
0100
0100
0010
0010
,
0001
0001
1000
1000
,
0001
1000
0001
0001
,
0100
0100
0010
0010
,
0001
0001
1000
1000
,
0020
0000
0000
0000
,
0000
0000
0000
0000
,
0000
0000
0000
0000
,
0000
0000
0000
0030
;

//---------------dance-single - ----------------
#NOTES:
     dance-single:
     :
     Hard:
     15:
     0.646841,0.836219,0.908386,0.110036,0.046824,1934.000000,1546.000000,388.000000,47.000000,0.000000,0.000000,0.646841,0.836219,0.908386,0.110036,0.046824,1934.000000,1546.000000,388.000000,47.000000,0.000000,0.000000:
// measure 0
0000
0000
0000
0000
,  // measure 1
0000
0000
0000
0000
,  // measure 2
0000
0000
0000
0000
,  // measure 3
0000
0000
0000
0000
,  // measure 4
1001
0000
1000
0100
0001
0100
0010
0000
,  // measure 5
1000
0100
0010
0001
1000
0000
1000
0100
,  // measure 6
0010
0000
1000
0100
1000
0010
0100
0000
,  // measure 7
0101
0000
0010
1000
0100
0010
0001
0000
,  // measure 8
0100
0010
1000
0100
1000
0000
0100
0001
,  // measure 9
0010
0000
0100
0100
1000
0010
0001
0000
,  // measure 10
1001
0000
0001
0010
1000
0010
0100
0000
,  // measure 11
0001
0010
0100
1000
0001
0000
0001
0010
,  // measure 12
0100
0000
0001
0010
0001
0100
0010
0000
,  // measure 13
1010
0000
0100
0001
0010
0100
1000
0000
,  // measure 14
0010
0100
0001
0010
0001
0000
0010
1000
,  // measure 15
0100
0000
0010
0010
0001
0100
1000
0000
,  // measure 16
0110
0000
0100
0001
0010
0001
1000
0000
,  // measure 17
0100
0001
1000
0010
0100
0000
0100
0001
,  // measure 18
1000
0000
0100
0001
0100
1000
0001
0000
,  // measure 19
0011
0000
1000
0100
0001
1000
0010
0000
,  // measure 20
0001
1000
0100
0001
0100
0000
0001
0010
,  // measure 21
1000
0000
0001
0001
0100
1000
0010
0000
,  // measure 22
0110
0000
0010
1000
0100
1000
0001
0000
,  // measure 23
0010
1000
0001
0100
0010
0000
0010
1000
,  // measure 24
0001
0000
0010
1000
0010
0001
1000
0000
,  // measure 25
1100
0000
0001
0010
1000
0001
0100
0000
,  // measure 26
1000
0001
0010
1000
0010
0000
1000
0100
,  // measure 27
0001
0000
1000
1000
0010
0001
0100
0000
,  // measure 28
2001
0000
0100
0100
3100
0000
0001
0100
,  // measure 29
0001
0000
0010
1000
0100
0010
0001
0100
,  // measure 30
0010
0000
1000
0100
0100
0000
1001
0000
,  // measure 31
0010
0100
1000
1000
0100
0010
1000
0100
,  // measure 32
0010
0100
0001
0000
0110
0000
1000
0100
,  // measure 33
0100
1000
1000
0001
0100
0010
1000
0000
,  // measure 34
0020
0000
1000
0100
1000
0100
1000
0000
,  // measure 35
0100
1000
0100
1000
0200
0000
0000
0000
,  // measure 36
0000
0000
0000
0330
,  // measure 37
1000
0100
0010
0010
0001
0100
0010
0010
,  // measure 38
1000
0100
0001
0000
2100
0000
0010
0001
,  // measure 39
0001
0000
3001
0000
0100
0000
1000
0100
,  // measure 40
0020
0000
0100
1000
0100
1000
0100
0000
,  // measure 41
1000
0100
1000
0100
2000
0000
0000
0000
,  // measure 42
0000
0000
0000
3030
,  // measure 43
1000
0010
0100
0100
0010
0000
1001
0100
,  // measure 44
0010
0000
0110
0001
2000
0000
0001
0010
,  // measure 45
0001
0000
3100
0000
0010
1000
0100
0010
,  // measure 46
0002
0000
0100
0100
1000
0100
0013
0000
,  // measure 47
0100
0010
0100
0001
2000
0000
0010
0010
,  // measure 48
0001
0010
0100
0000
3000
0000
0000
0000
,  // measure 49
1001
0000
0100
1000
0001
0100
0010
0001
,  // measure 50
0110
0000
1000
0100
0002
0000
0000
0000
,  // measure 51
1000
0100
2000
0000
0000
0000
3003
0000
,  // measure 52
1001
0000
1000
0100
0001
0100
0010
0000
,  // measure 53
1000
0100
0010
0001
1000
0000
1000
0100
,  // measure 54
0010
0000
1000
0100
1000
0010
0100
0000
,  // measure 55
0101
0000
0010
1000
0100
0010
0001
0000
,  // measure 56
0100
0010
1000
0100
1000
0000
0100
0001
,  // measure 57
0010
0000
0100
0100
1000
0010
0001
0000
,  // measure 58
1001
0000
0001
0010
1000
0010
0100
0000
,  // measure 59
0001
0010
0100
1000
0001
0000
0001
0010
,  // measure 60
0100
0000
0001
0010
0001
0100
0010
0000
,  // measure 61
1010
0000
0100
0001
0010
0100
1000
0000
,  // measure 62
0010
0100
0001
0010
0001
0000
0010
1000
,  // measure 63
0100
0000
0010
0010
0001
0100
1000
0000
,  // measure 64
1001
0100
1001
0010
1000
0100
0001
0010
,  // measure 65
1000
0010
0110
1000
0110
0001
0100
0100
,  // measure 66
1000
0001
0010
0100
0001
0010
1010
1000
,  // measure 67
0011
1000
0010
1000
0100
0010
0100
0001
,  // measure 68
1000
0100
1010
0001
0101
0010
1000
0100
,  // measure 69
0001
0000
0010
0000
0010
0000
0001
0000
0100
0000
0010
0000
0110
0000
1000
0001
,  // measure 70
1000
0100
0010
1000
0100
0100
0001
0010
,  // measure 71
0100
0010
0101
0001
1001
1000
0010
0001
,  // measure 72
0010
0100
1000
0010
0100
0001
1100
1000
,  // measure 73
0011
0100
1000
0100
0001
0010
0100
0010
,  // measure 74
1000
0100
0011
0001
0110
0100
1000
0010
,  // measure 75
1000
0100
1001
0100
0010
0110
1000
0001
,  // measure 76
1001
0010
1000
0100
0010
0001
0100
0010
,  // measure 77
0001
0001
0100
0010
0110
1000
0100
1000
,  // measure 78
0010
0100
0001
0010
1000
0100
0010
0100
,  // measure 79
1100
0000
0000
0010
0000
0000
1000
0000
0000
0001
0000
0000
0100
0000
0000
1000
0000
0000
0001
0000
0010
0000
0001
0000
,  // measure 80
0100
0000
1000
0000
0100
0000
0001
0000
0000
0010
0000
0000
0101
0000
0000
0100
0000
0000
0010
0000
0000
0001
0000
0000
,  // measure 81
0010
0001
1001
1000
0100
0001
0010
0001
,  // measure 82
0110
0100
0100
1000
0010
1000
0001
0100
,  // measure 83
0010
1000
1000
0001
1001
1000
0100
0010
,  // measure 84
1000
0000
0000
0100
0000
0000
0001
0000
0010
0000
0001
0000
0100
0000
0010
0000
1000
0000
0100
0000
0010
0000
0100
0000
,  // measure 85
0011
1000
0100
0100
0010
1000
1000
0100
,  // measure 86
0010
0010
0100
0001
0101
0010
1000
0100
,  // measure 87
0010
0001
0100
0010
1001
0100
0010
0001
,  // measure 88
1100
0100
1000
0010
,  // measure 89
0001
0000
0100
0000
1000
0000
0010
0100
,  // measure 90
0010
1000
0001
0010
,  // measure 91
1000
0010
0010
0100
,  // measure 92
1001
0001
0100
0010
,  // measure 93
0001
0100
1000
0001
1000
0010
0100
0000
,  // measure 94
0011
0010
0001
0100
,  // measure 95
1000
0000
0010
0000
0001
0000
0100
0010
,  // measure 96
0100
0001
1000
0100
,  // measure 97
0001
0100
0100
0010
,  // measure 98
1001
1000
0010
0100
,  // measure 99
1000
0010
0001
1000
0001
0100
0010
0000
,  // measure 100
1010
1000
0010
0001
,  // measure 101
0100
0000
1000
0000
0010
0000
0001
1000
,  // measure 102
0001
0010
0100
0001
,  // measure 103
0010
0001
0001
1000
,  // measure 104
0110
0100
1000
0001
,  // measure 105
0100
1000
0010
0100
0010
0001
1000
0000
,  // measure 106
0101
0001
0100
1000
,  // measure 107
0010
0000
0001
0000
0100
0000
1000
0001
,  // measure 108
1000
0100
0010
1000
,  // measure 109
0100
1000
1000
0001
,  // measure 110
0110
0010
0001
1000
,  // measure 111
0010
0001
0100
0010
0100
1000
0001
0000
,  // measure 112
1001
0011
0101
1100
,  // measure 113
1001
1001
0110
0110
,  // measure 114
1100
1100
0101
0101
,  // measure 115
1001
0011
0101
1100
,  // measure 116
1001
1001
0110
0110
,  // measure 117
1100
1100
0101
0101
,  // measure 118
1001
1100
1010
0011
,  // measure 119
1001
1001
0110
0110
,  // measure 120
0011
0011
1010
1010
,  // measure 121
1001
1100
1010
0011
,  // measure 122
1001
1001
0110
0110
,  // measure 123
0011
0011
1010
1010
,  // measure 124
0110
0101
1100
1010
,  // measure 125
0110
0110
1001
1001
,  // measure 126
1010
1010
1100
1100
,  // measure 127
0110
0101
1100
1010
,  // measure 128
0110
0110
1001
1001
,  // measure 129
1010
1010
1100
1100
,  // measure 130
0110
1010
0011
0101
,  // measure 131
0110
0110
1001
1001
,  // measure 132
0101
0101
0011
0011
,  // measure 133
0110
1010
0011
0101
,  // measure 134
0110
0110
1001
1001
,  // measure 135
0101
0101
0011
0011
,  // measure 136
0200
0000
0010
0010
0010
0000
0301
0100
,  // measure 137
1000
0000
1000
0001
0100
1000
0020
0000
,  // measure 138
0100
1000
0100
0000
1000
0100
0031
0000
,  // measure 139
2001
0000
3001
0010
0100
1000
0010
0100
,  // measure 140
1000
0000
0010
0100
0001
0000
0100
1000
,  // measure 141
0010
0000
0000
0000
1000
0000
0010
0000
0100
0000
0010
0100
0001
1000
0001
0010
,  // measure 142
0002
0100
1000
0000
1000
1000
1003
0000
,  // measure 143
0010
1000
0100
0010
0100
1000
0100
0010
,  // measure 144
2001
0000
3001
0010
0100
0000
1000
0100
,  // measure 145
0020
0000
1000
1000
1000
0000
0031
0010
,  // measure 146
0100
0000
1100
0000
0100
0010
1000
0100
,  // measure 147
0001
0000
1000
0000
0010
0000
0000
0000
0001
0010
0100
1000
0001
1000
0010
0100
,  // measure 148
0001
0000
0100
0000
1001
0000
0100
0001
,  // measure 149
1000
0010
0100
1000
,  // measure 150
0110
0000
1000
0000
0100
0000
0010
0001
,  // measure 151
1000
0000
1000
0001
0010
0000
1000
0000
,  // measure 152
0100
1000
0010
1000
,  // measure 153
0110
0000
0001
1000
0001
0000
0100
0010
,  // measure 154
0100
1000
0101
0010
,  // measure 155
0010
1000
0100
0010
,  // measure 156
1001
0000
0001
1000
0100
0000
0100
0010
,  // measure 157
1000
0001
0011
1000
,  // measure 158
0100
0010
1000
0100
,  // measure 159
1010
0000
0001
0100
1000
0000
1000
0010
,  // measure 160
0001
0000
0010
0000
1001
0000
0010
1000
,  // measure 161
0001
0100
0010
0001
,  // measure 162
0110
0000
0001
0000
0010
0000
0100
1000
,  // measure 163
0001
0000
0001
1000
0100
0000
0001
0000
,  // measure 164
0010
0001
0100
0001
,  // measure 165
0110
0000
1000
0001
1000
0000
0010
0100
,  // measure 166
0010
0001
1010
0100
,  // measure 167
0100
0001
0010
0100
,  // measure 168
1001
0000
1000
0001
0010
0000
0010
0100
,  // measure 169
0001
1000
1100
0001
,  // measure 170
0010
0100
0001
0010
,  // measure 171
0101
0000
1000
0010
0001
0000
0001
0100
,  // measure 172
1000
1000
1000
0001
0001
0001
0100
0100
,  // measure 173
0100
0010
0010
0010
1001
1001
1001
0100
,  // measure 174
0100
0100
0001
0001
0001
0010
0010
0010
,  // measure 175
1100
0101
1100
0010
0010
0010
1000
1000
,  // measure 176
1000
0001
0001
0001
0110
0110
0110
1000
,  // measure 177
1000
1000
0100
0100
0100
0001
0001
0001
,  // measure 178
1010
0011
1010
0100
0100
0100
0010
0010
,  // measure 179
0010
0001
0001
0001
0110
0110
1001
0001
,  // measure 180
0001
0001
0100
0100
0100
0010
0010
0010
,  // measure 181
1001
1001
1100
0010
0010
0010
1000
1000
,  // measure 182
1000
0100
0100
0100
0110
0101
1001
0100
,  // measure 183
0100
0100
0001
0001
0001
1000
1000
1000
,  // measure 184
0002
0010
0010
0010
0010
0010
2003
0100
,  // measure 185
0100
0100
0100
0100
3020
0001
0001
0001
,  // measure 186
0001
0001
0230
1000
1000
1000
1000
1000
,  // measure 187
0302
0010
0010
0010
0010
0010
0203
1000
,  // measure 188
1000
1000
1000
1000
0320
0001
0001
0001
,  // measure 189
0001
0001
2030
0100
0100
0100
0100
0100
,  // measure 190
3002
0010
0010
0010
0010
0010
2003
0001
,  // measure 191
0001
0001
0001
0001
3020
1000
1000
1000
,  // measure 192
1000
1000
0230
0010
0010
0010
0010
0010
,  // measure 193
0302
1000
1000
1000
1000
1000
0203
0001
,  // measure 194
0001
0001
0001
0001
0320
0100
0100
0100
,  // measure 195
0100
0100
2030
0010
0010
0010
0010
0010
,  // measure 196
3001
0001
0001
0001
0001
0001
0001
0001
,  // measure 197
0001
1000
0001
1000
0001
1000
0001
1000
,  // measure 198
0001
1000
0001
1000
0001
1000
0001
1000
0001
1000
0001
1000
0001
1000
0001
1000
,  // measure 199
1001
0011
0101
1100
,  // measure 200
1001
1001
0110
0110
,  // measure 201
1100
1100
0101
0101
,  // measure 202
1001
0011
0101
1100
,  // measure 203
1001
1001
0110
0110
,  // measure 204
1100
1100
0101
0101
,  // measure 205
1001
1100
1010
0011
,  // measure 206
1001
1001
0110
0110
,  // measure 207
0011
0011
1010
1010
,  // measure 208
1001
1100
1010
0011
,  // measure 209
1001
1001
0110
0110
,  // measure 210
0011
0011
1010
1010
,  // measure 211
0110
0101
1100
1010
,  // measure 212
0110
0110
1001
1001
,  // measure 213
1010
1010
1100
1100
,  // measure 214
0110
0101
1100
1010
,  // measure 215
0110
0110
1001
1001
,  // measure 216
1010
1010
1100
1100
,  // measure 217
0110
1010
0011
0101
,  // measure 218
0110
0110
1001
1001
,  // measure 219
0101
0101
0011
0011
,  // measure 220
0110
1010
0011
0101
,  // measure 221
0110
0110
1001
1001
,  // measure 222
0101
0101
0011
0011
,  // measure 223
0020
0000
0100
0100
0100
0000
1030
0010
,  // measure 224
0001
0000
0001
1000
0010
0001
0200
0000
,  // measure 225
0010
0001
0010
0000
0001
0010
1300
0000
,  // measure 226
1002
0000
1003
0100
0010
0001
0100
0010
,  // measure 227
0001
0000
0100
0010
1000
0000
0010
0001
,  // measure 228
0100
0000
0000
0000
0001
0000
0100
0000
0010
0000
0100
0010
1000
0001
1000
0100
,  // measure 229
2000
0010
0001
0000
0001
0001
3001
0000
,  // measure 230
0100
0001
0010
0100
0010
0001
0010
0100
,  // measure 231
1002
0000
1003
0100
0010
0000
0001
0010
,  // measure 232
0200
0000
0001
0001
0001
0000
1300
0100
,  // measure 233
0010
0000
0011
0000
0010
0100
0001
0010
,  // measure 234
1000
0000
0001
0000
0100
0000
0000
0000
1000
0100
0010
0001
1000
0001
0100
0010
,  // measure 235
0200
0000
0010
0010
0010
0000
0301
0100
,  // measure 236
1000
0000
1000
0001
0100
1000
0020
0000
,  // measure 237
0100
1000
0100
0000
1000
0100
0031
0000
,  // measure 238
2001
0000
3001
0010
0100
1000
0010
0100
,  // measure 239
1000
0000
0010
0100
0001
0000
0100
1000
,  // measure 240
0010
0000
0000
0000
1000
0000
0010
0000
0100
0000
0010
0100
0001
1000
0001
0010
,  // measure 241
0002
0100
1000
0000
1000
1000
1003
0000
,  // measure 242
0010
1000
0100
0010
0100
1000
0100
0010
,  // measure 243
2001
0000
3001
0010
0100
0000
1000
0100
,  // measure 244
0020
0000
1000
1000
1000
0000
0031
0010
,  // measure 245
0100
0000
1100
0000
0100
0010
1000
0100
,  // measure 246
0001
0000
1000
0000
0010
0000
0000
0000
0001
0010
0100
1000
0001
1000
0010
0100
,  // measure 247
1001
0011
0101
1100
,  // measure 248
1001
1001
0110
0110
,  // measure 249
1100
1100
0101
0101
,  // measure 250
1001
0011
0101
1100
,  // measure 251
1001
1001
0110
0110
,  // measure 252
1100
1100
0101
0101
,  // measure 253
1001
1100
1010
0011
,  // measure 254
1001
1001
0110
0110
,  // measure 255
0011
0011
1010
1010
,  // measure 256
1001
1100
1010
0011
,  // measure 257
1001
1001
0110
0110
,  // measure 258
0011
0011
1010
1010
,  // measure 259
0110
0101
1100
1010
,  // measure 260
0110
0110
1001
1001
,  // measure 261
1010
1010
1100
1100
,  // measure 262
0110
0101
1100
1010
,  // measure 263
0110
0110
1001
1001
,  // measure 264
1010
1010
1100
1100
,  // measure 265
0110
1010
0011
0101
,  // measure 266
0110
0110
1001
1001
,  // measure 267
0101
0101
0011
0011
,  // measure 268
0110
1010
0011
0101
,  // measure 269
0110
0110
1001
1001
,  // measure 270
0101
0101
0011
0011
,  // measure 271
0220
0000
0000
0000
,  // measure 272
0000
0000
0000
0000
,  // measure 273
0000
0000
0000
0000
,  // measure 274
0000
0000
0000
0330
;
