#VERSION:0.83;
#TITLE:CHRONOPHANTASMA;
#SUBTITLE:;
#ARTIST:BlazBlue;
#TITLETRANSLIT:;
#SUBTITLETRANSLIT:;
#ARTISTTRANSLIT:;
#GENRE:;
#ORIGIN:;
#CREDIT:;
#BANNER:CHRONOPHANTASMA.png;
#BACKGROUND:CHRONOPHANTASMA-bg.png;
#PREVIEWVID:;
#JACKET:CHRONOPHANTASMA-jacket.png;
#CDIMAGE:;
#DISCIMAGE:;
#LYRICSPATH:;
#CDTITLE:cdtitle.png;
#MUSIC:CHRONOPHANTASMA.ogg;
#OFFSET:2.731000;
#SAMPLESTART:25.799999;
#SAMPLELENGTH:15.000000;
#SELECTABLE:YES;
#DISPLAYBPM:82.000000:138.000000;
#BPMS:0.000=82.380,
32.000=137.980;
#STOPS:32.000=1.746;
#DELAYS:;
#WARPS:;
#TIMESIGNATURES:0.000=4=4;
#TICKCOUNTS:0.000=4;
#COMBOS:0.000=1;
#SPEEDS:0.000=1.000=0.000=0;
#SCROLLS:0.000=1.000;
#FAKES:;
#LABELS:0.000=Song Start;
#BGCHANGES:3.750=CHRONOPHANTASMA.avi=1.000=1=0=0=StretchNoLoop==CrossFade==,
99999=-nosongbg-=1.000=0=0=0 // don't automatically add -songbackground-
;
#KEYSOUNDS:;
#ATTACKS:
;

//---------------dance-single - ----------------
#NOTEDATA:;
#CHARTNAME:;
#STEPSTYPE:dance-single;
#DESCRIPTION:;
#CHARTSTYLE:;
#DIFFICULTY:Easy;
#METER:3;
#RADARVALUES:0.154382,0.282474,0.053499,0.117697,0.000000,101.000000,96.000000,5.000000,11.000000,0.000000,0.000000,0.000000,0.000000,0.000000,0.154382,0.282474,0.053499,0.117697,0.000000,101.000000,96.000000,5.000000,11.000000,0.000000,0.000000,0.000000,0.000000,0.000000;
#CREDIT:kater15;
#DISPLAYBPM:82.000000:138.000000;
#NOTES:
0000
0000
0000
0000
,
0000
0000
0000
0000
,
0000
0000
0000
0000
,
0000
0000
0000
0000
,
0000
0000
0000
0000
,
1000
0000
0001
0000
,
1000
0000
0001
0000
,
1000
0000
0001
0000
,
0010
0000
0000
0000
,
0220
0000
0330
0000
,
1000
0010
0010
0001
,
0010
1000
0100
0010
,
0200
0000
0300
0000
,
0001
0000
1000
0000
,
0100
1000
1000
0100
,
0001
0010
0100
1000
,
0002
0000
0003
0000
,
1000
0000
0010
0000
,
0100
0000
1000
1000
,
0001
0000
0010
1000
,
0200
0000
0300
0000
,
1000
1000
0010
0000
,
0020
0000
0030
0000
,
1000
0001
0100
1001
,
1001
0100
0001
1000
,
0020
0000
0000
0000
,
0200
0000
0000
0000
,
0330
0000
0000
0000
,
1000
0000
0001
0000
,
0100
0000
0000
0000
,
0010
0000
0001
0000
,
0100
0000
0000
0000
,
1000
0000
0001
0000
,
0010
0100
0100
0000
,
1000
0100
0001
0010
,
0100
0100
0010
0100
,
1000
0000
0001
0000
,
0100
0000
0000
0000
,
0010
0000
0001
0000
,
0100
0000
0000
0000
,
2000
0000
0100
3100
,
0001
1000
0100
0000
,
0110
0000
1000
1000
,
0001
0100
1000
0100
,
0001
0000
0000
0001
0000
0000
0001
0000
,
1000
0000
0000
1000
0000
0000
1000
0000
,
2002
0000
0000
0000
,
0000
0000
0000
0000
,
3003
0000
0000
0000
;

//---------------dance-single - ----------------
#NOTEDATA:;
#CHARTNAME:;
#STEPSTYPE:dance-single;
#DESCRIPTION:;
#CHARTSTYLE:;
#DIFFICULTY:Beginner;
#METER:1;
#RADARVALUES:0.062670,0.128397,0.032099,0.064199,0.000000,41.000000,38.000000,3.000000,6.000000,0.000000,0.000000,0.000000,0.000000,0.000000,0.062670,0.128397,0.032099,0.064199,0.000000,41.000000,38.000000,3.000000,6.000000,0.000000,0.000000,0.000000,0.000000,0.000000;
#CREDIT:kater15;
#DISPLAYBPM:82.000000:138.000000;
#NOTES:
0000
0000
0000
0000
,
0000
0000
0000
0000
,
0000
0000
0000
0000
,
0000
0000
0000
0000
,
0000
0000
0000
0000
,
1000
0000
0000
0000
,
0100
0000
0000
0000
,
0010
0000
0000
0000
,
0001
0000
0000
0000
,
1001
0000
0000
0000
,
1000
0000
1000
0000
,
0001
0000
0001
0000
,
0000
0000
0000
0000
,
0010
0000
0000
0000
,
0001
0000
0001
0000
,
1000
0000
1000
0000
,
0000
0000
0000
0000
,
0100
0000
0000
0000
,
0010
0000
0000
0000
,
1000
0000
0000
0000
,
0001
0000
0000
0000
,
0000
0000
0000
0000
,
0001
0000
0000
0000
,
0100
0000
0000
0000
,
0010
0000
0000
0000
,
0000
0000
0000
0000
,
1000
0000
0000
0000
,
1001
0000
0000
0000
,
2000
0000
0000
0000
,
3000
0000
0000
0000
,
0002
0000
0000
0000
,
0003
0000
0000
0000
,
0100
0000
0100
0000
,
0100
0000
0000
0000
,
0010
0000
0000
0000
,
0000
0000
0000
0000
,
0200
0000
0000
0000
,
0300
0000
0000
0000
,
0020
0000
0000
0000
,
0030
0000
0000
0000
,
1000
0000
1000
0000
,
1000
0000
0000
0000
,
0001
0000
0000
0000
,
0000
0000
0000
0000
,
1000
0000
0000
0000
,
0001
0000
0000
0000
,
2002
0000
0000
0000
,
0000
0000
0000
0000
,
3003
0000
0000
0000
;

//---------------dance-single - ----------------
#NOTEDATA:;
#CHARTNAME:;
#STEPSTYPE:dance-single;
#DESCRIPTION:;
#CHARTSTYLE:;
#DIFFICULTY:Medium;
#METER:5;
#RADARVALUES:0.221638,0.308153,0.128397,0.171196,0.064199,145.000000,133.000000,12.000000,16.000000,0.000000,0.000000,0.000000,0.000000,0.000000,0.221638,0.308153,0.128397,0.171196,0.064199,145.000000,133.000000,12.000000,16.000000,0.000000,0.000000,0.000000,0.000000,0.000000;
#CREDIT:kater15;
#DISPLAYBPM:82.000000:138.000000;
#NOTES:
0000
0000
0000
0000
,
0000
0000
0000
0000
,
0000
0000
0000
0000
,
0000
0000
0000
0000
,
0000
0000
0000
0000
,
1000
1000
0001
0001
,
1000
1000
0010
0010
,
0100
0100
0010
0010
,
1001
0000
0000
0000
,
2000
0000
0000
0000
,
3001
0000
0001
1000
0001
0000
0010
0000
,
1000
0000
1000
0001
1000
0000
0010
0000
,
0001
0000
0000
1000
0000
0000
0000
0000
,
0010
0101
1000
0000
,
0001
0000
0001
1000
0001
0000
0010
0000
,
1000
0000
1000
0001
1000
0000
0010
0000
,
0001
0000
0000
1000
0000
0000
0000
0000
,
0100
0010
0110
0000
,
1000
0000
0100
0000
0010
0000
0100
0100
,
0001
0000
1000
0000
1000
0000
1000
0001
,
0100
0000
0000
0101
0000
0000
0000
0000
,
2000
0010
3100
0000
,
0010
0000
0000
0011
0000
0000
1000
0100
,
0010
0000
0000
1000
0010
0000
0001
0000
,
0010
0010
1000
0010
,
0200
0000
0001
0000
,
0002
0000
0000
0000
,
0303
0000
0000
0000
,
0011
0000
0000
0000
0000
0000
1000
0000
1000
0000
1000
0000
,
0001
0000
0000
0000
,
0101
0000
0000
0000
0000
0000
0010
0000
0010
0000
0010
0000
,
1000
0000
0000
0000
,
0210
0000
0010
0301
,
0100
0001
0100
1000
0100
0000
0000
0000
,
2000
3001
0200
0301
,
0020
0000
0200
0330
,
0011
0000
0000
0000
0000
0000
1000
0000
1000
0000
1000
0000
,
0001
0000
0000
0000
,
0101
0000
0000
0000
0000
0000
0010
0000
0010
0000
0010
0000
,
1000
0000
0000
0000
,
0210
0000
0010
0301
,
0100
0001
0100
1000
0100
0000
0000
0000
,
2000
3001
0200
0301
,
0020
0000
0200
0330
,
1000
0000
0000
1000
0000
0000
1000
0000
0000
1000
0000
0000
1000
0000
0000
0000
,
0001
0000
0000
0001
0000
0000
0001
0000
0000
0001
0000
0000
0001
0000
0000
0000
,
2002
0000
0000
0000
,
0000
0000
0000
0000
,
3003
0000
0000
0000
;

//---------------dance-single - ----------------
#NOTEDATA:;
#CHARTNAME:;
#STEPSTYPE:dance-single;
#DESCRIPTION:;
#CHARTSTYLE:;
#DIFFICULTY:Hard;
#METER:8;
#RADARVALUES:0.334750,0.410871,0.160496,0.246095,0.144447,219.000000,204.000000,15.000000,23.000000,0.000000,0.000000,0.000000,0.000000,0.000000,0.334750,0.410871,0.160496,0.246095,0.144447,219.000000,204.000000,15.000000,23.000000,0.000000,0.000000,0.000000,0.000000,0.000000;
#CREDIT:kater15;
#DISPLAYBPM:82.000000:138.000000;
#NOTES:
0000
0000
0000
0000
,
0000
0000
0000
0000
,
0000
0000
0000
0000
,
0000
0000
0000
0000
,
0000
0000
0000
0000
,
1001
0000
0100
0100
1000
0000
0010
0010
,
0001
0000
1000
1000
0100
0000
0001
0001
,
1000
0000
0010
0001
0010
0000
1000
0100
,
1000
0001
1000
0001
,
2002
0000
0000
3003
,
1000
0000
0000
0000
0100
0000
0010
0000
1000
0000
0000
0100
0000
0000
0010
0000
,
0001
0000
1000
0000
0000
0100
0000
0000
0010
0000
0000
0100
0000
0000
0001
0000
,
1000
0000
0000
1000
0000
0000
1010
0000
0000
0000
0000
0000
0100
0000
1000
0000
,
0010
0000
1000
1000
0010
0001
0010
0100
,
0100
0000
0000
0000
0001
0000
1000
0000
0100
0000
0000
0001
0000
0000
1000
0000
,
0010
0000
0100
0000
0000
0001
0000
0000
1000
0000
0000
0001
0000
0000
0010
0000
,
0100
0000
0000
0100
0000
0000
1100
0000
0000
0000
0000
0000
0001
0000
0100
0000
,
2000
0001
0020
3030
,
2000
0000
0000
0000
3010
0000
0010
0001
,
0100
0000
1100
0000
0101
0000
0001
1000
,
0010
0000
0000
1000
0000
0000
0001
0000
0000
0000
0000
0000
1000
0000
0000
0000
,
0100
1000
0100
0001
0100
0010
1000
0001
,
0010
0000
0000
1000
0000
0000
0001
0000
0000
0000
0000
0000
1000
0000
0001
0000
,
0010
0000
0000
1000
0000
0000
0001
0000
0010
0000
0000
0100
0000
0000
0100
0000
,
0010
0000
0000
0001
0000
0000
0001
0000
0010
0000
0000
0000
1000
0000
0100
0000
,
0010
0000
0000
1100
0000
0000
1001
0000
,
0000
1010
0000
0000
1000
0000
0001
0000
,
2002
0000
0000
3003
,
1000
0000
0000
0100
0000
0000
0100
0000
0000
0001
0000
0000
0100
0000
0000
0000
1000
0000
0000
0000
0010
0000
0000
0000
,
2010
0000
0000
3001
,
1000
0000
0000
0001
0000
0000
0100
0000
0000
0100
0000
0000
1000
0000
0000
0000
0001
0000
0000
0000
0010
0000
0000
0000
,
0012
0000
1000
1000
,
0200
0300
0020
0030
,
1003
0100
0010
0100
1000
0000
0010
0001
,
0200
0320
2030
3200
,
0301
0010
0001
0100
0100
0001
1000
0000
,
1000
0000
0000
0100
0000
0000
0100
0000
0000
0001
0000
0000
0100
0000
0000
0000
1000
0000
0000
0000
0010
0000
0000
0000
,
2010
0000
0000
3001
,
1000
0000
0000
0001
0000
0000
0100
0000
0000
0100
0000
0000
1000
0000
0000
0000
0001
0000
0000
0000
0010
0000
0000
0000
,
0012
0000
1000
1000
,
0200
0300
0020
0030
,
1003
0100
0010
0100
1000
0000
0010
0001
,
0200
0000
0320
0000
1030
0001
0010
1000
,
0100
0000
0000
0010
0000
0000
0100
0000
0001
0000
0000
1000
0000
0000
0001
0000
,
0100
0000
0000
0100
0000
0000
0100
0000
0000
0100
0000
0000
0100
0000
0001
0000
,
0010
0000
0000
0010
0000
0000
0010
0000
0000
0010
0000
0000
0010
0000
1000
0000
,
0220
0000
0000
0000
,
0000
0000
0000
0000
,
0330
0000
0000
0000
;

//---------------dance-single - ----------------
#NOTEDATA:;
#CHARTNAME:;
#STEPSTYPE:dance-single;
#DESCRIPTION:;
#CHARTSTYLE:;
#DIFFICULTY:Challenge;
#METER:13;
#RADARVALUES:0.527346,0.821742,0.310293,0.224695,0.444040,345.000000,316.000000,29.000000,21.000000,0.000000,0.000000,0.000000,0.000000,0.000000,0.527346,0.821742,0.310293,0.224695,0.444040,345.000000,316.000000,29.000000,21.000000,0.000000,0.000000,0.000000,0.000000,0.000000;
#CREDIT:kater15;
#DISPLAYBPM:82.000000:138.000000;
#NOTES:
// measure 0
0000
0000
0000
0000
,  // measure 1
0000
0000
0000
0000
,  // measure 2
0000
0000
0000
0000
,  // measure 3
0000
0000
0000
0000
,  // measure 4
0000
0000
0000
0000
,  // measure 5
1001
0000
0100
0001
0110
0010
1000
0001
,  // measure 6
0011
0100
0010
0001
1100
0001
1000
1000
,  // measure 7
0110
0010
0001
0100
0011
1000
0100
0010
,  // measure 8
1010
0000
1000
0100
1000
0010
0001
0100
,  // measure 9
2002
0000
0000
3003
,  // measure 10
1000
0000
0010
0100
0001
0000
1000
0010
0100
0000
1000
0001
0000
1000
0010
0000
,  // measure 11
0100
0000
0001
0010
0001
0000
1000
0010
1000
0000
0100
0001
0000
0010
0001
0000
,  // measure 12
0100
0000
0000
1000
0000
0000
0002
0000
0000
0000
0000
0000
1000
0000
1003
0000
,  // measure 13
0100
0000
0001
0010
1000
0000
0100
0001
0100
0001
1000
0100
1000
0100
0001
0010
,  // measure 14
0001
0000
0100
0010
1000
0000
0001
0100
0010
0000
0001
1000
0000
0001
0100
0000
,  // measure 15
0010
0000
1000
0100
1000
0000
0001
0100
0001
0000
0010
1000
0000
0100
1000
0000
,  // measure 16
0010
0000
0000
0001
0000
0000
2000
0000
0000
0000
0000
0000
0001
0000
3001
0000
,  // measure 17
0100
1000
0010
0100
0002
0000
0000
0000
,  // measure 18
1003
0000
0100
0010
0100
0000
0001
0000
0010
0000
0100
0000
0001
0000
0010
0000
,  // measure 19
0010
0000
1000
0100
0010
0000
1000
0000
0100
0000
0010
0000
0100
0000
0001
0000
,  // measure 20
0010
0000
0000
1100
0000
0000
0101
0000
0000
0000
0000
0000
1000
0000
1000
0000
,  // measure 21
0010
0000
0001
0100
1000
0000
0001
0010
1000
0000
0100
0000
0100
0000
0001
0000
,  // measure 22
0010
0000
0000
1010
0000
0000
0011
0000
0000
0000
0000
0000
1000
0000
1000
0000
,  // measure 23
0100
0000
0001
0010
0000
0001
0100
0000
1000
0000
0001
1000
0000
0010
0100
0000
,  // measure 24
0001
0000
1000
0100
0000
0001
0100
0000
0010
0000
1000
0010
0000
0001
1000
0000
,  // measure 25
0100
0001
0010
0110
1000
0001
0101
1000
,  // measure 26
0100
0000
1010
0000
0100
0000
0100
0000
0001
0000
0010
0001
1000
0010
0001
1000
,  // measure 27
0200
0000
0000
0000
0000
0000
0000
0000
0000
0000
0000
0000
0300
0000
0010
0100
,  // measure 28
0001
0000
0000
0000
0000
0000
1000
0000
0000
0000
0000
0000
0100
0000
0000
0010
0000
0000
1000
0000
0000
0000
0000
0000
0001
0000
0000
0000
0000
0000
0000
0000
1010
0000
0000
0000
0000
0000
0000
0000
1001
0000
0000
0000
0000
0000
0000
0000
,  // measure 29
2100
0000
0000
0000
0000
0000
0000
0000
0002
0000
0000
0000
3003
0000
0001
1000
,  // measure 30
0100
0000
0000
0000
0000
0000
0010
0000
0000
0000
0000
0000
1000
0000
0000
0001
0000
0000
0010
0000
0000
0000
0000
0000
0100
0000
0000
0000
0000
0000
0000
0000
0011
0000
0000
0000
0000
0000
0000
0000
0110
0000
0000
0000
0000
0000
0000
0000
,  // measure 31
1020
0000
0200
0330
,  // measure 32
2000
0000
0002
3003
,  // measure 33
1000
0000
0100
0000
0010
0000
0001
0000
0100
0000
0010
0000
0010
0000
1000
0100
,  // measure 34
0001
0000
0000
1000
0010
0000
0000
1000
0001
0000
0000
1000
0010
0000
0000
0000
,  // measure 35
1100
0000
0100
0001
0000
1000
0001
0000
0100
0000
1000
0100
0000
1000
0010
0000
,  // measure 36
0001
0000
0000
0000
0000
0000
1000
0000
0000
0000
0000
0000
0100
0000
0000
0010
0000
0000
1000
0000
0000
0000
0000
0000
0001
0000
0000
0000
0000
0000
0000
0000
1010
0000
0000
0000
0000
0000
0000
0000
1001
0000
0000
0000
0000
0000
0000
0000
,  // measure 37
2100
0000
0000
0000
0000
0000
0000
0000
0002
0000
0000
0000
3003
0000
0001
1000
,  // measure 38
0100
0000
0000
0000
0000
0000
0010
0000
0000
0000
0000
0000
1000
0000
0000
0001
0000
0000
0010
0000
0000
0000
0000
0000
0100
0000
0000
0000
0000
0000
0000
0000
0011
0000
0000
0000
0000
0000
0000
0000
0110
0000
0000
0000
0000
0000
0000
0000
,  // measure 39
1020
0000
0200
0330
,  // measure 40
2000
0000
0002
3003
,  // measure 41
1000
0000
0100
0000
0010
0000
0001
0000
0100
0000
0010
0000
0010
0000
1000
0100
,  // measure 42
0002
1000
1000
1000
0013
0100
0001
0010
,  // measure 43
0010
0000
0001
1000
0000
0001
0100
0000
1000
0000
0001
0010
0000
1000
0001
0000
,  // measure 44
0100
0010
0100
0010
0100
0010
0100
0010
0100
0010
0100
0010
0100
0010
0100
0000
,  // measure 45
0001
1000
0001
1000
0001
1000
0001
1000
0001
1000
0001
1000
0001
1000
0001
0000
,  // measure 46
2002
0000
0000
0000
,  // measure 47
0000
0000
0000
0000
,  // measure 48
3003
0000
0000
0000
;
