#VERSION:0.83;
#TITLE:BROKEN YOUTH;
#SUBTITLE:;
#ARTIST:NICO Touches the Walls;
#TITLETRANSLIT:;
#SUBTITLETRANSLIT:;
#ARTISTTRANSLIT:;
#GENRE:;
#ORIGIN:;
#CREDIT:;
#BANNER:Broken Youth.png;
#BACKGROUND:Broken Youth-bg.png;
#PREVIEWVID:;
#JACKET:Broken Youth-jacket.png;
#CDIMAGE:;
#DISCIMAGE:;
#LYRICSPATH:;
#CDTITLE:;
#MUSIC:Broken Youth.mp3;
#OFFSET:0.763000;
#SAMPLESTART:43.369999;
#SAMPLELENGTH:15.000000;
#SELECTABLE:YES;
#DISPLAYBPM:176.000000;
#BPMS:0.000=176.060;
#STOPS:;
#DELAYS:;
#WARPS:;
#TIMESIGNATURES:0.000=4=4;
#TICKCOUNTS:0.000=4;
#COMBOS:0.000=1;
#SPEEDS:0.000=1.000=0.000=0;
#SCROLLS:0.000=1.000;
#FAKES:;
#LABELS:0.000=Song Start;
#BGCHANGES:;
#KEYSOUNDS:;
#ATTACKS:
;

//---------------dance-single - ----------------
#NOTEDATA:;
#CHARTNAME:;
#STEPSTYPE:dance-single;
#DESCRIPTION:;
#CHARTSTYLE:;
#DIFFICULTY:Medium;
#METER:9;
#RADARVALUES:0.416247,0.513810,0.435384,0.189783,0.000000,261.000000,222.000000,39.000000,17.000000,0.000000,0.000000,0.000000,0.000000,0.000000,0.416247,0.513810,0.435384,0.189783,0.000000,261.000000,222.000000,39.000000,17.000000,0.000000,0.000000,0.000000,0.000000,0.000000;
#CREDIT:kater15;
#DISPLAYBPM:176.000000;
#NOTES:
0000
0000
0000
0000
,
0000
0000
0000
0000
,
0000
0000
0000
0000
,
1000
0000
0100
0000
0010
0000
0001
1000
,
0000
0100
0000
0010
0000
0001
0100
0000
,
0010
0000
0010
1000
0000
1000
0010
0000
,
0001
0000
0100
1000
0000
0010
1000
0000
,
0001
1001
0100
0110
,
0001
0101
0010
1010
,
0100
0110
1001
0200
,
0000
1300
0010
2002
,
0000
0000
3003
0000
0000
0100
0000
0100
,
0000
0100
0001
0000
1000
0000
0200
0000
,
0000
0010
0000
0010
,
0000
0000
0310
0000
2001
0000
0000
3001
,
0000
0000
0000
0000
0000
1000
0000
1000
,
0000
1000
0001
0000
0001
0000
2000
0000
,
0100
3010
1001
0010
,
0001
0010
2000
0200
,
3300
0100
0010
0001
,
0000
0100
1000
0010
,
0000
0100
0001
0200
,
0000
0000
1300
0000
0000
0020
0000
0200
,
0000
0000
0000
0000
,
0000
0330
0000
0000
,
0110
2000
3001
0010
,
0001
0010
0000
1001
0000
0100
0000
0010
,
0000
1000
0000
0001
0000
0010
0000
0001
,
0000
0200
0000
0300
0000
0000
0000
0000
,
1001
0000
0001
0010
0000
0010
0000
0001
,
0000
1000
0000
0010
0000
1000
0000
0200
,
0000
0000
0000
0000
,
0300
0000
0110
1010
,
0100
0000
1000
0001
0100
0000
1000
0001
,
0010
1000
0110
0101
,
0010
0000
0100
1000
0010
0000
0001
0010
,
1000
0001
1001
1100
,
0100
0000
1000
0100
0010
0000
0001
0010
,
0100
0000
0000
1001
0000
0000
1000
0000
,
0100
0001
0000
1000
0000
0010
0000
0100
,
0000
0001
0100
0000
0001
1000
0010
0000
,
0100
0000
1000
0010
0100
0000
1000
0100
,
0001
1000
0110
0101
,
0010
0000
0001
0100
0010
0000
0001
0010
,
0100
1000
1001
0011
,
0100
0000
1000
0001
0010
0000
1000
0001
,
0010
0000
0000
0110
0000
0000
1001
0000
,
1000
0100
0010
0001
,
0100
1000
0100
0000
0010
0001
0010
0000
,
1001
0000
0010
0000
0110
0000
0000
0010
,
0000
0010
0000
0101
0000
0000
0100
0000
,
0100
0010
0000
0001
0000
1000
0000
0100
,
0000
1001
0010
0210
,
0000
0010
0000
0310
,
0001
1000
0001
0000
1000
0001
1000
0000
,
0001
0000
0000
0110
0000
0000
1000
0000
,
0000
1001
0000
0000
1000
0000
0010
0000
,
0100
0000
0000
1100
0000
0000
0001
0000
,
0000
0101
0000
0000
0001
0000
0100
0000
,
1000
0000
0000
0011
0000
0000
1000
0000
,
0000
1010
0000
0000
1000
0000
0010
0000
,
0100
0000
0000
0110
0000
0000
0001
0000
,
0000
1001
0000
0000
1000
0000
0001
0000
,
0220
0000
0000
0000
,
0000
0000
0000
0000
,
0000
0000
0000
0330
;

//---------------dance-single - ----------------
#NOTEDATA:;
#CHARTNAME:;
#STEPSTYPE:dance-single;
#DESCRIPTION:;
#CHARTSTYLE:;
#DIFFICULTY:Hard;
#METER:12;
#RADARVALUES:0.591676,0.660612,0.122801,0.145128,0.000000,371.000000,360.000000,11.000000,13.000000,0.000000,0.000000,0.000000,0.000000,0.000000,0.591676,0.660612,0.122801,0.145128,0.000000,371.000000,360.000000,11.000000,13.000000,0.000000,0.000000,0.000000,0.000000,0.000000;
#CREDIT:kater15;
#DISPLAYBPM:176.000000;
#NOTES:
// measure 0
0000
0000
0000
0000
,  // measure 1
0000
0000
0000
0000
,  // measure 2
0000
0000
0000
0000
,  // measure 3
0100
0000
1000
0100
1000
0010
0001
1000
,  // measure 4
0000
0100
1000
0010
0000
0001
0100
0000
,  // measure 5
0010
0100
0001
1000
0000
1000
0001
0000
,  // measure 6
0001
0010
0100
1000
0000
0010
1000
0000
,  // measure 7
0001
0100
1000
0010
0100
1000
0010
0100
,  // measure 8
0001
0010
0100
0100
0010
0100
1000
0001
,  // measure 9
0100
0110
1001
0100
,  // measure 10
0001
0010
1000
0000
0010
0100
2000
0000
,  // measure 11
0000
0000
3010
0000
0001
1000
0100
1000
,  // measure 12
0010
0100
0001
0100
1000
0000
0100
0000
,  // measure 13
1000
0100
0010
1000
0001
0100
0010
0000
,  // measure 14
1000
0100
0010
0100
0001
0010
0100
0000
,  // measure 15
1000
0001
0010
0010
0100
1000
0001
0000
,  // measure 16
0010
1000
0001
0100
0001
0010
2000
0000
,  // measure 17
0001
0000
3010
0000
1000
0100
0010
0010
,  // measure 18
0001
1000
0010
0100
1000
0002
0200
0000
,  // measure 19
0303
0000
0100
0000
0010
0100
1002
0000
,  // measure 20
0000
0000
0103
0000
1000
0001
0120
0000
,  // measure 21
0000
0000
0130
0000
0001
0010
1200
0000
,  // measure 22
0000
0000
1300
0000
0000
0020
0000
0200
,  // measure 23
0000
0000
0000
0000
,  // measure 24
0000
0330
0000
0000
,  // measure 25
0110
0000
2000
0000
3001
0000
0010
0100
,  // measure 26
0001
0010
0100
0000
0001
0100
1000
0010
,  // measure 27
0100
1000
0010
0000
1000
0010
1000
0001
,  // measure 28
0010
0100
0001
0000
0100
0001
1000
0010
,  // measure 29
0001
0100
0001
0000
1000
0010
0100
0001
,  // measure 30
0010
1000
0010
0000
0001
1000
0010
0100
,  // measure 31
0001
1000
0010
0100
0000
0001
0001
0001
,  // measure 32
0000
1000
1000
0000
0110
0000
0110
0000
,  // measure 33
0010
0000
0001
0010
0001
0100
1000
0001
,  // measure 34
0000
0010
0001
0100
0000
1000
0010
0000
,  // measure 35
0100
0000
1000
0100
1000
0010
0001
1000
,  // measure 36
0000
0100
1000
0010
0000
0001
0100
0000
,  // measure 37
0010
0100
0001
1000
0000
1000
0001
0000
,  // measure 38
0001
0010
0100
1000
0000
0010
1000
0000
,  // measure 39
0001
0100
1000
0010
0100
1000
0010
0100
,  // measure 40
0001
0010
0100
0100
0010
0100
1000
0001
,  // measure 41
0010
0000
0001
0010
0001
0100
1000
0001
,  // measure 42
0000
0010
0001
0100
0000
1000
0010
0000
,  // measure 43
0100
0000
1000
0100
1000
0010
0001
1000
,  // measure 44
0000
0100
1000
0010
0000
0001
0100
0000
,  // measure 45
0010
0100
0001
1000
0000
1000
0001
0000
,  // measure 46
0001
0010
0100
1000
0000
0010
1000
0000
,  // measure 47
0001
0100
1000
0010
0100
1000
0010
0100
,  // measure 48
0001
0010
0100
0100
0010
0100
1000
0001
,  // measure 49
1001
0000
0010
0001
0100
0000
1000
0010
,  // measure 50
0000
0010
1000
0001
0000
0010
0100
0000
,  // measure 51
0100
0010
1000
0100
0010
0001
1000
0010
,  // measure 52
0000
0100
1001
0000
0010
1000
0200
0000
,  // measure 53
0010
0001
0010
0301
,  // measure 54
0001
1000
0010
0100
1000
0010
1000
0100
,  // measure 55
0001
0000
0001
0100
0000
0100
1000
0000
,  // measure 56
1000
0001
0000
0001
1000
0100
0010
1000
,  // measure 57
0001
0000
0100
1000
0000
0010
0001
0000
,  // measure 58
1000
0001
0000
0100
0001
0010
0100
0010
,  // measure 59
1000
0000
0001
1000
0000
0010
1000
0000
,  // measure 60
0100
1000
0000
0100
1000
0010
1000
0000
,  // measure 61
0001
1000
0010
0100
0100
0010
0100
0001
,  // measure 62
1000
0100
0100
1000
0100
0010
0001
0100
,  // measure 63
2002
0000
0000
0000
,  // measure 64
0000
0000
0000
0000
,  // measure 65
0000
0000
0000
3003
;

//---------------dance-single - ----------------
#NOTEDATA:;
#CHARTNAME:;
#STEPSTYPE:dance-single;
#DESCRIPTION:;
#CHARTSTYLE:;
#DIFFICULTY:Easy;
#METER:5;
#RADARVALUES:0.236033,0.330306,0.133964,0.245602,0.000000,148.000000,136.000000,12.000000,22.000000,0.000000,0.000000,0.000000,0.000000,0.000000,0.236033,0.330306,0.133964,0.245602,0.000000,148.000000,136.000000,12.000000,22.000000,0.000000,0.000000,0.000000,0.000000,0.000000;
#CREDIT:kater15;
#DISPLAYBPM:176.000000;
#NOTES:
0000
0000
0000
0000
,
0000
0000
0000
0000
,
0000
0000
0000
0000
,
0000
0000
0000
0000
,
0000
0000
0000
0000
,
0010
0001
1000
0010
,
0001
0100
0010
1000
,
0001
0001
1000
1000
,
0010
0010
0100
0100
,
1000
0200
0000
0000
,
0000
1300
0010
0002
,
0000
0103
0000
0100
,
0000
0001
1000
0200
,
0000
0000
0000
0310
,
0000
0000
0010
0000
2002
0000
0000
3003
,
0000
0100
0000
1000
,
0000
0010
1002
0000
,
0103
0010
1000
0010
,
0001
0010
1000
0001
,
0000
0100
0010
0010
,
0000
0100
1000
1000
,
0000
0100
0001
0001
,
0000
1000
0020
0200
,
0000
0000
0000
0000
,
0000
0330
0000
0000
,
1000
0100
0010
0001
,
0000
0100
1000
0010
,
0000
0100
0001
1000
,
0000
0010
0001
0100
,
1001
0001
1000
0010
,
0000
0100
1000
0020
,
0000
0000
0000
0030
,
0000
0000
0100
2002
,
0000
0000
0000
0000
,
3003
1000
0001
0220
,
0000
0000
0000
0000
,
0330
0001
0010
2001
,
0000
0000
0000
0000
,
0000
0000
3001
0000
,
0100
0001
0010
0100
,
1000
0100
0001
0220
,
0000
0000
0000
0000
,
0330
1000
0100
2002
,
0000
0000
0000
0000
,
3003
1000
0001
0210
,
0000
0000
0000
0000
,
0000
0000
0310
0001
,
1000
0100
0010
0001
,
0000
0100
0000
0010
,
1000
0001
0100
0000
,
0100
0000
0001
0110
,
0010
0000
0100
0000
,
0001
0000
1000
0210
,
0000
0001
0000
0301
,
0000
0001
0000
1000
,
0100
0000
0000
1000
,
0000
0000
1000
0001
,
0100
0000
0000
1000
,
0000
0000
0010
0100
,
1000
0000
0000
0001
,
0000
0000
1000
0010
,
0100
0000
0000
1000
,
0000
0000
0010
0100
,
2002
0000
0000
0000
,
0000
0000
0000
0000
,
0000
0000
0000
3003
;

//---------------dance-single - ----------------
#NOTEDATA:;
#CHARTNAME:;
#STEPSTYPE:dance-single;
#DESCRIPTION:;
#CHARTSTYLE:;
#DIFFICULTY:Beginner;
#METER:2;
#RADARVALUES:0.118016,0.183503,0.000000,0.145128,0.000000,74.000000,74.000000,0.000000,13.000000,0.000000,0.000000,0.000000,0.000000,0.000000,0.118016,0.183503,0.000000,0.145128,0.000000,74.000000,74.000000,0.000000,13.000000,0.000000,0.000000,0.000000,0.000000,0.000000;
#CREDIT:kater15;
#DISPLAYBPM:176.000000;
#NOTES:
0000
0000
0000
0000
,
0000
0000
0000
0000
,
0000
0000
0000
0000
,
0000
0000
0000
0000
,
0000
0000
0000
0000
,
0010
0000
0000
0000
,
0001
0000
0000
0000
,
0001
0000
0000
0000
,
0010
0000
0000
0000
,
2000
0000
0000
3000
,
1000
0000
0010
0000
,
0100
0000
0000
0000
,
0001
0000
1000
0000
,
0002
0000
0000
0003
,
0001
0000
1000
0000
,
0100
0000
0000
0000
,
1000
0000
0001
0000
,
0200
0000
0000
0300
,
0100
0000
0010
0000
,
0001
0000
0010
0010
,
0000
0000
1000
1000
,
0000
0000
0001
0001
,
0000
0000
0100
0200
,
0000
0000
0000
0000
,
0000
0000
0300
0000
,
1000
0000
0001
0000
,
0100
0000
1000
0000
,
0100
0000
0001
0000
,
0000
0000
0001
0000
,
0001
0000
1000
0000
,
0000
0000
2000
0000
,
0000
0000
0000
3000
,
0000
0000
0100
0200
,
0000
0000
0000
0000
,
0300
0000
0010
0020
,
0000
0000
0000
0000
,
0030
0000
1000
2000
,
0000
0000
0000
0000
,
0000
0000
3000
0000
,
0100
0000
0001
0000
,
1000
0000
0010
0020
,
0000
0000
0000
0000
,
0030
0000
0001
0002
,
0000
0000
0000
0000
,
0003
0000
0100
0200
,
0000
0000
0000
0000
,
0000
0000
0300
0000
,
1000
0000
0010
0000
,
0000
0000
0000
0000
,
1000
0000
0100
0000
,
0100
0000
0000
0000
,
0010
0000
0100
0000
,
1000
0000
0001
0002
,
0000
0000
0000
0003
,
0000
0000
0001
0000
,
0100
0000
0000
0000
,
0000
0000
1000
0000
,
0100
0000
0000
0000
,
0000
0000
0010
0000
,
1000
0000
0000
0000
,
0000
0000
1000
0000
,
0100
0000
0000
0000
,
0000
0000
0010
0010
,
0020
0000
0000
0000
,
0000
0000
0000
0000
,
0000
0000
0000
0030
;
