#VERSION:0.83;
#TITLE:Breaking The Habit;
#SUBTITLE:;
#ARTIST:Linkin Park;
#TITLETRANSLIT:;
#SUBTITLETRANSLIT:;
#ARTISTTRANSLIT:;
#GENRE:;
#ORIGIN:;
#CREDIT:;
#BANNER:Breaking The Habit.png;
#BACKGROUND:Breaking The Habit-bg.png;
#PREVIEWVID:;
#JACKET:Breaking The Habit-jacket.png;
#CDIMAGE:;
#DISCIMAGE:;
#LYRICSPATH:;
#CDTITLE:cdtitle.png;
#MUSIC:Breaking The Habit.ogg;
#OFFSET:0.000000;
#SAMPLESTART:57.341000;
#SAMPLELENGTH:15.000000;
#SELECTABLE:YES;
#DISPLAYBPM:200.000000;
#BPMS:0.000=194.000,
8.000=200.120;
#STOPS:;
#DELAYS:;
#WARPS:;
#TIMESIGNATURES:0.000=4=4;
#TICKCOUNTS:0.000=4;
#COMBOS:0.000=1;
#SPEEDS:0.000=1.000=0.000=0;
#SCROLLS:0.000=1.000;
#FAKES:;
#LABELS:0.000=Song Start;
#BGCHANGES:;
#KEYSOUNDS:;
#ATTACKS:
;

//---------------dance-single - ----------------
#NOTEDATA:;
#CHARTNAME:;
#STEPSTYPE:dance-single;
#DESCRIPTION:;
#CHARTSTYLE:;
#DIFFICULTY:Easy;
#METER:4;
#RADARVALUES:0.183420,0.265905,0.091167,0.334280,0.000000,169.000000,157.000000,12.000000,44.000000,0.000000,0.000000,0.000000,0.000000,0.000000,0.183420,0.265905,0.091167,0.334280,0.000000,169.000000,157.000000,12.000000,44.000000,0.000000,0.000000,0.000000,0.000000,0.000000;
#CREDIT:kater15;
#DISPLAYBPM:200.000000;
#NOTES:
0000
0000
0000
0000
,
0000
0000
0000
0000
,
0000
0000
0000
0000
,
0000
0000
0000
0000
,
0000
0000
0000
0000
,
0000
0000
0000
0000
,
0000
0000
0000
0000
,
0000
0000
0000
0000
,
0001
0000
1000
0000
,
1000
0000
0001
0000
,
0001
0000
0100
0000
,
0100
0000
0010
0000
,
0010
0000
1000
0000
,
0100
0000
0010
0000
,
0001
0000
0100
0000
,
0001
1000
0100
0010
,
0001
0000
2000
0000
,
3000
0000
0002
0000
,
0003
0000
0100
0100
,
0010
0000
1000
0000
,
0001
0000
0100
0000
,
0020
0000
0030
0000
,
0200
0000
0300
0000
,
0010
0000
0100
0000
,
1001
0000
0200
0000
,
0300
0000
0020
0000
,
0030
0000
0001
0000
,
1000
1000
0010
0000
,
0100
0000
0001
0000
,
2000
0000
3000
0000
,
0002
0000
0003
0000
,
0100
0000
0010
0100
,
0020
0000
0030
0000
,
0200
0000
0300
0000
,
1000
0010
0010
0000
,
1000
0000
0100
0000
,
0002
0000
0003
0000
,
0200
0000
0300
0000
,
0010
0100
0010
0000
,
2000
0000
0000
3000
,
0001
0100
0001
0000
,
0010
0000
0100
0000
,
1000
0000
0010
0001
,
0100
0000
1001
0000
,
0100
0000
0001
0000
,
0010
1000
0100
0000
,
0010
0000
1000
0000
,
0220
0000
0000
0330
,
1000
0010
1000
0000
,
0100
0000
0010
0000
,
0001
0000
0100
1000
,
0010
0000
1001
0000
,
0200
0000
0000
0300
,
0002
0003
0200
0300
,
0020
0000
0000
0000
,
0030
0000
0000
1000
,
2002
0000
0000
3003
,
0200
0300
0020
0030
,
2000
0000
0000
0000
,
3000
0000
0000
0001
,
1001
0000
1000
0000
,
0100
0000
0010
0000
,
0002
0000
0000
0000
,
0000
0000
0000
0000
,
0003
0000
0000
0100
,
0001
0000
0010
0000
,
2000
0000
0000
0000
,
0000
0000
0000
0000
,
3000
0000
0000
1000
,
0100
0000
0001
0000
,
0020
0000
0000
0000
,
0000
0000
0000
0000
,
0030
0000
0000
0001
,
0010
0000
1000
0000
,
0200
0000
0000
0000
,
0300
0000
0000
0000
,
0001
0100
0001
0000
,
0010
0000
0100
0000
,
1000
0000
0010
0001
,
0100
0000
1001
0000
,
0100
0000
0001
0000
,
0010
1000
0100
0000
,
0010
0000
1000
0000
,
0220
0000
0000
0330
,
1000
0010
1000
0000
,
0100
0000
0010
0000
,
0001
0000
0100
1000
,
0010
0000
1001
0000
,
0200
0000
0000
0300
,
0002
0003
0200
0300
,
0020
0000
0000
0000
,
0030
0000
0000
1000
,
2002
0000
0000
3003
,
0200
0300
0020
0030
,
2000
0000
0000
0000
,
3000
0000
0000
0100
,
0220
0000
0000
0330
,
0002
0003
2000
3000
,
0200
0000
0000
0000
,
0300
0000
0000
1000
,
1001
0000
0000
0000
;

//---------------dance-single - ----------------
#NOTEDATA:;
#CHARTNAME:;
#STEPSTYPE:dance-single;
#DESCRIPTION:;
#CHARTSTYLE:;
#DIFFICULTY:Beginner;
#METER:2;
#RADARVALUES:0.112874,0.189932,0.015195,0.167140,0.000000,104.000000,102.000000,2.000000,22.000000,0.000000,0.000000,0.000000,0.000000,0.000000,0.112874,0.189932,0.015195,0.167140,0.000000,104.000000,102.000000,2.000000,22.000000,0.000000,0.000000,0.000000,0.000000,0.000000;
#CREDIT:kater15;
#DISPLAYBPM:200.000000;
#NOTES:
0000
0000
0000
0000
,
0000
0000
0000
0000
,
0000
0000
0000
0000
,
0000
0000
0000
0000
,
0000
0000
0000
0000
,
0000
0000
0000
0000
,
0000
0000
0000
0000
,
0000
0000
0000
0000
,
0100
0000
0000
0000
,
0001
0000
0000
0000
,
0100
0000
0000
0000
,
0001
0000
0000
0000
,
0010
0000
0000
0000
,
1000
0000
0000
0000
,
0010
0000
0000
0000
,
1000
0000
0000
0000
,
0000
0000
1000
0000
,
1000
0000
0001
0000
,
0001
0000
0000
0000
,
0100
0000
0000
0000
,
0010
0000
0000
0000
,
0002
0000
0003
0000
,
2000
0000
3000
0000
,
0000
0000
1001
0000
,
0000
0000
0010
0000
,
0010
0000
0100
0000
,
0100
0000
0000
0000
,
1000
0000
0000
0000
,
0001
0000
0000
0000
,
0200
0000
0300
0000
,
0020
0000
0030
0000
,
0000
0000
0110
0000
,
0020
0000
0030
0000
,
0200
0000
0300
0000
,
0001
0000
1000
0000
,
0001
0000
0000
0000
,
0002
0000
0003
0000
,
2000
0000
3000
0000
,
0010
0000
0100
0000
,
0010
0000
0000
0000
,
0001
0000
0000
0000
,
1000
0000
0000
0000
,
0001
0000
0100
0000
,
0010
0000
0000
1000
,
1000
0000
0000
0000
,
0010
0000
0000
0000
,
0010
0000
1000
0000
,
0001
0000
0000
0100
,
0100
0000
0000
0000
,
0010
0000
0000
0000
,
0010
0000
0100
0000
,
0010
0000
1000
0000
,
0200
0000
0000
0000
,
0300
0000
0010
0000
,
0200
0000
0000
0000
,
0300
0000
0000
1000
,
2000
0000
0000
0000
,
3000
0000
0001
0000
,
2000
0000
0000
0000
,
3000
0000
0000
0010
,
0010
0000
0000
0000
,
1000
0000
0000
0000
,
0002
0000
0000
0000
,
0000
0000
0000
0000
,
0003
0000
0000
0000
,
0001
0000
0000
0000
,
2000
0000
0000
0000
,
0000
0000
0000
0000
,
3000
0000
0000
0000
,
0100
0000
0000
0000
,
0020
0000
0000
0000
,
0000
0000
0000
0000
,
0030
0000
0000
0000
,
0010
0000
0000
0000
,
0200
0000
0000
0000
,
0300
0000
0000
0000
,
0001
0000
0000
0000
,
1000
0000
0000
0000
,
0001
0000
0100
0000
,
0010
0000
0000
1000
,
1000
0000
0000
0000
,
0010
0000
0000
0000
,
0010
0000
1000
0000
,
0001
0000
0000
0100
,
0100
0000
0000
0000
,
0010
0000
0000
0000
,
0010
0000
0100
0000
,
0010
0000
1000
0000
,
0200
0000
0000
0000
,
0300
0000
0010
0000
,
0200
0000
0000
0000
,
0300
0000
0000
1000
,
2000
0000
0000
0000
,
3000
0000
0001
0000
,
2000
0000
0000
0000
,
3000
0000
0000
0100
,
0200
0000
0000
0000
,
0300
0000
0001
0000
,
0020
0000
0000
0000
,
0030
0000
0000
0010
,
0010
0000
0000
0000
;

//---------------dance-single - ----------------
#NOTEDATA:;
#CHARTNAME:;
#STEPSTYPE:dance-single;
#DESCRIPTION:;
#CHARTSTYLE:;
#DIFFICULTY:Medium;
#METER:7;
#RADARVALUES:0.277844,0.379389,0.068376,0.235516,0.000000,256.000000,247.000000,9.000000,31.000000,0.000000,0.000000,0.000000,0.000000,0.000000,0.277844,0.379389,0.068376,0.235516,0.000000,256.000000,247.000000,9.000000,31.000000,0.000000,0.000000,0.000000,0.000000,0.000000;
#CREDIT:kater15;
#DISPLAYBPM:200.000000;
#NOTES:
0000
0000
0000
0000
,
0000
0000
0000
0000
,
0000
0000
0000
0000
,
0000
0000
0000
0000
,
0000
0000
0000
0000
,
0000
0000
0000
0000
,
0000
0000
0000
0000
,
0000
0000
0000
0000
,
1000
0100
1000
1000
,
0001
0100
0001
0001
,
1000
0100
1000
1000
,
0001
0100
0001
0001
,
0110
1000
0100
0010
,
0001
0100
0010
1000
,
0100
0010
0100
0010
,
1000
0001
1000
0001
,
0100
0000
2000
0000
,
3001
0000
0002
0000
,
1003
0000
0000
0001
,
1001
0000
1000
0000
0100
0000
0001
1000
,
0001
0000
0000
0010
,
0110
0000
0100
0000
1000
0000
0010
0100
,
0010
0000
0001
0000
,
0100
0000
0000
0000
0001
0000
1000
0100
,
1000
0000
0020
0000
,
0130
0000
0200
0000
,
0310
0000
0000
0100
,
0110
0000
0010
0000
1000
0000
0100
0010
,
0100
0000
0000
0001
,
1001
0000
1000
0000
0010
0000
0001
1000
,
0001
0000
0100
0000
,
1000
0000
0000
0000
0100
0100
0100
0000
,
0100
0000
1000
0000
,
0100
0001
0010
0100
,
1000
0001
0000
0010
0000
0100
0000
1000
,
0000
0000
0000
0000
0000
1001
0000
0000
,
1001
0000
0100
0000
,
0010
1000
0100
0010
,
0001
1000
0000
0100
0000
0010
0000
0001
,
0000
0000
0000
0001
,
0001
1000
0100
0010
,
0100
0100
0001
0001
,
2000
0000
0000
0010
0000
0001
0000
0010
,
0000
3000
0000
0010
,
0010
0100
0001
1000
,
0001
0001
0010
0010
,
0200
0000
0000
1000
0000
0010
0000
1000
,
0000
0300
0000
1000
,
1000
0001
0010
0100
,
0010
0010
1000
1000
,
0002
0000
0000
0100
0000
1000
0000
0100
,
0000
0003
1000
0001
,
0220
0000
0000
0000
,
0030
0000
0002
0300
,
2000
0000
0000
0000
,
0003
0000
0000
0010
,
0020
0000
0000
0000
,
3000
0000
0200
0030
,
0002
0000
0000
0000
,
0303
0000
0000
0000
0000
0000
0001
1000
,
0000
0000
0000
1000
,
0100
0001
0010
0100
,
2000
0001
0000
0001
,
0000
0001
0000
0001
,
3000
0000
0000
0001
,
0010
1000
0100
0010
,
0002
1000
0000
1000
,
0000
1000
0000
1000
,
0003
0000
0000
0010
,
1000
0100
0001
1000
,
0020
0100
0000
0100
,
0000
0100
0000
0100
,
0030
0000
0000
0100
,
0001
0010
1000
0001
,
0200
0010
0000
0010
,
0300
0010
1000
0001
,
0001
1000
0100
0010
,
0100
0100
0001
0001
,
2000
0000
0000
0010
0000
0001
0000
0010
,
0000
3000
0000
0010
,
0010
0100
0001
1000
,
0001
0001
0010
0010
,
0200
0000
0000
1000
0000
0010
0000
1000
,
0000
0300
0000
1000
,
1000
0001
0010
0100
,
0010
0010
1000
1000
,
0002
0000
0000
0100
0000
1000
0000
0100
,
0000
0003
1000
0001
,
0220
0000
0000
0000
,
0030
0000
0002
0300
,
2000
0000
0000
0000
,
0003
0000
0000
0010
,
0020
0000
0000
0000
,
3000
0000
0200
0030
,
0002
0000
0000
0000
,
0300
0000
0000
1000
,
2000
0000
0000
0000
,
0003
0000
0200
3000
,
0020
0000
0000
0000
,
0330
0000
0000
0000
0000
0000
0001
1000
;

//---------------dance-single - ----------------
#NOTEDATA:;
#CHARTNAME:;
#STEPSTYPE:dance-single;
#DESCRIPTION:;
#CHARTSTYLE:;
#DIFFICULTY:Hard;
#METER:10;
#RADARVALUES:0.528554,0.569084,0.159543,0.167140,0.000000,487.000000,466.000000,21.000000,22.000000,0.000000,0.000000,0.000000,0.000000,0.000000,0.528554,0.569084,0.159543,0.167140,0.000000,487.000000,466.000000,21.000000,22.000000,0.000000,0.000000,0.000000,0.000000,0.000000;
#CREDIT:kater15;
#DISPLAYBPM:200.000000;
#NOTES:
// measure 0
0000
0000
0000
0000
,  // measure 1
0000
0000
0000
0000
,  // measure 2
0000
0000
0000
0000
,  // measure 3
0000
0000
0000
0000
,  // measure 4
0000
0000
0000
0000
,  // measure 5
0000
0000
0000
0000
,  // measure 6
0000
0000
0000
0000
,  // measure 7
0000
0000
0000
0000
,  // measure 8
0010
0000
0100
0010
0100
0001
1000
0000
,  // measure 9
0001
0000
0010
1000
0100
0010
0001
0000
,  // measure 10
1000
0000
0010
0100
0001
0100
1000
0000
,  // measure 11
0100
0000
1000
0010
0100
0001
0010
0000
,  // measure 12
0100
0000
0010
0100
0010
1000
0001
0000
,  // measure 13
1000
0000
0100
0001
0010
0100
1000
0000
,  // measure 14
0001
0000
0100
0010
1000
0010
0001
0000
,  // measure 15
0010
0000
0001
0100
0010
1000
0100
0000
,  // measure 16
0001
1010
0200
0301
,  // measure 17
2000
0000
3010
0000
0001
0000
1000
0010
,  // measure 18
0001
0100
0101
0010
,  // measure 19
1000
0100
0010
0000
0110
0000
0100
1000
,  // measure 20
0001
0000
0010
0100
1000
0000
0001
0000
,  // measure 21
0110
0000
1000
0100
0001
0000
0100
0100
,  // measure 22
0010
0000
0001
0100
2000
0000
0010
0000
,  // measure 23
0100
0000
3001
0000
0110
0000
1000
0100
,  // measure 24
0001
0101
0020
1030
,  // measure 25
0002
0000
0103
0000
1000
0000
0001
0100
,  // measure 26
1000
0010
1010
0100
,  // measure 27
0001
0010
0100
0000
0110
0000
0010
0001
,  // measure 28
1000
0000
0100
0010
0001
0000
1000
0000
,  // measure 29
0110
0000
0001
0010
1000
0000
0010
0010
,  // measure 30
0100
0000
1000
0010
0002
0000
0100
0000
,  // measure 31
0010
0000
1003
0000
0010
0001
0100
0000
,  // measure 32
0110
0000
1000
0001
0000
0001
1000
0000
,  // measure 33
1000
0100
0010
0001
0000
0001
0100
0000
,  // measure 34
0010
0100
0000
0001
1000
0100
0010
0002
,  // measure 35
0000
0100
0100
1003
,  // measure 36
1001
0000
0100
0010
0000
0010
0100
0000
,  // measure 37
0100
0001
1000
0010
0000
0010
0001
0000
,  // measure 38
1000
0001
0000
0010
0100
0001
1000
0020
,  // measure 39
0000
0001
0001
0130
,  // measure 40
0100
1000
0010
0100
0000
1000
0001
0000
,  // measure 41
0100
0010
0001
1000
0000
0010
0100
0000
,  // measure 42
0010
0100
0100
0001
0000
0100
1000
0000
,  // measure 43
0010
1000
0100
1000
0000
0010
0100
0000
,  // measure 44
0001
0100
1000
0001
0000
0100
0010
0000
,  // measure 45
0001
1000
0010
0100
0000
1000
0001
0000
,  // measure 46
1000
0001
0001
0010
0000
0001
0100
0000
,  // measure 47
1000
0100
0001
0100
0000
1000
0001
0000
,  // measure 48
0010
0001
0100
0010
0000
0001
1000
0000
,  // measure 49
0010
0100
1000
0001
0000
0100
0010
0000
,  // measure 50
0100
0010
0010
1000
0000
0010
0001
0000
,  // measure 51
0100
0001
0010
0001
0000
0100
0010
0000
,  // measure 52
0002
1000
0100
1000
,  // measure 53
0010
0010
1000
0100
,  // measure 54
2000
0000
0000
0000
,  // measure 55
3003
0000
0100
1000
0100
0001
0010
0100
,  // measure 56
0002
1000
0100
1000
,  // measure 57
0010
0010
1000
0100
,  // measure 58
2000
0000
0000
0000
,  // measure 59
3003
0000
0100
0001
1000
0100
0010
0001
,  // measure 60
0100
1000
1001
0010
,  // measure 61
0110
0000
1000
0100
1000
0010
0100
0001
,  // measure 62
0020
1000
0100
1000
,  // measure 63
0100
1000
0100
1000
,  // measure 64
0130
0010
0110
0001
,  // measure 65
1001
0000
0010
1000
0010
0001
1000
0100
,  // measure 66
0002
0010
1000
0010
,  // measure 67
1000
0010
1000
0010
,  // measure 68
0013
0001
1001
0100
,  // measure 69
0110
0000
0001
0010
0001
0100
0010
1000
,  // measure 70
0200
0001
0010
0001
,  // measure 71
0010
0001
0010
0001
,  // measure 72
0301
0100
0110
1000
,  // measure 73
1001
0000
0100
0001
0100
1000
0001
0010
,  // measure 74
2000
0100
0001
0100
,  // measure 75
3001
0000
0100
1000
0001
0010
0100
1000
,  // measure 76
0010
0001
0100
0010
0000
0001
1000
0000
,  // measure 77
0010
0100
1000
0001
0000
0100
0010
0000
,  // measure 78
0100
0010
0010
1000
0000
0010
0001
0000
,  // measure 79
0100
0001
0010
0001
0000
0100
0010
0000
,  // measure 80
1000
0010
0001
1000
0000
0010
0100
0000
,  // measure 81
1000
0001
0100
0010
0000
0001
1000
0000
,  // measure 82
0001
1000
1000
0100
0000
1000
0010
0000
,  // measure 83
0001
0010
1000
0010
0000
0001
1000
0000
,  // measure 84
0100
1000
0010
0100
0000
1000
0001
0000
,  // measure 85
0100
0010
0001
1000
0000
0010
0100
0000
,  // measure 86
0010
0100
0100
0001
0000
0100
1000
0000
,  // measure 87
0010
1000
0100
1000
0000
0010
0100
0000
,  // measure 88
0002
1000
0100
1000
,  // measure 89
0010
0010
1000
0100
,  // measure 90
2000
0000
0000
0000
,  // measure 91
3003
0000
0100
1000
0100
0001
0010
0100
,  // measure 92
0002
1000
0100
1000
,  // measure 93
0010
0010
1000
0100
,  // measure 94
2000
0000
0000
0000
,  // measure 95
3003
0000
0100
1000
0100
0001
0010
0100
,  // measure 96
2000
0001
0010
0001
,  // measure 97
0100
0100
0001
0010
,  // measure 98
0002
0000
0000
0000
,  // measure 99
3003
0000
0101
0000
1100
0000
1000
0001
;
