#TITLE:BORBOLETAS;
#SUBTITLE:;
#ARTIST:Victor & Leo;
#TITLETRANSLIT:;
#SUBTITLETRANSLIT:;
#ARTISTTRANSLIT:;
#GENRE:;
#CREDIT:;
#BANNER:Borboletas.png;
#BACKGROUND:Borboletas-bg.png;
#LYRICSPATH:;
#CDTITLE:cdtitle.png;
#MUSIC:Borboletas.ogg;
#OFFSET:0.695000;
#SAMPLESTART:52.275002;
#SAMPLELENGTH:15.000000;
#SELECTABLE:YES;
#DISPLAYBPM:138.000000;
#BPMS:0.000000=138.009995
;
#STOPS:
;
#BGCHANGES:;
#KEYSOUNDS:;
#ATTACKS:;

//---------------dance-single - ----------------
#NOTES:
     dance-single:
     :
     Hard:
     11:
     0.473856,0.565132,0.310725,0.334030,0.073797,427.000000,387.000000,40.000000,43.000000,0.000000,0.000000,0.473856,0.565132,0.310725,0.334030,0.073797,427.000000,387.000000,40.000000,43.000000,0.000000,0.000000:
// measure 0
0000
0000
0000
0000
,  // measure 1
0000
0000
0000
0000
,  // measure 2
0000
0000
0000
0000
,  // measure 3
0000
0000
0000
0000
,  // measure 4
0000
0000
0000
0000
,  // measure 5
1000
0001
0100
1000
1000
0100
0010
0001
,  // measure 6
0000
0100
0100
0010
0001
0100
1000
0001
,  // measure 7
0100
1000
0100
0010
0001
1000
0010
0100
,  // measure 8
0000
0100
1001
1001
0010
1000
0100
0100
,  // measure 9
0010
1000
0100
1000
0010
0001
1000
0010
,  // measure 10
0000
0100
1000
0010
0001
1000
0010
1000
,  // measure 11
0100
0000
0010
0001
0010
1000
0010
0001
,  // measure 12
0000
0000
0000
0000
0110
0000
0000
0000
0101
0000
0000
0000
1010
0000
0000
0000
0000
0000
0010
0000
0000
1000
0000
0000
,  // measure 13
0100
0000
0000
0000
1100
0000
0000
0000
0101
0000
0000
0000
1010
0000
0000
0000
0000
0000
1000
0000
0000
0100
0000
0000
,  // measure 14
0010
0000
0000
0000
1100
0000
0000
0000
1001
0000
0000
0000
0011
0000
0000
0000
0000
0000
0010
0000
0000
0100
0000
0000
,  // measure 15
1000
0100
0001
0010
0010
0001
0100
0020
,  // measure 16
0000
0130
1000
0002
0000
0103
0100
0010
,  // measure 17
1000
0001
0200
0010
0000
0010
0000
0310
,  // measure 18
0001
0010
2000
0001
0000
0001
0000
3001
,  // measure 19
0010
0001
0100
0100
0001
1000
0010
0100
,  // measure 20
1000
0010
0100
0001
1000
0010
0100
1000
,  // measure 21
0002
0010
0000
0010
0000
0010
0103
0010
,  // measure 22
2000
0100
0000
0100
0000
3100
0010
0100
,  // measure 23
2002
0000
3003
0000
1000
1000
0001
0010
,  // measure 24
0001
0200
0000
0310
1000
0010
0001
0200
,  // measure 25
0000
0000
1300
0000
0010
0000
1000
0000
0100
0000
0000
1001
0000
0000
0010
0000
,  // measure 26
1000
0000
0100
0000
0010
0000
0001
0000
0100
0000
0000
1010
0000
0000
0001
0000
,  // measure 27
0100
0100
0001
0010
0100
0010
1000
1000
,  // measure 28
0010
1000
0100
0100
1001
0010
0100
0001
,  // measure 29
0000
0101
0000
0000
1100
0000
0000
0110
,  // measure 30
0001
1000
0001
0100
0010
0010
1000
0200
,  // measure 31
0000
0300
1001
0000
0001
0001
0100
2000
,  // measure 32
0000
0000
3000
0000
0110
0000
0000
0000
1000
0000
0100
1000
0010
0000
1000
0000
,  // measure 33
0001
0200
0000
0010
0000
0010
0000
1300
,  // measure 34
0000
0000
0000
0000
1010
0000
0000
0000
0100
0000
0001
1000
0010
0000
0100
0000
,  // measure 35
0010
0002
0000
1000
0000
1003
0000
0100
,  // measure 36
0010
2000
0000
0001
0000
3001
0000
0010
,  // measure 37
1000
0200
0000
0010
0000
0310
0000
2002
,  // measure 38
0000
3003
0000
0000
0001
0001
1000
0200
,  // measure 39
0000
0300
0011
0000
1000
1000
0001
0020
,  // measure 40
0000
0000
0030
0000
1100
0000
0000
0000
0100
0000
0001
0010
0001
0000
0100
0000
,  // measure 41
1000
0002
0000
0100
0000
0100
0000
1003
,  // measure 42
0000
0000
0000
0000
0110
0000
0000
0100
1000
0000
0010
0000
0010
0000
1000
0000
,  // measure 43
0001
0200
0000
0310
1000
0010
0010
0100
,  // measure 44
0001
0010
0100
0100
0001
1000
0010
0100
,  // measure 45
0001
1000
0100
0100
1000
0001
0010
0202
,  // measure 46
0000
0303
0000
0000
0010
0010
1000
0200
,  // measure 47
0000
0300
1001
0000
0001
0001
0100
1000
,  // measure 48
0001
0000
0011
0000
1010
0000
0010
0000
1001
0000
1100
0000
,  // measure 49
0020
0000
0000
0000
0000
0000
0030
0001
,  // measure 50
0000
0000
0000
0000
1010
0000
0000
0000
0100
0000
0001
1000
0010
0000
0100
0000
,  // measure 51
0010
0002
0000
1000
0000
1003
0000
0100
,  // measure 52
0010
2000
0000
0001
0000
3001
0000
0010
,  // measure 53
1000
0200
0000
0010
0000
0310
0000
2002
,  // measure 54
0000
3003
0000
0000
0001
0001
1000
0200
,  // measure 55
0000
0300
0011
0000
1000
1000
0001
0020
,  // measure 56
0000
0000
0030
0000
1100
0000
0000
0000
0100
0000
0001
0010
0001
0000
0100
0000
,  // measure 57
1000
0002
0000
0100
0000
0100
0000
1003
,  // measure 58
0000
0000
0000
0000
0110
0000
0000
0100
1000
0000
0010
0000
0010
0000
1000
0000
,  // measure 59
0001
0200
0000
0310
1000
0010
0010
0100
,  // measure 60
0001
0010
0100
0100
0001
1000
0010
0100
,  // measure 61
0001
1000
0100
0100
1000
0001
0010
0202
,  // measure 62
0000
0000
0000
0000
0000
0303
0000
0000
,  // measure 63
2002
0000
3003
0000
0010
1000
0010
0010
,  // measure 64
0100
0001
0010
0100
0100
0001
1000
0010
,  // measure 65
0100
0001
1000
0100
0100
1000
0001
0010
,  // measure 66
0202
0000
0000
0000
,  // measure 67
0000
0000
0000
0303
,  // measure 68
1000
0100
1000
0010
0010
0100
0001
0001
,  // measure 69
0010
0100
0010
0001
1000
0001
0010
0100
,  // measure 70
2002
0000
0000
0000
,  // measure 71
0000
0000
0000
0000
,  // measure 72
0000
0000
0000
3003
;

//---------------dance-single - ----------------
#NOTES:
     dance-single:
     :
     Beginner:
     3:
     0.108754,0.195077,0.031073,0.108754,0.000000,98.000000,94.000000,4.000000,14.000000,0.000000,0.000000,0.108754,0.195077,0.031073,0.108754,0.000000,98.000000,94.000000,4.000000,14.000000,0.000000,0.000000:
0000
0000
0000
0000
,
0000
0000
0000
0000
,
0000
0000
0000
0000
,
0000
0000
0000
0000
,
0000
0000
0000
0000
,
0100
0000
0000
0000
,
0100
0000
0000
0000
,
0001
0000
0000
0000
,
0001
0000
0000
0000
,
1000
0000
0000
0000
,
1000
0000
0000
0000
,
0010
0010
0000
0000
,
0100
0100
0000
0000
,
0001
0001
0000
0000
,
1000
1000
0000
0000
,
2002
0000
0000
3003
,
0000
0000
0000
0000
,
0220
0000
0000
0330
,
0000
0000
1000
0000
,
2002
0000
0000
3003
,
0000
0000
0000
0000
,
0220
0000
0000
0330
,
0000
0000
0000
0000
,
0001
0000
1000
0000
,
0001
0000
0000
0000
,
0100
0000
0010
0000
,
0100
0000
0000
0000
,
0010
0000
0010
0000
,
1000
0000
0000
0000
,
0002
0000
0000
0003
,
0000
0000
0100
0100
,
0100
0000
0001
0001
,
0001
0000
0000
0000
,
0100
0000
0100
0000
,
0010
0000
0000
0100
,
0100
0000
0000
0001
,
0001
0000
0000
1000
,
1000
0000
0000
0010
,
0010
0000
0000
0000
,
0100
0000
0000
0000
,
0100
0000
0000
0000
,
0001
0000
1000
0000
,
0010
0000
0000
0001
,
0001
0000
0000
1000
,
0000
0000
0000
0100
,
0100
0000
0000
0010
,
0010
0000
0100
0100
,
0100
0000
0001
0001
,
0002
0000
0003
0000
,
0020
0000
0000
0030
,
0000
0000
0000
0100
,
0100
0000
0000
0001
,
0001
0000
0000
1000
,
1000
0000
0000
0010
,
0010
0000
0000
0000
,
0100
0000
0000
0000
,
0100
0000
0000
0000
,
0001
0000
1000
0000
,
0010
0000
0000
1000
,
1000
0000
0000
0001
,
0001
0000
0000
0010
,
0010
0000
0000
0100
,
0100
0000
0000
0000
,
2000
0000
3000
0000
,
0001
0000
0000
0000
,
0100
0000
0100
0000
,
0002
0000
0000
0003
,
0000
0000
0000
0000
,
1000
0000
0000
0000
,
1000
0000
0000
0000
,
2000
0000
0000
0000
,
0000
0000
0000
3000
;

//---------------dance-single - ----------------
#NOTES:
     dance-single:
     :
     Easy:
     4:
     0.194203,0.278682,0.085450,0.077681,0.000000,175.000000,164.000000,11.000000,10.000000,0.000000,0.000000,0.194203,0.278682,0.085450,0.077681,0.000000,175.000000,164.000000,11.000000,10.000000,0.000000,0.000000:
0000
0000
0000
0000
,
0000
0000
0000
0000
,
0000
0000
0000
0000
,
0000
0000
0000
0000
,
0000
0000
0000
0000
,
0010
0000
0100
0000
,
0010
0000
0010
0000
,
1000
0000
0001
0000
,
1000
0000
1000
0000
,
0010
0000
1001
0000
,
0100
0000
0110
0000
,
0010
0001
0100
0000
,
1000
1000
0001
0000
,
0001
0001
0010
0000
,
0010
0010
0100
0000
,
1000
0100
0010
0001
,
0200
0000
0300
0000
,
0010
0001
1000
0100
,
0002
0000
0003
0000
,
0001
0010
0100
1000
,
0020
0000
0030
0000
,
0100
1000
0001
0010
,
2000
0000
3000
0000
,
0100
0100
0010
0100
,
0001
0010
0000
0100
,
1001
0010
0010
1000
,
0100
0010
0100
0010
,
0000
0010
0010
1000
,
0010
0100
0000
0000
,
0000
0001
0000
0000
0001
0000
0000
0001
,
0000
0000
0000
1000
,
0100
0010
0000
0000
,
0001
0100
0010
0000
,
0100
0000
1000
0000
,
0010
0000
0000
0110
,
1000
0001
0000
0100
,
0001
0010
0000
0001
,
1000
0010
0000
0100
,
0010
1000
0000
0000
,
0100
0000
0100
0100
,
1001
0000
0000
0000
,
0100
0000
0001
0000
,
0010
0000
0000
0110
,
0001
1000
0000
1000
,
0001
0010
0000
0100
,
0100
0001
0000
1000
,
0010
0001
0000
1000
,
0100
0010
0001
0100
,
0010
0000
0100
0000
,
2002
0000
0000
3003
,
0000
0000
0000
0110
,
1000
0001
0000
0100
,
0001
0010
0000
0001
,
1000
0010
0000
0100
,
0010
1000
0000
0000
,
0100
0000
0100
0100
,
1001
0000
0000
0000
,
0100
0000
0001
0000
,
0010
0000
0000
0110
,
0001
1000
0000
1000
,
0001
0010
0000
0100
,
0100
0001
0000
1000
,
0010
0001
0000
0220
,
0000
0330
0000
1000
,
0001
0010
0000
0100
,
0100
0001
0000
1000
,
0020
0000
0000
0030
,
0000
0000
0000
0000
,
1000
0100
0001
0100
,
1000
0010
0001
0010
,
2000
0000
0000
0000
,
0000
0000
0000
3000
;

//---------------dance-single - ----------------
#NOTES:
     dance-single:
     :
     Medium:
     9:
     0.357334,0.390155,0.450552,0.132058,0.038841,322.000000,264.000000,58.000000,17.000000,0.000000,0.000000,0.357334,0.390155,0.450552,0.132058,0.038841,322.000000,264.000000,58.000000,17.000000,0.000000,0.000000:
0000
0000
0000
0000
,
0000
0000
0000
0000
,
0000
0000
0000
0000
,
0000
0000
0000
0000
,
0000
0000
0000
0000
,
0001
1001
0010
0110
,
1000
1100
0010
0011
,
0100
0101
0010
1010
,
1000
0110
0001
1001
,
0010
1100
0010
0101
,
1000
1001
0100
0110
,
0010
1001
0100
1100
,
0000
0000
0001
0000
1000
0000
0001
0000
0000
0110
0000
0000
,
1000
0000
0100
0000
0010
0000
0001
0000
0000
1100
0000
0000
,
0010
0000
1000
0000
0001
0000
0100
0000
0000
0110
0000
0000
,
1000
0001
1000
0000
0001
1000
0001
0000
,
0010
0010
0010
0010
,
0100
0001
1000
0000
1000
0000
0100
0000
,
0001
1000
0010
0000
0000
0000
0000
0000
,
0010
0100
0010
0000
0100
0010
0100
0000
,
1000
1000
1000
1000
,
0001
0100
0010
0000
1000
0000
0010
0000
,
0100
0010
0001
0000
0200
0000
0300
0000
,
0100
0001
0010
0000
1000
0000
0001
0000
,
0001
0000
0010
0000
0000
0000
0100
1000
,
0001
0010
0100
1000
,
1000
0100
0001
0000
1000
0100
0001
0000
,
0110
0000
0010
0001
,
1100
0000
0001
0010
0010
0000
0000
0000
,
0000
1001
0000
0000
0010
0000
0000
0110
,
0000
1000
1000
1000
1000
0000
0001
0000
,
0100
1000
0010
0000
0100
0000
0100
0000
,
0001
1000
0100
0000
0010
0000
0010
0000
,
0200
0000
0000
1000
0000
0010
0000
0310
,
0000
0000
1010
0000
0100
0000
0010
1000
,
0010
0100
0000
1001
0000
0010
0000
1001
,
0000
0100
0000
1001
0000
0010
0000
0110
,
0000
1000
0000
0110
0000
0001
0000
0220
,
0000
0000
0000
0330
0000
0000
0100
1000
,
0001
0000
0100
0000
0010
0000
0100
0100
,
1000
0100
1001
0000
,
0100
1000
0010
0000
0001
0000
1000
0000
,
0010
0000
0000
0000
0110
0000
0010
0001
,
0010
0100
0000
0011
0000
1000
0000
1100
,
0000
0010
0000
0101
0000
0100
0000
1010
,
0000
0100
0000
1001
0000
0010
0000
0220
,
0000
0000
0330
0001
,
0100
1000
0010
0000
0100
0000
0100
0000
,
0001
0000
1000
0000
0001
0000
0010
0000
0100
0000
0010
0000
,
0200
0000
0000
1000
0000
0010
0000
0310
,
0000
0000
1010
0000
0100
0000
0010
1000
,
0010
0100
0000
1001
0000
0010
0000
1001
,
0000
0100
0000
1001
0000
0010
0000
0110
,
0000
1000
0000
0110
0000
0001
0000
0220
,
0000
0000
0000
0330
0000
0000
0100
1000
,
0001
0000
0100
0000
0010
0000
0100
0100
,
1000
0100
1001
0000
,
0100
1000
0010
0000
0001
0000
1000
0000
,
0010
0000
0000
0000
0110
0000
0010
0001
,
0010
0100
0000
0011
0000
1000
0000
1100
,
0000
0010
0000
0101
0000
0100
0000
1010
,
0000
0100
0000
1001
0000
0010
0000
0220
,
0000
0330
0000
2002
,
0000
0000
3003
0000
0001
1000
0000
1100
,
0000
0010
0000
0101
0000
0100
0000
1010
,
0000
0100
0000
1001
0000
0010
0000
0220
,
0000
0000
0000
0000
,
0000
0000
0000
0330
,
1000
0001
0100
0000
0010
0000
0010
0000
,
0001
1000
0010
0000
0100
0000
0100
0000
,
2002
0000
0000
0000
,
0000
0000
0000
3003
;
