#VERSION:0.83;
#TITLE:Beethoven Virus Remix;
#SUBTITLE:;
#ARTIST:BANYA;
#TITLETRANSLIT:;
#SUBTITLETRANSLIT:;
#ARTISTTRANSLIT:;
#GENRE:;
#ORIGIN:;
#CREDIT:;
#BANNER:Beethoven Virus Remix.png;
#BACKGROUND:Beethoven Virus Remix-bg.png;
#PREVIEWVID:;
#JACKET:Beethoven Virus Remix-jacket.png;
#CDIMAGE:;
#DISCIMAGE:;
#LYRICSPATH:;
#CDTITLE:cdtitle.png;
#MUSIC:Beethoven Virus Remix.ogg;
#OFFSET:2.759000;
#SAMPLESTART:20.082001;
#SAMPLELENGTH:15.000000;
#SELECTABLE:YES;
#DISPLAYBPM:168.000000;
#BPMS:0.000=168.260;
#STOPS:;
#DELAYS:;
#WARPS:;
#TIMESIGNATURES:0.000=4=4;
#TICKCOUNTS:0.000=4;
#COMBOS:0.000=1;
#SPEEDS:0.000=1.000=0.000=0;
#SCROLLS:0.000=1.000;
#FAKES:;
#LABELS:0.000=Song Start;
#BGCHANGES:;
#KEYSOUNDS:;
#ATTACKS:
;

//---------------dance-single - ----------------
#NOTEDATA:;
#CHARTNAME:;
#STEPSTYPE:dance-single;
#DESCRIPTION:;
#CHARTSTYLE:;
#DIFFICULTY:Easy;
#METER:6;
#RADARVALUES:0.346666,0.417611,0.554934,0.075245,0.000000,258.000000,199.000000,59.000000,8.000000,0.000000,0.000000,0.000000,0.000000,0.000000,0.346666,0.417611,0.554934,0.075245,0.000000,258.000000,199.000000,59.000000,8.000000,0.000000,0.000000,0.000000,0.000000,0.000000;
#CREDIT:kater15;
#DISPLAYBPM:168.000000;
#NOTES:
0000
0000
0000
0000
,
0000
0000
0000
0000
,
0000
0000
0000
0000
,
1000
0100
0010
0001
,
0100
0000
0001
0000
,
0001
1000
0001
1000
,
0010
0000
0000
0000
,
0100
0000
0000
0000
,
0010
0000
0100
0000
,
0001
0000
0000
0000
,
1001
1001
1001
1001
,
1001
0000
0000
1000
,
0002
0000
1003
1000
,
0002
0000
1003
0100
,
0010
0000
0001
0000
,
0100
0000
0000
0000
,
0110
0110
1001
0110
,
1001
0000
0000
0000
,
1001
1001
0110
1001
,
0110
0000
0000
0000
,
0110
0110
1001
0110
,
1001
0000
0000
0000
,
1001
1001
0110
1001
,
0110
0000
1000
0000
,
0100
0010
0001
0100
,
0010
0000
0100
0010
,
0001
0001
1000
0001
,
0100
0000
0010
0000
,
0100
0010
0001
0100
,
1000
0000
0110
0000
,
0010
0100
0001
1000
,
0100
0100
0001
0001
,
0010
0001
0010
0001
,
0200
0000
0300
0000
0010
0000
0010
0001
,
1000
0100
0010
1000
,
0001
0010
0010
0100
,
1000
0000
0001
0000
,
0100
0000
0010
0000
,
1000
0000
0001
0000
,
0010
0001
0100
0010
,
0002
0000
0103
0010
,
1000
1000
0001
0001
,
0200
0000
0310
1000
,
0100
0100
0010
0010
,
2000
0000
3010
0100
,
0001
0001
0010
0010
,
0200
0000
1300
0001
,
0100
0100
1000
1000
,
0001
0000
0000
0000
,
0110
1001
0110
0110
,
1001
0000
0000
0000
,
1001
0110
1001
1001
,
0110
0000
0000
0000
,
0110
1001
0110
0110
,
1001
0000
0000
0000
,
1001
0110
1001
1001
,
0110
0000
0000
0000
,
0101
0000
0000
0000
,
1100
0000
0000
0000
,
1010
0000
0000
0000
,
0110
0000
0000
0000
,
0011
0000
0000
0000
,
1010
0000
0000
0000
,
1001
0010
0110
0000
,
1000
0100
0100
0010
,
1000
0010
0001
0100
,
0010
0010
1000
0010
,
0100
0100
0001
0010
,
0001
0100
0010
0010
,
0010
0000
2000
0000
3000
0000
0010
0100
,
1000
0100
0100
0001
,
0010
0010
0100
0001
,
0110
0000
1001
0000
,
0110
0000
1001
0000
,
0110
0000
0000
0000
;

//---------------dance-single - ----------------
#NOTEDATA:;
#CHARTNAME:;
#STEPSTYPE:dance-single;
#DESCRIPTION:;
#CHARTSTYLE:;
#DIFFICULTY:Beginner;
#METER:5;
#RADARVALUES:0.212299,0.348009,0.169302,0.047028,0.000000,158.000000,140.000000,18.000000,5.000000,0.000000,0.000000,0.000000,0.000000,0.000000,0.212299,0.348009,0.169302,0.047028,0.000000,158.000000,140.000000,18.000000,5.000000,0.000000,0.000000,0.000000,0.000000,0.000000;
#CREDIT:kater15;
#DISPLAYBPM:168.000000;
#NOTES:
0000
0000
0000
0000
,
0000
0000
0000
0000
,
0000
0000
0000
0000
,
0100
0000
0100
0000
,
0001
0000
0000
0000
,
0010
0000
0010
0000
,
0100
0000
0000
0000
,
1001
0000
0000
0000
,
0010
0000
0001
0000
,
0010
0000
0000
0000
,
0100
0000
0100
0000
,
1000
0000
0000
0001
,
0001
0000
0000
1000
,
1000
0000
0000
0000
,
0100
0000
1000
0000
,
0100
0000
0000
0000
,
0010
0010
0010
0010
,
0000
0000
0000
0000
,
0001
0001
0001
0001
,
0000
0000
0000
0000
,
0100
0100
0100
0100
,
0000
0000
0000
0000
,
1000
1000
1000
1000
,
0000
0000
0010
0000
,
0100
0000
0100
0000
,
0001
0000
0000
0000
,
1000
0000
0010
0000
,
0100
0000
0000
0000
,
0001
0000
1000
0000
,
0010
0000
0000
0000
,
0100
0100
0100
0000
,
0001
0000
1000
0000
,
0001
0000
0010
0000
,
0200
0000
0300
0000
,
0001
0000
1000
0000
,
0010
0010
0010
0010
,
0020
0000
0030
0000
,
0002
0000
0003
0000
,
0200
0000
0300
0000
,
2000
0000
3000
0000
,
0010
0000
0100
0000
,
0001
0001
0001
0000
,
1000
0000
0001
0000
,
0010
0010
0010
0000
,
0100
0000
0001
0000
,
1000
1000
1000
0000
,
0010
0000
0001
0000
,
0100
0100
0100
0000
,
0010
0000
0000
0000
,
1001
1001
1001
1001
,
0000
0000
0000
0000
,
0110
0110
0110
0110
,
0000
0000
0000
0000
,
1001
1001
1001
1001
,
0000
0000
0000
0000
,
0110
0110
0110
0110
,
0000
0000
1000
0000
,
0001
0000
1000
0000
,
0001
0000
1000
0000
,
0001
0000
1000
0000
,
0010
0000
0100
0000
,
0010
0000
0100
0000
,
0010
0000
0100
0000
,
0010
0010
0010
0000
,
0100
0000
0001
0000
,
0010
0010
0000
0001
,
0001
0000
0100
0000
,
0010
0010
0000
0100
,
0100
0000
1000
0000
,
0001
0000
0000
1000
,
1000
0000
0001
0000
,
0010
0000
0100
0000
,
1000
0000
0100
0000
,
0010
0000
0001
0000
,
0110
0000
0000
0000
;

//---------------dance-single - ----------------
#NOTEDATA:;
#CHARTNAME:;
#STEPSTYPE:dance-single;
#DESCRIPTION:;
#CHARTSTYLE:;
#DIFFICULTY:Medium;
#METER:10;
#RADARVALUES:0.411162,0.487213,0.592556,0.216330,0.000000,306.000000,243.000000,63.000000,23.000000,0.000000,0.000000,0.000000,0.000000,0.000000,0.411162,0.487213,0.592556,0.216330,0.000000,306.000000,243.000000,63.000000,23.000000,0.000000,0.000000,0.000000,0.000000,0.000000;
#CREDIT:kater15;
#DISPLAYBPM:168.000000;
#NOTES:
0000
0000
0000
0000
,
0000
0000
0000
0000
,
0000
0000
0000
0000
,
1000
0001
1000
0001
,
0020
0000
0000
0030
,
1100
1100
0011
1100
,
2002
0000
0000
3003
,
0220
0000
0000
0330
,
1000
0000
0000
0010
0001
0000
0000
0010
,
1000
0000
0000
0000
0000
0100
0010
0000
,
0001
0010
0100
1000
,
1001
0000
0000
0000
0000
0000
0010
0001
,
0200
0000
0000
0000
0301
0000
0010
0001
,
0200
0000
0000
0000
0301
0000
0010
0001
,
0100
0000
0000
0010
1000
0000
0000
0010
,
0002
0000
0000
0003
,
0011
0101
1100
1010
,
1001
0000
0000
0000
,
0011
1010
1100
0101
,
1001
0000
0000
0000
,
0011
1100
1010
0101
,
0110
0000
0000
0000
,
0101
1010
1100
0011
,
0110
0000
0000
0001
1000
0000
0100
0000
,
0010
0100
0100
0001
,
1001
0000
0000
0010
0100
0000
0001
0000
,
1000
0001
1000
0000
0001
1000
0001
0000
,
1100
0000
0000
0010
1000
0000
0100
0000
,
0010
0100
0001
0001
,
1010
0000
0000
0100
1000
0000
0010
0000
,
0100
0001
0010
0100
,
1000
0001
1000
0000
0010
1000
0010
0000
,
0100
0010
0100
0000
0001
0100
0001
0000
,
0020
0030
0100
0001
,
0011
1100
0011
0100
,
0010
0001
0100
0010
,
1000
0000
0000
0000
0001
0010
0100
0000
,
0010
0000
0000
0000
1000
0100
0010
0000
,
0100
0000
0000
0000
0100
1000
0001
0000
,
0010
0000
0000
0000
1000
0100
0010
0001
,
0200
0000
0000
0001
0301
0000
0010
0000
,
0100
0010
0001
0100
,
0020
0000
0000
1000
1030
0000
0100
0000
,
1010
0001
0101
0010
,
2000
0000
0000
0100
3100
0000
0010
0000
,
1000
0100
0010
0100
,
0002
0000
0000
0010
0013
0000
0100
0000
,
0011
0001
0101
0100
,
0110
0000
0000
0000
,
1100
1001
0011
0110
,
1010
0000
0000
0000
,
1100
0110
0011
1001
,
0101
0000
0000
0000
,
1010
1001
0101
0011
,
0110
0000
0000
0000
,
0110
0011
1001
1010
,
2100
0000
0000
0010
,
3002
0000
0000
0100
,
0023
0000
0000
0001
,
0230
0000
0000
0001
,
2300
0000
0000
0100
,
3020
0000
0000
1000
,
0230
0000
0000
0010
,
0301
0011
1010
0000
,
1000
0000
0100
0000
0010
0000
0100
0010
,
0001
2100
0000
3010
,
0001
1000
0100
0000
0010
0000
0010
0000
,
0001
1002
0000
0103
,
0010
0000
1000
0100
0100
0000
0010
0000
,
0200
0000
0000
0000
0000
0000
0310
1000
,
0001
0000
1000
0010
0010
0000
0100
0010
,
0010
0000
1000
0000
0010
0000
0100
0001
,
1000
0000
0100
1000
0001
0000
0000
0000
,
1000
0000
0010
0010
,
1001
0000
0000
0000
;

//---------------dance-single - ----------------
#NOTEDATA:;
#CHARTNAME:;
#STEPSTYPE:dance-single;
#DESCRIPTION:;
#CHARTSTYLE:;
#DIFFICULTY:Hard;
#METER:12;
#RADARVALUES:0.565683,0.591616,0.244547,0.385632,0.037623,421.000000,395.000000,26.000000,41.000000,0.000000,0.000000,0.000000,0.000000,0.000000,0.565683,0.591616,0.244547,0.385632,0.037623,421.000000,395.000000,26.000000,41.000000,0.000000,0.000000,0.000000,0.000000,0.000000;
#CREDIT:kater15;
#DISPLAYBPM:168.000000;
#NOTES:
// measure 0
0000
0000
0000
0000
,  // measure 1
0000
0000
0000
0000
,  // measure 2
0000
0000
0000
0000
,  // measure 3
1000
0100
0010
0001
,  // measure 4
0100
0000
0000
0010
0001
0000
0000
0010
1000
0000
0000
0010
0001
0000
0000
0010
,  // measure 5
0100
1000
0100
0001
,  // measure 6
1000
0100
1000
0010
1000
0100
1000
0000
,  // measure 7
0010
0001
0010
0100
0010
0001
0010
0000
,  // measure 8
1001
0000
0100
0010
0001
0000
0010
0100
,  // measure 9
1000
0000
0000
0000
0000
0010
0010
0000
,  // measure 10
1100
1010
1001
0101
,  // measure 11
0022
0000
0000
0000
0033
0000
1000
0100
,  // measure 12
0020
0000
0000
0000
1030
0000
1000
0100
,  // measure 13
0020
0000
0000
0000
1030
0000
1000
0100
,  // measure 14
0010
0000
0100
0010
0001
0000
0010
0100
,  // measure 15
1000
0000
1001
0000
0010
0100
0010
0001
,  // measure 16
0100
1000
0100
0001
0100
1000
0100
0010
,  // measure 17
0002
0000
0000
0003
,  // measure 18
0010
0001
0010
1000
0010
0001
0010
0100
,  // measure 19
2000
0000
0000
3000
,  // measure 20
0001
0100
0001
0010
0001
0100
0001
1000
,  // measure 21
0020
0000
0000
0030
,  // measure 22
1000
0010
1000
0100
1000
0010
1000
0001
,  // measure 23
0200
0000
0310
0001
0100
0000
1010
0000
,  // measure 24
0100
1000
0010
0100
0100
0001
0010
0010
,  // measure 25
0002
0000
1003
1000
0100
0000
0011
0000
,  // measure 26
0100
0001
0010
0001
1000
1000
0100
0001
,  // measure 27
0020
0000
0130
0100
0001
0000
1100
0000
,  // measure 28
0010
0010
0001
0010
0100
0001
1000
0100
,  // measure 29
2000
0000
3001
0100
0010
0000
0011
0000
,  // measure 30
1000
0100
0010
0100
0010
0001
0100
0010
,  // measure 31
1000
0100
1000
0010
1000
0100
1000
0010
,  // measure 32
0100
0001
0100
1000
0100
0010
0100
0001
,  // measure 33
0020
0000
0130
0000
1000
0100
0100
0010
,  // measure 34
0010
1000
1000
0001
0001
0010
0010
0100
,  // measure 35
0100
0001
0010
0100
1000
0010
0100
0001
,  // measure 36
0020
0000
0000
0000
1030
0100
0010
0010
,  // measure 37
0200
0000
0000
0000
0301
0001
1000
0010
,  // measure 38
0002
0000
0000
0000
0013
0001
0100
0010
,  // measure 39
2000
0000
0000
0000
3100
0010
0100
0001
,  // measure 40
0020
0000
0000
0000
0000
0000
1030
0001
1000
0000
0100
0000
0010
0000
0000
0000
,  // measure 41
0100
0010
0100
0001
0010
0010
0100
1000
,  // measure 42
2000
0000
0000
0000
0000
0000
3100
0010
0100
0000
0001
0000
1000
0000
0000
0000
,  // measure 43
0001
1000
0001
0010
1000
1000
0001
0100
,  // measure 44
0200
0000
0000
0000
0000
0000
0301
1000
0001
0000
0010
0000
0100
0000
0000
0000
,  // measure 45
0010
0100
0010
1000
0100
0100
0010
0001
,  // measure 46
0002
0000
0000
0000
0000
0000
0013
0100
0010
0000
1000
0000
0001
0000
0000
0000
,  // measure 47
1000
0001
1000
0100
0001
0001
1000
0010
,  // measure 48
0200
0000
0000
0000
,  // measure 49
0310
0001
0010
0100
0010
0001
0010
1000
,  // measure 50
0002
0000
0000
0000
,  // measure 51
1003
0010
1000
0001
1000
0010
1000
0100
,  // measure 52
0020
0000
0000
0000
,  // measure 53
0130
0001
0100
0010
0100
0001
0100
0010
,  // measure 54
2000
0000
0000
0000
,  // measure 55
3001
0010
0100
0010
0100
1000
0001
0010
,  // measure 56
0200
0000
1000
1000
1300
0000
1100
0000
,  // measure 57
0020
0000
0001
0001
0031
0000
0011
0000
,  // measure 58
0200
0000
0010
0010
0310
0000
0110
0000
,  // measure 59
2000
0000
0001
0001
3001
0000
1001
0000
,  // measure 60
0002
0000
0100
0100
0103
0000
0101
0000
,  // measure 61
0020
0000
1000
1000
1030
0000
1010
0000
,  // measure 62
0002
0000
1000
1000
1003
0000
1001
0000
,  // measure 63
0110
1100
1001
0000
,  // measure 64
1100
0010
0001
0100
0010
0010
0001
0100
,  // measure 65
0020
2000
3030
0011
,  // measure 66
0010
1000
0100
0010
0010
0100
1000
0001
,  // measure 67
0002
2000
3003
1100
,  // measure 68
0101
0000
0001
0010
1000
0000
0100
0010
,  // measure 69
0002
0000
0000
0000
0003
0000
1000
0100
,  // measure 70
0010
0010
0001
0100
1000
1000
0010
0100
,  // measure 71
0002
0000
0200
0000
0303
0000
0010
0001
,  // measure 72
0200
0000
0310
1000
0002
0000
0103
0010
,  // measure 73
2000
0000
3000
0000
0001
1000
0001
0000
,  // measure 74
0110
0000
0000
0000
;

//---------------dance-single - ----------------
#NOTEDATA:;
#CHARTNAME:;
#STEPSTYPE:dance-single;
#DESCRIPTION:;
#CHARTSTYLE:;
#DIFFICULTY:Challenge;
#METER:15;
#RADARVALUES:0.866664,1.009227,0.536122,0.197519,0.498500,645.000000,588.000000,57.000000,21.000000,0.000000,0.000000,0.000000,0.000000,0.000000,0.866664,1.009227,0.536122,0.197519,0.498500,645.000000,588.000000,57.000000,21.000000,0.000000,0.000000,0.000000,0.000000,0.000000;
#CREDIT:kater15;
#DISPLAYBPM:168.000000;
#NOTES:
// measure 0
0000
0000
0000
0000
,  // measure 1
0000
0000
0000
0000
,  // measure 2
0000
0000
0000
0000
,  // measure 3
1100
0011
1100
0011
,  // measure 4
0010
0000
0000
0010
1000
0000
0000
1000
0100
0000
0000
0100
0001
0000
0000
0001
,  // measure 5
0010
0000
1001
0000
0100
0010
0001
1000
,  // measure 6
0010
0001
0010
1000
0010
0001
0010
1000
,  // measure 7
0100
0001
0100
1000
0100
0001
0100
1000
,  // measure 8
0010
0000
1001
0010
0100
0000
1001
0010
,  // measure 9
0100
0000
0000
0000
0001
0000
0000
0000
1000
0000
0100
0000
0010
0100
0010
0100
,  // measure 10
0010
0000
0000
0100
0010
0000
0000
0100
0010
0000
0000
0100
0010
0000
0000
0000
,  // measure 11
2002
0000
0000
0000
3003
0000
1000
0100
,  // measure 12
0001
0100
0001
0100
0001
0100
0001
0100
0001
0000
0000
0000
0010
0000
1000
0000
,  // measure 13
0100
1000
0100
1000
0100
1000
0100
1000
0100
0000
0000
0000
0010
0000
0001
0000
,  // measure 14
0100
0000
0110
0001
1000
0000
0110
0001
,  // measure 15
1000
0000
0000
0000
0100
0000
0000
0000
0010
0000
0100
0000
0001
1000
0001
0000
,  // measure 16
1100
0001
0101
0001
1010
0100
0011
0100
,  // measure 17
0010
0000
1000
0001
1000
0001
1000
0001
1000
0000
0001
0000
1000
0000
0001
0000
,  // measure 18
0101
0010
0011
0010
1100
0001
1010
0001
,  // measure 19
1000
0000
0100
0010
0100
0010
0100
0010
0100
0000
0010
0000
0100
0000
0010
0000
,  // measure 20
0011
1000
1010
1000
0101
0010
1100
0010
,  // measure 21
0100
0000
0001
1000
0001
1000
0001
1000
0001
0000
1000
0000
0001
0000
1000
0000
,  // measure 22
1010
0100
1100
0100
0011
1000
0101
1000
,  // measure 23
0200
0000
0301
0010
0100
0000
1001
0000
,  // measure 24
0100
0000
0001
0000
0010
0000
0100
0000
1000
0000
0001
0000
0100
0000
1000
0001
,  // measure 25
2000
0000
0000
0000
3001
0000
1000
0010
1000
0000
0000
0000
0011
0000
0000
0000
,  // measure 26
1000
0000
1000
0000
0100
0000
0001
0000
0010
0000
0010
0000
0100
0000
0001
1000
,  // measure 27
0002
0000
0000
0000
0103
0000
1000
0010
1000
0000
0000
0000
0110
0000
0000
0000
,  // measure 28
0001
0000
0010
0000
1000
0000
0010
0000
0100
0000
0001
0000
0010
0000
0100
1000
,  // measure 29
0200
0000
0000
0000
0301
0000
1000
0100
1000
0000
0000
0000
1010
0000
0000
0000
,  // measure 30
0010
0010
0001
0100
0010
1000
0100
0010
,  // measure 31
0001
1000
0001
1000
0001
0000
0100
0000
0010
0001
0010
0001
0010
0000
1000
0000
,  // measure 32
0100
0001
0100
0001
0100
0000
0010
0000
0001
0100
0001
0100
0001
0000
1000
0000
,  // measure 33
0010
0000
0100
0010
0100
0000
0000
1000
0001
0000
0000
0100
0010
0000
0000
1000
,  // measure 34
0100
0000
0000
0001
1000
0000
0000
1000
0100
0000
0000
0100
1000
0000
0000
0010
,  // measure 35
0100
0000
0000
0100
0001
0000
0000
0010
0001
0000
0000
0100
1000
0000
0000
0000
,  // measure 36
1000
0010
1000
0001
1000
0010
1000
0001
1000
0010
1000
0001
1000
0000
0100
0000
,  // measure 37
0001
1000
0001
0100
0001
1000
0001
0100
0001
1000
0001
0100
0001
0000
1000
0000
,  // measure 38
0010
0001
0010
0100
0010
0001
0010
0100
0010
0001
0010
0100
0010
0000
0001
0000
,  // measure 39
0100
0001
0100
1000
0100
0001
0100
1000
0100
0001
0100
1000
0100
0000
0010
0000
,  // measure 40
0002
0000
0000
0000
1003
0000
0100
0001
0010
0000
0100
0000
0001
0000
1000
0000
,  // measure 41
0010
0100
0010
0000
1000
0000
0100
0000
0010
0000
0100
0000
0010
0000
0001
0000
,  // measure 42
2000
0000
0000
0000
3001
0000
0010
1000
0100
0000
0010
0000
1000
0000
0001
0000
,  // measure 43
0100
0010
0100
0000
0001
0000
0010
0000
0100
0000
0010
0000
0100
0000
1000
0000
,  // measure 44
0020
0000
0000
0000
0130
0000
0001
0010
1000
0000
0001
0000
0010
0000
0100
0000
,  // measure 45
1000
0001
1000
0000
0100
0000
0001
0000
1000
0000
0001
0000
1000
0000
0010
0000
,  // measure 46
0200
0000
0000
0000
0310
0000
1000
0100
0001
0000
1000
0000
0100
0000
0010
0000
,  // measure 47
0001
0100
0001
0100
0001
0100
0001
0100
0010
0100
0010
0100
0010
0100
0010
0000
,  // measure 48
1000
0000
0100
0001
0100
0001
0100
0001
0100
0000
0010
0000
0100
0000
0010
0000
,  // measure 49
0011
1000
1010
1000
0101
0010
1100
0010
,  // measure 50
0100
0000
0001
1000
0001
1000
0001
1000
0001
0000
1000
0000
0001
0000
1000
0000
,  // measure 51
1010
0100
1100
0100
0011
1000
0101
1000
,  // measure 52
0001
0000
0010
1000
0010
1000
0010
1000
0010
0000
0100
0000
0010
0000
0100
0000
,  // measure 53
1100
0001
0101
0001
1010
0100
0011
0100
,  // measure 54
0010
0000
1000
0001
1000
0001
1000
0001
1000
0000
0001
0000
1000
0000
0001
0000
,  // measure 55
0101
0010
0011
0010
1100
0001
1010
0001
,  // measure 56
0200
0000
1000
0010
1300
0000
1100
0000
,  // measure 57
0020
0000
0001
1000
0031
0000
0011
0000
,  // measure 58
0200
0000
0010
0001
0310
0000
0110
0000
,  // measure 59
2000
0000
0001
0100
3001
0000
1001
0000
,  // measure 60
0002
0000
0100
0010
0103
0000
0101
0000
,  // measure 61
0020
0000
1000
0100
1030
0000
1010
0000
,  // measure 62
0002
0000
1000
0010
1003
0000
1001
0000
,  // measure 63
0110
1000
0100
0010
1001
0000
0000
0000
,  // measure 64
1000
0100
0001
0100
1000
0100
0001
0100
,  // measure 65
0010
0001
2000
0000
0100
0100
3100
0000
,  // measure 66
0010
0001
0010
0100
0010
0001
0010
0100
,  // measure 67
1000
0001
0020
0000
1000
1000
1030
0000
,  // measure 68
0100
0001
0010
0001
0100
0001
0010
0001
,  // measure 69
1000
0010
0200
0000
0001
0001
0301
0000
,  // measure 70
1000
0010
1000
0001
1000
0010
1000
0001
,  // measure 71
0100
0010
2000
0000
0100
0100
3100
0010
,  // measure 72
0001
0100
1001
0100
0001
1000
0110
1000
,  // measure 73
0001
0000
0010
0000
0100
0000
1000
0000
0001
1000
0001
1000
0001
1000
0001
1000
,  // measure 74
0001
0000
0000
0000
;
