#VERSION:0.83;
#TITLE:Bam Bam;
#SUBTITLE:;
#ARTIST:Mohamed Radaman;
#TITLETRANSLIT:;
#SUBTITLETRANSLIT:;
#ARTISTTRANSLIT:;
#GENRE:;
#ORIGIN:;
#CREDIT:;
#BANNER:Bam Bam.png;
#BACKGROUND:Bm Bam-bg.png;
#PREVIEWVID:;
#JACKET:Bam Bam-jacket.png;
#CDIMAGE:;
#DISCIMAGE:;
#LYRICSPATH:;
#CDTITLE:cdtitle.png;
#MUSIC:Bam Bam.ogg;
#OFFSET:-0.147000;
#SAMPLESTART:22.646999;
#SAMPLELENGTH:15.000000;
#SELECTABLE:YES;
#DISPLAYBPM:160.000000;
#BPMS:0.000=160.000;
#STOPS:;
#DELAYS:;
#WARPS:;
#TIMESIGNATURES:0.000=4=4;
#TICKCOUNTS:0.000=4;
#COMBOS:0.000=1;
#SPEEDS:0.000=1.000=0.000=0;
#SCROLLS:0.000=1.000;
#FAKES:;
#LABELS:0.000=Song Start;
#BGCHANGES:;
#KEYSOUNDS:;
#ATTACKS:
;

//---------------dance-single - ----------------
#NOTEDATA:;
#CHARTNAME:;
#STEPSTYPE:dance-single;
#DESCRIPTION:;
#CHARTSTYLE:;
#DIFFICULTY:Easy;
#METER:4;
#RADARVALUES:0.254155,0.287080,0.107823,0.062897,0.000000,198.000000,186.000000,12.000000,7.000000,0.000000,0.000000,0.000000,0.000000,0.000000,0.254155,0.287080,0.107823,0.062897,0.000000,198.000000,186.000000,12.000000,7.000000,0.000000,0.000000,0.000000,0.000000,0.000000;
#CREDIT:kater15;
#DISPLAYBPM:160.000000;
#NOTES:
0000
0000
0000
0000
,
0000
0000
0000
0000
,
0000
0000
0000
0000
,
0000
0000
0000
0000
,
0000
0000
0000
0000
,
0000
0000
0000
0000
,
1000
0100
0000
0100
,
0001
0010
0000
0000
,
1000
0000
0100
0000
,
0100
0000
0000
0000
,
1000
0000
0010
0000
,
0100
0000
0001
0000
,
1000
0100
0001
0000
,
0010
0000
0000
0000
,
0100
0000
0010
0000
,
1000
1000
1000
1000
,
1000
1000
1000
1000
,
1000
0100
0010
0001
,
0100
0000
0000
0000
,
1000
1000
1000
1000
,
1000
1000
1000
1000
,
1000
0100
0010
0001
,
0100
0000
0000
0000
,
1001
0100
0100
0000
,
0100
0100
0100
0000
,
1001
0100
0100
0000
,
0100
0100
0100
0000
,
1001
0010
0010
0000
,
0010
0010
0010
0000
,
1001
0010
0010
0000
,
0010
0010
0010
0000
,
2000
0000
3200
0000
,
0320
0000
0031
0010
,
0100
0000
1000
0000
,
0001
0000
1000
0001
,
0100
0000
0010
0000
,
1000
0000
0100
0100
,
0020
0000
0032
0000
,
2003
0000
3010
0100
,
1000
1000
1000
1000
,
1000
1000
1000
1000
,
1000
0100
0010
0001
,
0100
0000
0000
0000
,
1000
1000
1000
1000
,
1000
1000
1000
1000
,
1000
0100
0010
0001
,
0100
0000
0000
0000
,
0200
0000
0000
0000
,
0301
0010
0010
0100
,
0010
0000
1000
0000
,
0100
0000
0100
0000
,
0001
1000
0100
0110
,
0100
0000
1000
0001
,
0010
0000
0110
0000
,
0110
0000
0010
0001
,
1000
1000
1000
1000
,
1000
1000
1000
1000
,
1000
0100
0010
0001
,
0100
0000
0000
0000
,
1000
1000
1000
1000
,
1000
1000
1000
1000
,
1000
0100
0010
0001
,
0100
0000
0000
0000
,
1001
0100
0100
0000
,
0100
0100
0100
0000
,
1001
0100
0100
0000
,
0100
0100
0100
0000
,
1001
0010
0010
0000
,
0010
0010
0010
0000
,
1001
0010
0010
0000
,
0010
0010
0010
0000
,
1001
0000
0000
0000
;

//---------------dance-single - ----------------
#NOTEDATA:;
#CHARTNAME:;
#STEPSTYPE:dance-single;
#DESCRIPTION:;
#CHARTSTYLE:;
#DIFFICULTY:Beginner;
#METER:3;
#RADARVALUES:0.166870,0.287080,0.125794,0.026956,0.000000,130.000000,116.000000,14.000000,3.000000,0.000000,0.000000,0.000000,0.000000,0.000000,0.166870,0.287080,0.125794,0.026956,0.000000,130.000000,116.000000,14.000000,3.000000,0.000000,0.000000,0.000000,0.000000,0.000000;
#CREDIT:kater15;
#DISPLAYBPM:160.000000;
#NOTES:
0000
0000
0000
0000
,
0000
0000
0000
0000
,
0000
0000
0000
0000
,
0000
0000
0000
0000
,
0000
0000
0000
0000
,
0000
0000
0000
0000
,
1000
0000
0000
0000
,
0001
0000
0000
0000
,
0100
0000
0000
0000
,
1000
0000
0000
0000
,
0001
0000
0000
0000
,
0010
0000
0000
0000
,
0200
0000
0000
0000
,
0300
0000
0000
0000
,
0010
0000
0001
0001
,
0001
0000
0001
0000
,
0001
0000
0001
0000
,
0001
0001
0001
0001
,
0001
0000
0000
0000
,
1000
0000
1000
0000
,
1000
0000
1000
0000
,
1000
1000
1000
1000
,
1000
0000
0000
0000
,
1001
0000
0000
0001
,
0001
0000
0000
0000
,
1001
0000
0000
1000
,
1000
0000
0000
0000
,
0110
0000
0000
0010
,
0010
0000
0000
0000
,
0110
0000
0000
0100
,
0100
0000
0000
0000
,
0200
0000
0000
0300
,
0100
0000
0001
0000
,
0100
0000
0000
0000
,
0010
0000
1000
0000
,
0010
0000
0000
0000
,
0100
0000
0010
0000
,
0100
0000
0000
0000
,
0001
0000
1000
0000
,
0001
0000
0001
0000
,
0001
0000
0001
0000
,
0001
0001
0001
0001
,
0001
0000
0000
0000
,
1000
0000
1000
0000
,
1000
0000
1000
0000
,
1000
1000
1000
1000
,
1000
0000
0000
0000
,
0200
0000
0000
0300
,
0100
0000
0001
0000
,
1000
0000
0100
0000
,
0010
0000
0010
0000
,
0110
0000
1000
0000
,
0100
0000
0010
0000
,
1001
0000
1001
0000
,
1001
0000
1001
0000
,
0001
0000
0001
0000
,
0001
0000
0001
0000
,
0001
0001
0001
0001
,
0001
0000
0000
0000
,
1000
0000
1000
0000
,
1000
0000
1000
0000
,
1000
1000
1000
1000
,
1000
0000
0000
0000
,
1001
0000
0000
0001
,
0001
0000
0000
0000
,
1001
0000
0000
1000
,
1000
0000
0000
0000
,
0110
0000
0000
0010
,
0010
0000
0000
0000
,
0110
0000
0000
0100
,
0100
0000
0000
0000
,
0110
0000
0000
0000
;

//---------------dance-single - ----------------
#NOTEDATA:;
#CHARTNAME:;
#STEPSTYPE:dance-single;
#DESCRIPTION:;
#CHARTSTYLE:;
#DIFFICULTY:Medium;
#METER:7;
#RADARVALUES:0.406905,0.542262,0.269559,0.107823,0.000000,317.000000,287.000000,30.000000,12.000000,0.000000,0.000000,0.000000,0.000000,0.000000,0.406905,0.542262,0.269559,0.107823,0.000000,317.000000,287.000000,30.000000,12.000000,0.000000,0.000000,0.000000,0.000000,0.000000;
#CREDIT:kater15;
#DISPLAYBPM:160.000000;
#NOTES:
0000
0000
0000
0000
,
0000
0000
0000
0000
,
0000
0000
0000
0000
,
0000
0000
0000
0000
,
0000
0000
0000
0000
,
0000
0000
0000
0000
,
1000
0100
0100
0001
,
1000
0010
0001
0100
,
0100
0000
1001
0000
,
0010
0000
0110
0000
,
1000
0001
0010
0100
,
0100
0010
0011
1000
,
0100
0000
0110
0000
,
0001
1000
1000
0010
,
0001
0100
0110
1001
,
1000
0001
1000
0001
1000
0001
1000
0001
,
1000
0001
1000
0001
1000
0001
1000
0001
,
1000
1000
1010
1010
,
1000
0000
0000
0000
,
1000
0001
1000
0001
1000
0001
1000
0001
,
1000
0001
1000
0001
1000
0001
1000
0001
,
1000
1000
1010
1010
,
1000
0000
0000
0000
,
1100
0000
0010
0000
0010
0000
0100
1000
,
0000
0000
0001
0000
0001
0000
0010
0100
,
0101
0000
0100
0000
0100
0000
0001
0010
,
0000
0000
0100
0000
1000
0000
0100
0001
,
0011
0000
0010
0000
0100
0000
0001
1000
,
0000
0000
1000
0000
0100
0000
0100
0010
,
1001
0000
0100
0000
0001
0000
1000
0100
,
0000
0000
0010
0000
0010
0000
1000
0100
,
0002
0000
2000
0003
,
0020
3000
0100
0031
,
0010
0000
0100
0000
1000
0100
1000
0000
,
0010
0000
0001
0000
1000
0000
0100
0100
,
0100
0001
0010
0100
,
0110
0000
0001
0000
0100
0000
0010
0010
,
2000
0000
3002
0000
,
0203
0000
0310
0100
,
1000
0001
1000
0001
1000
0001
1000
0001
,
1000
0001
1000
0001
1000
0001
1000
0001
,
1000
1000
1010
1010
,
1000
0000
0000
0000
,
1000
0001
1000
0001
1000
0001
1000
0001
,
1000
0001
1000
0001
1000
0001
1000
0001
,
1000
1000
1010
1010
,
1000
0000
0000
0000
,
0200
0000
0002
0300
,
2000
0003
0100
3010
,
0100
0000
0001
0010
0100
0000
0010
0001
,
1000
0000
0100
0100
0010
0000
0011
0000
,
1100
0001
0010
0100
,
1000
0010
0010
0100
,
0002
0000
0203
0000
,
0320
0000
1030
0001
,
1000
0001
1000
0001
1000
0001
1000
0001
,
1000
0001
1000
0001
1000
0001
1000
0001
,
1000
1000
1010
1010
,
1000
0000
0000
0000
,
1000
0001
1000
0001
1000
0001
1000
0001
,
1000
0001
1000
0001
1000
0001
1000
0001
,
1000
1000
1010
1010
,
1000
0000
0000
0000
,
1100
0000
0010
0000
0010
0000
0100
1000
,
0000
0000
0001
0000
0001
0000
0010
0100
,
0101
0000
0100
0000
0100
0000
0001
0010
,
0000
0000
0100
0000
1000
0000
0100
0001
,
0011
0000
0010
0000
0100
0000
0001
1000
,
0000
0000
1000
0000
0100
0000
0100
0010
,
1001
0000
0100
0000
0001
0000
1000
0100
,
0000
0000
0010
0000
0010
0000
1000
0100
,
0110
0000
0000
0000
;

//---------------dance-single - ----------------
#NOTEDATA:;
#CHARTNAME:;
#STEPSTYPE:dance-single;
#DESCRIPTION:;
#CHARTSTYLE:;
#DIFFICULTY:Hard;
#METER:10;
#RADARVALUES:0.505744,0.573149,0.359412,0.134779,0.017971,394.000000,354.000000,40.000000,15.000000,0.000000,0.000000,0.000000,0.000000,0.000000,0.505744,0.573149,0.359412,0.134779,0.017971,394.000000,354.000000,40.000000,15.000000,0.000000,0.000000,0.000000,0.000000,0.000000;
#CREDIT:kater15;
#DISPLAYBPM:160.000000;
#NOTES:
0000
0000
0000
0000
,
0000
0000
0000
0000
,
0000
0000
0000
0000
,
0000
0000
0000
0000
,
0000
0000
0000
0000
,
0000
0000
0000
0000
,
1000
0100
0010
0100
0010
0000
0001
1000
,
0100
1000
0100
0000
0010
0000
0001
0000
,
0201
0000
0320
0000
,
2030
0000
3002
0000
,
1003
0100
0001
0000
0010
0010
0001
0000
,
1000
0000
0100
0000
1000
0100
0010
0000
,
2100
0000
3002
0000
,
0103
0001
1000
0000
0100
0000
0100
0000
,
0020
0000
0100
0130
,
1000
0010
0100
0001
1000
0010
0100
0001
,
1000
0010
0100
0001
1000
0010
0100
0001
,
1010
1100
0101
0011
,
1001
0000
0000
0000
,
1000
0010
0100
0001
1000
0010
0100
0001
,
1000
0010
0100
0001
1000
0010
0100
0001
,
1010
1100
0101
0011
,
1001
0000
0000
0000
,
0000
1000
1000
1000
0100
0010
0001
0100
,
0000
0010
0010
0010
1000
0001
0100
1000
,
0000
0001
0001
0001
0010
0100
1000
0010
,
0000
0100
0100
0100
0001
1000
0010
0001
,
0000
1000
1000
1000
0100
0010
0001
0100
,
0000
0010
0010
0010
1000
0001
0100
1000
,
0000
0001
0001
0001
0010
0100
1000
0010
,
0000
0100
0100
0100
0001
1000
0010
0001
,
0000
0000
0000
0000
0000
0000
1000
0001
1000
0000
0000
0000
0000
0000
0000
0000
,
1001
0000
1000
0010
,
0100
0000
0000
0000
0010
0000
1000
0001
1000
0000
0000
0000
0100
0000
0000
0000
,
0101
0000
0010
1000
0002
0000
2003
0000
,
3010
0000
0000
0000
0100
0000
1000
0001
1000
0000
0000
0000
0010
0000
0000
0000
,
0101
0000
1000
0001
0200
0000
2300
0000
,
3001
0000
0000
0000
0000
0000
1000
0001
1000
0000
0000
0000
0000
0000
0000
0000
,
0110
0000
0100
0010
0100
0001
0010
0000
,
1000
0010
0100
0001
1000
0010
0100
0001
,
1000
0010
0100
0001
1000
0010
0100
0001
,
1010
1100
0101
0011
,
1001
0000
0000
0000
,
1000
0010
0100
0001
1000
0010
0100
0001
,
1000
0010
0100
0001
1000
0010
0100
0001
,
1010
1100
0101
0011
,
1001
0000
0000
0000
,
1100
0000
0000
1000
0100
0000
0000
0100
,
0010
0000
0000
0010
0001
0000
0100
0010
,
0001
0000
0100
0010
1000
0000
0100
0000
,
0101
0000
0010
1000
0002
0000
2003
0000
,
3010
0000
0001
0001
0100
0000
0010
1000
,
0010
0000
0100
0100
0002
0000
0023
0000
,
0031
0000
1000
0100
0010
0000
0100
0100
,
0010
0000
0001
1000
1100
0000
1001
0000
,
1000
0010
0100
0001
1000
0010
0100
0001
,
1000
0010
0100
0001
1000
0010
0100
0001
,
1010
1100
0101
0011
,
1001
0000
0000
0000
,
1000
0010
0100
0001
1000
0010
0100
0001
,
1000
0010
0100
0001
1000
0010
0100
0001
,
1010
1100
0101
0011
,
1001
0000
0000
0000
,
0000
1000
1000
1000
0100
0010
0001
0100
,
0000
0010
0010
0010
1000
0001
0100
1000
,
0000
0001
0001
0001
0010
0100
1000
0010
,
0000
0100
0100
0100
0001
1000
0010
0001
,
0000
1000
1000
1000
0100
0010
0001
0100
,
0000
0010
0010
0010
1000
0001
0100
1000
,
0000
0001
0001
0001
0010
0100
1000
0010
,
0000
0100
0100
0100
0001
1000
0010
0001
;

//---------------dance-single - ----------------
#NOTEDATA:;
#CHARTNAME:;
#STEPSTYPE:dance-single;
#DESCRIPTION:;
#CHARTSTYLE:;
#DIFFICULTY:Challenge;
#METER:14;
#RADARVALUES:0.671330,0.733649,0.233618,0.125794,0.278544,523.000000,497.000000,26.000000,14.000000,0.000000,0.000000,0.000000,0.000000,0.000000,0.671330,0.733649,0.233618,0.125794,0.278544,523.000000,497.000000,26.000000,14.000000,0.000000,0.000000,0.000000,0.000000,0.000000;
#CREDIT:kater15;
#DISPLAYBPM:160.000000;
#NOTES:
// measure 0
0000
0000
0000
0000
,  // measure 1
0000
0000
0000
0000
,  // measure 2
0000
0000
0000
0000
,  // measure 3
0000
0000
0000
0000
,  // measure 4
0000
0000
0000
0000
,  // measure 5
0000
0000
0000
0000
,  // measure 6
1000
0100
0010
1000
0100
0001
0001
0000
,  // measure 7
0100
0010
1000
1000
0001
1000
0100
0000
,  // measure 8
0001
0000
1001
0000
,  // measure 9
1100
0000
1001
0000
,  // measure 10
0001
0000
0010
0000
0100
0001
1000
0001
1000
0000
0010
0000
0100
0000
0001
0000
,  // measure 11
0010
0000
1000
0001
0100
0000
0210
0000
,  // measure 12
0310
0000
0000
0000
0100
0001
1000
0001
1000
0000
0010
0000
0000
0000
0000
0000
,  // measure 13
1000
0100
1000
0001
0100
0010
1000
0100
,  // measure 14
0002
0000
0100
0103
,  // measure 15
1000
0100
1000
0100
0001
0010
0100
1000
,  // measure 16
0010
0001
0010
0001
0100
1000
0001
0010
,  // measure 17
1000
0000
0001
0100
1000
0000
0001
0010
1000
0000
0001
0100
1000
0000
0001
0010
,  // measure 18
1000
0100
0010
0000
0010
0000
0010
0000
,  // measure 19
1000
0100
1000
0100
0001
0010
0100
1000
,  // measure 20
0010
0001
0010
0001
0100
1000
0001
0010
,  // measure 21
1000
0000
0001
0100
1000
0000
0001
0010
1000
0000
0001
0100
1000
0000
0001
0010
,  // measure 22
1000
0100
0010
0000
0010
0000
0010
0000
,  // measure 23
1001
0000
0010
0001
0100
0000
0010
1000
0100
0000
0010
0000
0001
0000
1000
0000
,  // measure 24
0100
0000
0001
0010
1000
0000
0001
0100
1000
0000
0001
0000
0010
0000
0100
0000
,  // measure 25
0110
0000
0001
0100
1000
0000
0001
0010
1000
0000
0001
0000
0100
0000
0010
0000
,  // measure 26
1000
0000
0100
0001
0010
0000
0100
1000
0010
0000
0100
0000
0001
0000
1000
0000
,  // measure 27
1001
0000
0100
1000
0010
0000
0100
0001
0010
0000
0100
0000
1000
0000
0001
0000
,  // measure 28
0010
0000
1000
0100
0001
0000
1000
0010
0001
0000
1000
0000
0100
0000
0010
0000
,  // measure 29
0110
0000
1000
0010
0001
0000
1000
0100
0001
0000
1000
0000
0010
0000
0100
0000
,  // measure 30
0001
0000
0010
1000
0100
0000
0010
0001
0100
0000
0010
0000
1000
0000
0001
0000
,  // measure 31
2002
3003
2020
3030
,  // measure 32
0220
0330
0101
1010
,  // measure 33
1001
0000
0000
0000
0100
0000
0001
0010
0001
0000
0000
0000
1000
0000
0100
0000
,  // measure 34
0010
0100
0001
1000
0200
0000
0001
0000
,  // measure 35
1300
0000
0000
0000
0010
0000
0100
0001
1000
0000
0000
0000
0100
0000
0001
0000
,  // measure 36
0010
0100
0001
1000
0002
0000
0100
0000
,  // measure 37
0013
0000
0011
0000
,  // measure 38
1100
0000
0100
0001
0010
0100
0001
0000
,  // measure 39
1000
0100
1000
0100
0001
0010
0100
1000
,  // measure 40
0010
0001
0010
0001
0100
1000
0001
0010
,  // measure 41
1000
0000
0001
0100
1000
0000
0001
0010
1000
0000
0001
0100
1000
0000
0001
0010
,  // measure 42
1000
0100
0010
0000
0010
0000
0010
0000
,  // measure 43
1000
0100
1000
0100
0001
0010
0100
1000
,  // measure 44
0010
0001
0010
0001
0100
1000
0001
0010
,  // measure 45
1000
0000
0001
0100
1000
0000
0001
0010
1000
0000
0001
0100
1000
0000
0001
0010
,  // measure 46
1000
0100
0010
0000
0010
0000
0010
0000
,  // measure 47
2100
0000
0001
0001
3001
0000
0010
0001
,  // measure 48
0100
0010
0010
0001
0101
0000
1100
0000
,  // measure 49
0110
0000
0001
0100
1000
0000
0010
0100
,  // measure 50
0100
0001
1000
0100
0020
0000
1000
0000
,  // measure 51
0130
0000
1000
0011
0001
0000
0100
0010
,  // measure 52
0001
0100
0010
1000
0200
0000
0320
0000
,  // measure 53
0130
0000
0001
1000
0001
0000
0100
0010
,  // measure 54
0100
0000
1000
0100
0010
0001
0100
0000
,  // measure 55
1000
0100
1000
0100
0001
0010
0100
1000
,  // measure 56
0010
0001
0010
0001
0100
1000
0001
0010
,  // measure 57
1000
0000
0001
0100
1000
0000
0001
0010
1000
0000
0001
0100
1000
0000
0001
0010
,  // measure 58
1000
0100
0010
0000
0010
0000
0010
0000
,  // measure 59
1000
0100
1000
0100
0001
0010
0100
1000
,  // measure 60
0010
0001
0010
0001
0100
1000
0001
0010
,  // measure 61
1000
0000
0001
0100
1000
0000
0001
0010
1000
0000
0001
0100
1000
0000
0001
0010
,  // measure 62
1000
0100
0010
0000
0010
0000
0010
0000
,  // measure 63
1001
0000
0010
0001
0100
0000
0010
1000
0100
0000
0010
0000
0001
0000
1000
0000
,  // measure 64
0100
0000
0001
0010
1000
0000
0001
0100
1000
0000
0001
0000
0010
0000
0100
0000
,  // measure 65
0110
0000
0001
0100
1000
0000
0001
0010
1000
0000
0001
0000
0100
0000
0010
0000
,  // measure 66
1000
0000
0100
0001
0010
0000
0100
1000
0010
0000
0100
0000
0001
0000
1000
0000
,  // measure 67
1001
0000
0100
1000
0010
0000
0100
0001
0010
0000
0100
0000
1000
0000
0001
0000
,  // measure 68
0010
0000
1000
0100
0001
0000
1000
0010
0001
0000
1000
0000
0100
0000
0010
0000
,  // measure 69
0110
0000
1000
0010
0001
0000
1000
0100
0001
0000
1000
0000
0010
0000
0100
0000
,  // measure 70
0001
0000
0010
1000
0100
0000
0010
0001
0100
0000
0010
0000
1000
0000
0001
0000
,  // measure 71
1001
0000
0000
0000
;
