#VERSION:0.83;
#TITLE:BALADA LOUCA;
#SUBTITLE:;
#ARTIST:LEONARDO;
#TITLETRANSLIT:;
#SUBTITLETRANSLIT:;
#ARTISTTRANSLIT:;
#GENRE:;
#ORIGIN:;
#CREDIT:;
#BANNER:Balada Louca.png;
#BACKGROUND:Balada Louca-bg.png;
#PREVIEWVID:;
#JACKET:Balada Louca-jacket.png;
#CDIMAGE:;
#DISCIMAGE:;
#LYRICSPATH:;
#CDTITLE:cdtitle.png;
#MUSIC:Balada Louca.ogg;
#OFFSET:0.957000;
#SAMPLESTART:44.500000;
#SAMPLELENGTH:15.000000;
#SELECTABLE:YES;
#DISPLAYBPM:130.000000;
#BPMS:0.000=130.012;
#STOPS:;
#DELAYS:;
#WARPS:;
#TIMESIGNATURES:0.000=4=4;
#TICKCOUNTS:0.000=4;
#COMBOS:0.000=1;
#SPEEDS:0.000=1.000=0.000=0;
#SCROLLS:0.000=1.000;
#FAKES:;
#LABELS:0.000=Song Start;
#BGCHANGES:;
#KEYSOUNDS:;
#ATTACKS:
;

//---------------dance-single - ----------------
#NOTEDATA:;
#CHARTNAME:;
#STEPSTYPE:dance-single;
#DESCRIPTION:;
#CHARTSTYLE:;
#DIFFICULTY:Easy;
#METER:3;
#RADARVALUES:0.153134,0.235498,0.040451,0.111239,0.000000,106.000000,102.000000,4.000000,11.000000,0.000000,0.000000,0.000000,0.000000,0.000000,0.153134,0.235498,0.040451,0.111239,0.000000,106.000000,102.000000,4.000000,11.000000,0.000000,0.000000,0.000000,0.000000,0.000000;
#CREDIT:kater15;
#DISPLAYBPM:130.000000;
#NOTES:
0000
0000
0000
0000
,
0000
0000
0000
0000
,
0000
0000
0000
0000
,
0000
0000
0000
0000
,
0000
0000
0000
0000
,
1000
0100
0010
0000
,
0100
0000
0001
0000
,
0100
0000
0010
0000
,
1000
0001
1000
0001
,
0100
0000
0010
0000
,
0001
0000
0100
1000
,
0010
0001
0100
0010
,
2002
0000
3003
0000
,
1000
0000
0001
0000
,
0010
0000
0000
0100
,
0100
0001
1000
0010
,
0200
0000
0000
0300
,
0000
0100
1001
0010
,
0100
0000
0010
0000
,
0100
0000
0001
0000
,
1000
0000
0100
0000
,
0010
1000
0110
0001
,
1000
0000
0100
0000
,
0010
0000
1000
0000
,
0002
0000
0000
0003
,
0100
1000
0100
0000
,
0100
0001
0100
0000
,
0010
0000
1000
0000
,
0010
0000
0000
0000
,
0100
1000
0100
0000
,
0100
0001
0100
0000
,
0010
0000
0001
0000
,
0010
0000
0000
0000
,
0002
0000
0000
0003
,
0010
0100
0010
0100
,
2000
0000
0000
3000
,
0010
0100
0010
0100
,
0002
0000
0000
0003
,
0010
0100
0010
0100
,
2000
0000
0000
3000
,
0002
0000
0000
0003
,
0100
1000
0100
0000
,
0100
0001
0100
0000
,
0010
0000
1000
0000
,
0010
0000
0000
0000
,
0100
1000
0100
0000
,
0100
0001
0100
0000
,
0010
0000
0001
0000
,
0010
0000
0000
0000
,
2002
0000
0000
0000
,
0000
0000
0000
0000
,
0000
0000
0000
3003
;

//---------------dance-single - ----------------
#NOTEDATA:;
#CHARTNAME:;
#STEPSTYPE:dance-single;
#DESCRIPTION:;
#CHARTSTYLE:;
#DIFFICULTY:Challenge;
#METER:3;
#RADARVALUES:0.147356,0.235498,0.040451,0.111239,0.000000,102.000000,98.000000,4.000000,11.000000,44.000000,0.000000,0.000000,0.000000,0.000000,0.147356,0.235498,0.040451,0.111239,0.000000,102.000000,98.000000,4.000000,11.000000,44.000000,0.000000,0.000000,0.000000,0.000000;
#CREDIT:kater15;
#DISPLAYBPM:130.000000;
#NOTES:
0000
0000
0000
0000
,
0000
0000
0000
0000
,
0000
0000
0000
0000
,
0000
0000
0000
0000
,
0000
0000
0000
0000
,
1000
0100
0010
0000
,
0100
0000
0001
MMMM
,
0100
0000
0010
0000
,
1000
0001
1000
0001
,
0100
0000
0010
0000
,
0001
0000
0100
1000
,
0010
0001
0100
0010
,
2002
3003
MMMM
0000
,
1000
0000
0001
0000
,
0010
0000
0000
0100
,
0100
0001
1000
0010
,
0200
0000
0000
0300
,
MMMM
0100
1001
0010
,
0100
0000
0010
0000
,
0100
0000
0001
0000
,
1000
0000
0100
0000
,
MMMM
1000
0110
0001
,
1000
0000
0100
0000
,
0010
0000
1000
0000
,
0002
0000
0000
0003
,
0100
1000
0100
0000
,
0100
0001
0100
0000
,
0010
0000
1000
0000
,
0010
0000
MMMM
0000
,
0100
1000
0100
0000
,
0100
0001
0100
0000
,
0010
0000
0001
0000
,
0010
0000
MMMM
0000
,
0002
0000
0000
0003
,
MMMM
0100
0010
0100
,
2000
0000
0000
3000
,
MMMM
0100
0010
0100
,
0002
0000
0000
0003
,
MMMM
0100
0010
0100
,
2000
0000
0000
3000
,
0002
0000
0000
0003
,
0100
1000
0100
0000
,
0100
0001
0100
0000
,
0010
0000
1000
0000
,
0010
0000
MMMM
0000
,
0100
1000
0100
0000
,
0100
0001
0100
0000
,
0010
0000
0001
0000
,
0010
0000
MMMM
0000
,
2002
0000
0000
0000
,
0000
0000
0000
0000
,
0000
0000
0000
3003
;

//---------------dance-single - ----------------
#NOTEDATA:;
#CHARTNAME:;
#STEPSTYPE:dance-single;
#DESCRIPTION:;
#CHARTSTYLE:;
#DIFFICULTY:Beginner;
#METER:1;
#RADARVALUES:0.065010,0.099104,0.030338,0.080901,0.000000,45.000000,42.000000,3.000000,8.000000,0.000000,0.000000,0.000000,0.000000,0.000000,0.065010,0.099104,0.030338,0.080901,0.000000,45.000000,42.000000,3.000000,8.000000,0.000000,0.000000,0.000000,0.000000,0.000000;
#CREDIT:kater15;
#DISPLAYBPM:130.000000;
#NOTES:
0000
0000
0000
0000
,
0000
0000
0000
0000
,
0000
0000
0000
0000
,
0000
0000
0000
0000
,
0000
0000
0000
0000
,
0001
0000
0000
0000
,
0000
0000
0000
0000
,
1000
0000
0000
0000
,
0010
0000
0000
0000
,
0100
0000
0000
0000
,
0001
0000
0000
0000
,
1000
0000
0001
0000
,
0001
0000
0000
0000
,
0010
0000
0000
0000
,
0100
0000
0000
0000
,
0001
0000
1000
0000
,
1000
0000
0000
0000
,
0001
0000
0000
0000
,
1001
0000
0000
0000
,
1000
0000
0000
0000
,
0100
0000
0000
0000
,
0010
0000
0000
0000
,
0110
0000
0000
0000
,
0100
0000
0000
0000
,
1000
0000
0000
0000
,
0002
0000
0003
0000
,
2000
0000
3000
0000
,
0001
0000
0000
0000
,
1000
0000
0000
0000
,
0002
0000
0003
0000
,
2000
0000
3000
0000
,
0001
0000
0000
0000
,
1000
0000
0000
0000
,
0010
0000
0000
0000
,
0000
0000
0000
0000
,
0100
0000
0000
0000
,
0000
0000
0000
0000
,
0010
0000
0000
0000
,
0000
0000
0000
0000
,
0100
0000
0000
0000
,
0000
0000
0000
0000
,
0002
0000
0003
0000
,
2000
0000
3000
0000
,
0001
0000
0000
0000
,
1000
0000
0000
0000
,
0002
0000
0003
0000
,
2000
0000
3000
0000
,
0001
0000
0000
0000
,
1000
0000
0000
0000
,
1001
0000
0000
0000
;

//---------------dance-single - ----------------
#NOTEDATA:;
#CHARTNAME:;
#STEPSTYPE:dance-single;
#DESCRIPTION:;
#CHARTSTYLE:;
#DIFFICULTY:Medium;
#METER:5;
#RADARVALUES:0.222478,0.366331,0.080901,0.080901,0.000000,154.000000,146.000000,8.000000,8.000000,0.000000,0.000000,0.000000,0.000000,0.000000,0.222478,0.366331,0.080901,0.080901,0.000000,154.000000,146.000000,8.000000,8.000000,0.000000,0.000000,0.000000,0.000000,0.000000;
#CREDIT:kater15;
#DISPLAYBPM:130.000000;
#NOTES:
0000
0000
0000
0000
,
0000
0000
0000
0000
,
0000
0000
0000
0000
,
0000
0000
0000
0000
,
0000
0000
0000
0000
,
1001
0000
0100
0000
,
0001
0010
0100
1000
,
0010
0000
1000
0000
,
0010
0001
1000
0100
,
1001
0000
0001
0001
0001
0000
1000
1000
,
1000
0010
1001
0100
,
1001
0000
0010
0000
0100
0000
0001
1000
,
0002
0000
0003
0000
,
0110
0000
0010
0010
0010
0000
0100
0100
,
0100
0001
0110
1000
,
0110
0000
0001
0000
1000
0000
0010
0100
,
0020
0000
0030
0000
,
0000
0000
1000
0000
0001
0100
0001
0000
,
1000
0000
0000
0000
0010
0000
1000
1000
,
1000
0000
0000
0000
0001
0000
0010
0010
,
0010
0000
0000
0001
0001
0000
0000
1000
,
1000
0000
0001
0000
1000
0100
1000
0000
,
0001
0000
0000
0000
0010
0000
0001
0001
,
0001
0000
0000
0000
1000
0000
0010
0010
,
0010
0000
0000
0000
,
1000
0000
1000
0000
1000
0001
1000
0000
,
0001
0000
0001
0000
0001
1000
0001
0000
,
0010
0000
1000
0000
,
0100
0000
0000
0000
,
0001
0000
0001
0000
0001
1000
0001
0000
,
1000
0000
1000
0000
1000
0001
1000
0000
,
0100
0000
0001
0000
,
0010
0000
0000
0000
,
0200
0000
0000
0300
,
0001
0000
1000
0000
0001
1000
0001
0000
,
0020
0000
0000
0030
,
0001
0000
1000
0000
0001
1000
0001
0000
,
0200
0000
0000
0300
,
0001
0000
1000
0000
0001
1000
0001
0000
,
0020
0000
0000
0030
,
0000
0000
0000
0000
,
1000
0000
1000
0000
1000
0001
1000
0000
,
0001
0000
0001
0000
0001
1000
0001
0000
,
0010
0000
1000
0000
,
0100
0000
0000
0000
,
0001
0000
0001
0000
0001
1000
0001
0000
,
1000
0000
1000
0000
1000
0001
1000
0000
,
0100
0000
0001
0000
,
0010
0000
0000
0000
,
0220
0000
0000
0000
,
0000
0000
0000
0000
,
0000
0000
0000
0330
;

//---------------dance-single - ----------------
#NOTEDATA:;
#CHARTNAME:;
#STEPSTYPE:dance-single;
#DESCRIPTION:;
#CHARTSTYLE:;
#DIFFICULTY:Hard;
#METER:7;
#RADARVALUES:0.303380,0.392497,0.080901,0.091014,0.000000,210.000000,202.000000,8.000000,9.000000,0.000000,0.000000,0.000000,0.000000,0.000000,0.303380,0.392497,0.080901,0.091014,0.000000,210.000000,202.000000,8.000000,9.000000,0.000000,0.000000,0.000000,0.000000,0.000000;
#CREDIT:;
#DISPLAYBPM:130.000000;
#NOTES:
// measure 0
0000
0000
0000
0000
,  // measure 1
0000
0000
0000
0000
,  // measure 2
0000
0000
0000
0000
,  // measure 3
0000
0000
0000
0000
,  // measure 4
0000
0000
0000
0000
,  // measure 5
0001
0000
1000
0000
0100
0010
0100
0000
,  // measure 6
0001
1000
0001
0000
0100
0000
1001
0000
,  // measure 7
0010
0000
0001
0000
0010
0000
1000
0100
,  // measure 8
0001
0000
0000
0000
0001
0100
1000
0000
,  // measure 9
0110
0000
0001
0100
1000
0000
0001
0010
,  // measure 10
1000
0001
1000
1100
,  // measure 11
0101
0000
0010
0100
0001
0000
1000
0010
,  // measure 12
0200
0000
0310
0000
,  // measure 13
1001
0000
0010
0001
0100
0000
0010
1000
,  // measure 14
0100
0010
0100
1010
,  // measure 15
0011
0000
1000
0001
0010
0000
0100
1000
,  // measure 16
0002
0000
1003
0000
,  // measure 17
0010
0000
1000
0100
0001
0100
1000
0000
,  // measure 18
0010
0000
0000
0000
0100
0000
0001
0100
,  // measure 19
1000
0000
0000
0000
0010
0000
0001
0010
,  // measure 20
1000
0000
0001
0100
0001
0000
0010
1000
,  // measure 21
0010
0000
0001
0100
1000
0100
0001
0000
,  // measure 22
0010
0000
0000
0000
0100
0000
1000
0100
,  // measure 23
0001
0000
0000
0000
0010
0000
1000
0010
,  // measure 24
0001
0010
0100
1000
,  // measure 25
0001
1000
0001
1000
0001
1000
0001
0000
,  // measure 26
0010
0100
0010
0100
0010
0100
0010
0000
,  // measure 27
1000
0100
0010
0001
,  // measure 28
0200
0000
0300
0000
,  // measure 29
1000
0001
1000
0001
1000
0001
1000
0000
,  // measure 30
0100
0010
0100
0010
0100
0010
0100
0000
,  // measure 31
0001
0010
0100
1000
,  // measure 32
0020
0000
0030
0000
,  // measure 33
0010
0001
0100
1000
,  // measure 34
0000
0100
0100
0100
0001
0000
1000
0000
,  // measure 35
0010
0001
0100
1000
,  // measure 36
0000
0100
0100
0100
0001
0000
1000
0000
,  // measure 37
0100
1000
0010
0001
,  // measure 38
0000
0010
0010
0010
1000
0000
0001
0000
,  // measure 39
0100
1000
0010
0001
,  // measure 40
0220
0000
0330
0000
,  // measure 41
0001
1000
0001
1000
0001
1000
0001
0000
,  // measure 42
0010
0100
0010
0100
0010
0100
0010
0000
,  // measure 43
1000
0100
0010
0001
,  // measure 44
0200
0000
0300
0000
,  // measure 45
1000
0001
1000
0001
1000
0001
1000
0000
,  // measure 46
0100
0010
0100
0010
0100
0010
0100
0000
,  // measure 47
0001
0010
0100
1000
,  // measure 48
0020
0000
0000
0000
,  // measure 49
0200
0000
0000
0000
,  // measure 50
0000
0000
0000
0000
,  // measure 51
0000
0000
0000
0330
;
