#TITLE:Antidote;
#SUBTITLE:(Tommy Trash Remix);
#ARTIST:Swedish House Mafia Vs Knife Party;
#TITLETRANSLIT:;
#SUBTITLETRANSLIT:;
#ARTISTTRANSLIT:;
#GENRE:;
#CREDIT:;
#BANNER:Antidote (Tommy Trash Remix).png;
#BACKGROUND:Antidote (Tommy Trash Remix)-bg.png;
#LYRICSPATH:;
#CDTITLE:;
#MUSIC:Antidote (Tommy Trash Remix).ogg;
#OFFSET:-9.428000;
#SAMPLESTART:29.990999;
#SAMPLELENGTH:15.000000;
#SELECTABLE:YES;
#DISPLAYBPM:128.000000:256.000000;
#BPMS:0.000000=128.000000
,76.000000=256.000000
,140.000000=128.000000
,188.000000=256.000000
,212.000000=128.000000
,214.000000=256.000000
,340.000000=512.000000
,344.000000=128.000000
,392.000000=256.000000
,424.000000=128.000000
;
#STOPS:212.000000=0.957000
;
#BGCHANGES:;
#KEYSOUNDS:;
#ATTACKS:;

//---------------dance-single - ----------------
#NOTES:
     dance-single:
     :
     Easy:
     8:
     0.310255,0.408115,0.120655,0.156851,0.000000,360.000000,340.000000,20.000000,26.000000,0.000000,0.000000,0.310255,0.408115,0.120655,0.156851,0.000000,360.000000,340.000000,20.000000,26.000000,0.000000,0.000000:
0000
0000
0000
0000
,
0000
0000
0000
0000
,
0000
0000
0000
0000
,
0001
0001
1000
0001
,
1000
1000
0001
1000
,
0001
0001
1000
0001
,
1000
1000
0001
1000
,
0010
0010
0100
0010
,
0100
0100
0010
0100
,
0010
0010
0100
0010
,
0100
0100
0010
0100
,
1001
0110
1000
0100
,
1000
0010
0100
0001
,
0101
1100
0100
0100
,
0001
0010
0100
1000
,
1010
0011
0100
0010
,
1000
0001
0010
0100
,
0110
1001
0100
0010
,
1000
0100
0010
0001
,
0100
0000
0100
0000
,
0001
0000
0010
1000
,
0001
0000
0100
0000
,
0110
0000
1000
1000
,
0001
0000
0010
0000
,
0100
0000
0010
0000
,
1000
0000
0100
0000
,
0001
0001
1000
0000
,
0010
0000
0100
0000
,
0001
0000
1000
0100
,
0010
0010
1000
0100
,
0010
0001
0100
0010
,
1000
0000
0100
0000
,
0010
0000
0100
0000
,
0001
0000
1000
0100
,
0001
0010
0100
1000
,
0001
0001
0001
1000
,
0100
0000
0010
0100
0010
0000
1000
0000
,
0110
0001
1000
1000
,
0010
0000
0001
1000
0001
0000
0100
0000
,
1010
0001
1000
0100
,
0010
0000
1000
0010
1000
0000
0001
0000
,
1001
0100
0010
1000
,
0100
0000
0010
0001
0010
0000
0100
0000
,
0010
0010
0010
0010
,
0010
0010
0010
0010
,
0010
0010
0010
0010
,
0010
0010
0010
0010
,
0010
0000
0010
0000
,
0010
0000
0010
0000
,
0010
0000
0010
0000
,
0010
0000
0010
0000
,
0010
0000
0010
0000
,
0010
0000
0010
0010
,
0020
0030
0001
0001
0001
0000
0000
0000
,
0100
0000
0010
0000
,
0100
0000
1001
0000
,
0010
1000
0100
0010
,
0002
0000
0103
0000
,
0100
0000
0110
0000
,
1000
0001
0010
0000
,
0010
1000
0100
1000
,
0020
0000
1030
0000
,
0001
0000
1000
0000
,
0001
0000
0110
0000
,
1000
0100
0001
1000
,
0020
0000
0031
0000
,
0001
0000
1001
0000
,
0100
0010
1000
0000
,
1000
0100
0001
0100
,
2000
0000
3100
0000
,
0010
0000
0100
0000
,
0010
0000
1001
0000
,
0100
0001
0010
0100
,
2000
0000
3010
0000
,
0010
0000
0110
0000
,
0001
1000
0100
0000
,
0100
0001
0010
0001
,
0200
0000
0301
0000
,
1000
0000
0001
0000
,
1000
0000
0110
0000
,
0001
0010
1000
0001
,
0200
0000
1300
0000
,
1000
0000
1001
0000
,
0010
0100
0001
0000
,
0001
0010
1000
0010
,
0002
0000
0000
0000
,
0013
1000
0100
0010
,
0001
2000
0001
3010
,
0100
0100
0001
0010
,
0100
2000
0001
3100
,
0010
0001
0010
0100
,
1000
0020
0001
0130
,
1000
0001
0010
0001
,
0100
0000
0010
0010
0010
0000
0100
0000
,
2000
0100
0001
3010
,
0002
0100
1000
0013
,
0200
0001
0010
1300
,
0020
1000
0100
0031
,
2000
0000
0010
0000
,
0001
0000
3100
0000
,
0002
0000
0100
0000
,
1000
0000
0013
0000
,
0200
0000
1000
0000
,
0010
0000
0301
0000
,
0020
0000
0001
0000
,
0100
0000
1030
0000
,
0200
0000
0001
0001
,
0302
0000
1000
1000
,
2003
0000
0010
0010
,
3020
0000
0001
0100
,
0032
0000
1000
0100
,
2003
0000
0000
0000
,
0000
0000
0000
3000
;

//---------------dance-single - ----------------
#NOTES:
     dance-single:
     :
     Beginner:
     5:
     0.169779,0.204058,0.048262,0.048262,0.000000,197.000000,189.000000,8.000000,8.000000,0.000000,0.000000,0.169779,0.204058,0.048262,0.048262,0.000000,197.000000,189.000000,8.000000,8.000000,0.000000,0.000000:
0000
0000
0000
0000
,
0000
0000
0000
0000
,
0000
0000
0000
0000
,
0001
0000
1000
0000
,
0001
0000
1000
0000
,
0001
0000
1000
0000
,
0001
0000
1000
0000
,
0010
0000
0100
0000
,
0010
0000
0100
0000
,
0010
0000
0100
0000
,
0010
0000
0100
0000
,
0001
0001
0000
0000
,
0100
0000
0000
0000
,
1000
1000
0000
0000
,
0010
0000
0000
0000
,
0100
0100
0000
0000
,
0001
0000
0000
0000
,
0010
0010
0000
0000
,
1000
0000
0000
0000
,
0100
0000
0001
0000
,
0100
0000
0100
0000
,
0010
0000
1000
0000
,
0100
0000
0010
0000
,
0010
0000
0001
0000
,
0100
0000
0100
0000
,
0010
0000
1000
0000
,
0100
0000
0010
0000
,
0001
0000
1000
0000
,
0001
0000
0100
0000
,
0100
0000
0010
0000
,
1000
0000
0100
0000
,
0010
0000
0001
0000
,
1000
0000
0100
0000
,
0010
0000
1000
0000
,
0100
0000
0010
0000
,
0100
0000
0100
0000
,
0001
0000
0000
0000
,
0100
0000
0100
0000
,
1000
0000
0000
0000
,
0010
0000
0010
0000
,
0001
0000
0000
0000
,
0010
0000
0010
0000
,
1000
0000
0000
0000
,
0010
0000
0010
0000
,
0010
0000
0010
0000
,
0010
0000
0010
0000
,
0010
0000
0010
0000
,
0010
0000
0000
0000
,
0010
0000
0000
0000
,
0010
0000
0000
0000
,
0010
0000
0000
0000
,
0010
0000
0010
0000
,
0010
0000
0010
0000
,
0010
0010
0010
0000
,
0100
0000
0001
0000
,
1000
0000
0010
0000
,
0010
0000
1000
0000
,
0110
0000
0000
0000
,
0001
0000
1000
0000
,
0010
0000
1000
0000
,
0100
0000
0001
0000
,
1001
0000
0000
0000
,
0100
0000
0010
0000
,
0001
0000
0100
0000
,
1000
0000
0001
0000
,
0110
0000
0000
0000
,
1000
0000
1000
0000
,
0100
0000
0010
0000
,
1000
0000
0100
0000
,
1001
0000
0000
0000
,
0001
0000
0010
0000
,
0100
0000
1000
0000
,
1000
0000
0100
0000
,
1001
0000
0000
0000
,
0010
0000
0100
0000
,
1000
0000
0100
0000
,
0001
0000
0010
0000
,
0110
0000
0000
0000
,
0001
0000
1000
0000
,
0010
0000
0001
0000
,
0100
0000
0010
0000
,
1001
0000
0000
0000
,
0100
0000
0100
0000
,
0001
0000
1000
0000
,
0100
0000
0001
0000
,
0220
0000
0000
0000
,
0330
0000
0000
0000
,
0000
0001
0001
0001
,
0000
0000
0000
0000
,
0000
1000
1000
1000
,
0000
0000
0000
0000
,
0000
0010
0010
0010
,
0000
0000
0000
0000
,
0000
0100
0100
0100
,
0100
0000
0001
0000
,
0100
0000
1000
0000
,
0100
0000
0001
0000
,
0100
0000
1000
0000
,
0010
0000
0001
0000
,
0010
0000
1000
0000
,
0010
0000
0001
0000
,
0010
0000
1000
0000
,
0010
0000
0001
0000
,
0100
0000
1000
0000
,
0100
0000
0001
0000
,
0100
0000
1000
0000
,
0200
0000
0300
0000
,
2000
0000
3000
0000
,
0002
0000
0003
0000
,
0020
0000
0030
0000
,
0200
0000
0300
0000
,
2000
0000
0000
0000
,
0000
0000
0000
3000
;

//---------------dance-single - ----------------
#NOTES:
     dance-single:
     :
     Medium:
     12:
     0.411950,0.544154,0.235277,0.289572,0.012065,478.000000,439.000000,39.000000,48.000000,0.000000,0.000000,0.411950,0.544154,0.235277,0.289572,0.012065,478.000000,439.000000,39.000000,48.000000,0.000000,0.000000:
0000
0000
0000
0000
,
0000
0000
0000
0000
,
0000
0000
0000
0000
,
0200
0301
0200
1300
,
0200
0301
0200
1300
,
0200
0301
0200
1300
,
0200
0301
0200
1300
,
0020
0031
0020
1030
,
0020
0031
0020
1030
,
0020
0031
0020
1030
,
0020
0031
0020
1030
,
0101
0000
0000
0000
1100
0000
0000
0000
0010
0000
0000
0010
0000
0000
0020
0000
,
0000
1000
0000
0100
0130
0000
0001
0000
,
1010
0000
0000
0000
0011
0000
0000
0000
0100
0000
0000
0100
0000
0000
0200
0000
,
0000
0001
0000
0010
0310
0000
1000
0000
,
1001
0000
0000
0000
0110
0000
0000
0000
0001
0000
0000
0001
0000
0000
0002
0000
,
0000
0010
0000
1000
1003
0000
0100
0000
,
0110
0000
0000
0000
1001
0000
0000
0000
1000
0000
0000
1000
0000
0000
2000
0000
,
0000
0100
0000
0001
3001
0000
0010
0000
,
1000
0100
1000
0010
,
0100
0001
1100
0101
,
0010
1000
0100
0010
,
0100
0020
1000
1030
,
0001
0010
0001
0100
,
0010
1000
0011
1010
,
0100
0001
0010
0100
,
0010
0200
0001
0301
,
0100
0001
0100
1000
,
0001
0010
0101
0011
,
1000
0100
0001
1000
,
0001
2000
0100
3100
,
0010
1000
0010
0001
,
1000
0100
1010
1100
,
0001
0010
1000
0001
,
1000
0002
0010
0013
,
1000
0000
0100
0000
0010
0100
1000
0100
,
0010
0000
0001
0000
0100
0010
0001
0010
,
0100
0000
1000
0000
0010
0100
1000
0100
,
0010
0000
0001
0000
0100
0010
0001
0010
,
0100
0000
1001
0000
0010
0001
0100
0010
,
1000
0000
1001
0000
1000
0010
0100
0001
,
0010
0000
0110
0000
0010
0001
1000
0100
,
0001
0000
0110
0000
0100
1000
0001
0010
,
1000
0010
0100
0001
,
0100
0010
1000
0010
,
0100
0001
0100
0010
,
1000
0010
0100
0001
,
0100
0010
1000
0010
,
0100
0001
0100
0010
,
1000
0010
0100
0001
,
0100
0010
1000
0010
,
0100
0001
0100
0010
,
1000
0010
0100
0001
,
0200
0300
1001
1001
0100
0000
0000
0100
,
0000
0000
0010
0000
0000
0000
0010
1000
,
0000
0000
0010
1000
0000
0000
0000
0000
,
1000
0100
0010
1000
,
0022
0000
0033
0000
0010
0000
0000
0010
,
0000
0000
0100
0000
0000
0000
0100
0001
,
0000
0000
0100
0001
0000
0000
0000
0000
,
0001
0010
0100
0001
,
2200
0000
3300
0000
1000
0000
0000
1000
,
0000
0000
0001
0000
0000
0000
0001
0010
,
0000
0000
0001
0010
0000
0000
0000
0000
,
0010
1000
0001
0010
,
0202
0000
0303
0000
0001
0000
0000
0001
,
0000
0000
1000
0000
0000
0000
1000
0100
,
0000
0000
1000
0100
0000
0000
0000
0000
,
0100
0001
1000
0100
,
2020
3030
1000
0100
,
0010
0100
0001
0010
,
0100
0000
0010
0000
0001
0000
0010
0100
,
0010
1000
0001
0010
,
2002
3003
0001
0010
,
0100
0010
1000
0100
,
0010
0000
0100
0000
1000
0000
0100
0010
,
0100
0001
1000
0100
,
2002
3003
0010
1000
,
0001
1000
0100
0001
,
1000
0000
0001
0000
0100
0000
0001
1000
,
0001
0010
0100
0001
,
0220
0330
0100
0001
,
1000
0001
0010
1000
,
0001
0000
1000
0000
0010
0000
1000
0001
,
1000
0100
0010
1000
,
0220
0000
0000
0330
,
1000
1100
0001
0101
,
1000
0000
0001
0010
1000
0100
0010
0000
,
0001
0011
1000
1010
,
0001
0000
1000
0100
0001
0010
0100
0000
,
0010
1010
0100
1100
,
0010
0000
0100
0001
0010
1000
0001
0000
,
0100
0101
0010
0011
,
0100
0000
0010
1000
0100
0001
1000
0000
,
0001
0000
0001
0000
0010
0001
0100
0010
,
1000
0000
1000
0000
0100
1000
0001
0010
,
0100
0000
0100
0000
0001
1000
0001
0100
,
0010
0000
0010
0000
1000
0001
0100
0010
,
1000
0100
1000
0010
,
0100
0100
0001
1000
,
0010
1000
0100
0010
,
0100
0001
1000
1000
,
0001
0010
0100
0001
,
0100
1000
0010
1000
,
0100
0010
1000
0100
,
0010
0000
1000
0000
0010
0001
1000
0001
,
0200
0000
0000
0000
,
0002
0000
0300
0000
,
2000
0000
0003
0000
,
0020
0000
3000
0000
,
0200
0000
0000
0330
,
2002
0000
0000
0000
,
0000
0000
0000
3003
;

//---------------dance-single - ----------------
#NOTES:
     dance-single:
     :
     Hard:
     16:
     0.667911,0.850240,0.277506,0.096524,0.205113,775.000000,729.000000,46.000000,16.000000,0.000000,0.000000,0.667911,0.850240,0.277506,0.096524,0.205113,775.000000,729.000000,46.000000,16.000000,0.000000,0.000000:
// measure 0
0000
0000
0000
0000
,  // measure 1
0000
0000
0000
0000
,  // measure 2
0000
0000
0000
0000
,  // measure 3
1000
0100
1000
0010
0001
0100
0001
0010
,  // measure 4
1001
0001
0100
0010
1000
0100
0010
0001
,  // measure 5
1100
0010
0010
0100
0001
1000
0010
0100
,  // measure 6
0011
0100
0100
0010
1000
0001
0001
0100
,  // measure 7
0101
0010
0001
0100
1000
0010
1000
0100
,  // measure 8
0011
1000
0010
0100
0001
0010
0100
1000
,  // measure 9
1010
0100
0100
0010
1000
0001
0100
0010
,  // measure 10
1001
0010
0010
0100
0001
1000
1000
0010
,  // measure 11
0100
0000
0001
1000
0010
0000
1000
0001
0010
0000
1000
0100
0000
0100
0010
0000
,  // measure 12
0001
1000
0010
1000
0110
0010
1010
0001
,  // measure 13
0010
0000
1000
0001
0100
0000
0001
1000
0100
0000
0001
0010
0000
0010
0100
0000
,  // measure 14
1000
0001
0100
0001
0110
0100
0101
1000
,  // measure 15
1000
0000
0100
0010
0001
0000
0010
0100
0001
0000
0010
1000
0000
1000
0001
0000
,  // measure 16
0100
0010
0001
0010
1001
0001
0011
0100
,  // measure 17
0001
0000
0010
0100
1000
0000
0100
0010
1000
0000
0100
0001
0000
0001
1000
0000
,  // measure 18
0010
0100
1000
0100
1001
1000
1100
0010
,  // measure 19
0100
0000
0001
0100
0010
0000
1000
0100
,  // measure 20
0010
0000
0001
1000
0001
0000
1100
0000
,  // measure 21
0001
0100
0010
1000
0100
0010
0001
0000
,  // measure 22
1010
1000
1001
0001
,  // measure 23
0010
0000
1000
0010
0100
0000
0001
0010
,  // measure 24
0100
0000
1000
0001
1000
0000
0011
0000
,  // measure 25
1000
0010
0100
0001
0010
0100
1000
0000
,  // measure 26
0101
0001
1001
1000
,  // measure 27
1000
0000
0100
1000
0001
0000
0010
1000
,  // measure 28
0001
0000
0100
0010
0100
0000
1010
0000
,  // measure 29
0100
1000
0001
0010
1000
0001
0100
0000
,  // measure 30
0011
0010
0110
0100
,  // measure 31
0001
0000
0010
0001
1000
0000
0100
0001
,  // measure 32
1000
0000
0010
0100
0010
0000
0101
0000
,  // measure 33
0010
0001
1000
0100
0001
1000
0010
0000
,  // measure 34
1100
0100
0110
0010
,  // measure 35
0100
0000
0000
0000
0001
0000
0100
0000
1000
0100
1000
0000
0010
0000
0001
1000
,  // measure 36
0001
0000
0100
0000
0010
0000
1000
0100
1000
0010
0100
0001
0010
0000
0001
0000
,  // measure 37
0010
0000
0000
0000
1000
0000
0010
0000
0001
0010
0001
0000
0100
0000
1000
0001
,  // measure 38
1000
0000
0010
0000
0100
0000
0001
0010
0001
0100
0010
1000
0100
0000
1000
0000
,  // measure 39
1000
0000
0000
0000
0100
0000
1000
0000
0010
1000
0010
0000
0001
0000
0100
0010
,  // measure 40
0100
0000
1000
0000
0001
0000
0010
1000
0010
0001
1000
0100
0001
0000
0100
0000
,  // measure 41
0001
0000
0000
0000
0010
0000
0001
0000
0100
0001
0100
0000
1000
0000
0010
0100
,  // measure 42
0010
0000
0001
0000
1000
0000
0100
0001
0100
1000
0001
0010
1000
0000
0010
0000
,  // measure 43
0001
0010
0100
1000
,  // measure 44
0010
0100
0001
1000
,  // measure 45
0001
0100
0010
1000
0100
0001
0010
1000
,  // measure 46
0100
0010
1000
0010
0001
0100
0010
1000
,  // measure 47
0100
0001
1000
0010
,  // measure 48
1000
0100
0010
0001
,  // measure 49
0100
0010
1000
0100
,  // measure 50
0001
1000
0100
0001
,  // measure 51
1000
0001
1000
0010
1000
0100
1000
0010
,  // measure 52
0100
0001
1000
0010
0100
0001
0100
0010
,  // measure 53
2000
3000
0011
0101
1000
0000
0010
0100
,  // measure 54
0000
0010
0100
0000
0001
1000
0001
0000
,  // measure 55
0010
0000
1000
0001
1000
0000
0010
0000
,  // measure 56
0001
1000
0001
0100
0010
0000
1000
0001
,  // measure 57
0200
0000
0000
0000
0310
0000
0100
0010
,  // measure 58
0000
0100
0010
0000
1000
0001
1000
0000
,  // measure 59
0100
0000
0001
1000
0001
0000
0100
0000
,  // measure 60
1000
0001
1000
0010
0100
0000
0001
1000
,  // measure 61
0020
0000
0000
0000
1030
0000
0001
1000
,  // measure 62
0000
0001
1000
0000
0100
0010
0100
0000
,  // measure 63
0001
0000
0010
0100
0010
0000
0001
0000
,  // measure 64
0100
0010
0100
1000
0001
0000
0010
0100
,  // measure 65
2000
0000
0000
0000
3001
0000
1000
0001
,  // measure 66
0000
1000
0001
0000
0010
0100
0010
0000
,  // measure 67
1000
0000
0100
0010
0100
0000
1000
0000
,  // measure 68
0010
0100
0010
0001
1000
0000
0100
0010
,  // measure 69
0002
0000
0000
0000
1003
0000
0010
0100
,  // measure 70
0001
0100
0010
0000
0001
1000
0001
0100
,  // measure 71
0010
0000
1000
0001
1000
0001
0010
0000
,  // measure 72
0001
1000
0001
0100
0010
0000
1000
0001
,  // measure 73
0200
0000
0000
0000
0310
0000
0100
0010
,  // measure 74
1000
0010
0100
0000
1000
0001
1000
0010
,  // measure 75
0100
0000
0001
1000
0001
1000
0100
0000
,  // measure 76
1000
0001
1000
0010
0100
0000
0001
1000
,  // measure 77
0020
0000
0000
0000
0130
0000
0001
1000
,  // measure 78
0100
1000
0001
0000
0100
0010
0100
1000
,  // measure 79
0001
0000
0010
0100
0010
0100
0001
0000
,  // measure 80
0100
0010
0100
1000
0001
0000
0010
0100
,  // measure 81
2000
0000
0000
0000
3001
0000
1000
0001
,  // measure 82
0010
0001
1000
0000
0010
0100
0010
0001
,  // measure 83
1000
0000
0100
0010
0100
0010
1000
0000
,  // measure 84
0010
0100
0010
0001
1000
0000
0100
0010
,  // measure 85
0002
0000
0000
0000
,  // measure 86
1003
0000
1000
0001
0010
0000
1000
0010
0100
0000
0100
0001
0010
0000
0100
1000
,  // measure 87
0001
0000
0010
0100
1000
0000
0010
0000
1100
0000
1000
0000
1001
0000
0001
0000
,  // measure 88
0010
0000
0010
0100
0001
0000
0010
0001
1000
0000
1000
0100
0001
0000
1000
0010
,  // measure 89
0100
0000
0001
1000
0010
0000
0001
0000
1010
0000
0010
0000
0110
0000
0100
0000
,  // measure 90
0001
0000
0001
1000
0100
0000
0001
0100
0010
0000
0010
1000
0100
0000
0010
0001
,  // measure 91
1000
0000
0100
0010
0001
0000
0100
0000
0011
0000
0001
0000
1001
0000
1000
0000
,  // measure 92
0100
0000
0100
0010
1000
0000
0100
1000
0001
0000
0001
0010
1000
0000
0001
0100
,  // measure 93
0010
0000
1000
0001
0100
0000
1000
0000
0101
0000
0100
0000
0110
0000
0010
0000
,  // measure 94
1000
0000
0100
0000
1000
0000
0010
0000
0100
0001
1000
0010
0100
0001
0010
0000
,  // measure 95
0100
0000
0001
0000
0100
0000
1000
0000
0001
0010
0100
1000
0001
0010
1000
0000
,  // measure 96
0001
0000
0010
0000
0001
0000
0100
0000
0010
1000
0001
0100
0010
1000
0100
0000
,  // measure 97
0010
0000
1000
0000
0010
0000
0001
0000
1000
0100
0010
0001
1000
0100
0001
0000
,  // measure 98
0010
1010
1000
1100
,  // measure 99
0001
1000
0010
0001
1000
0100
0001
1000
,  // measure 100
0100
0101
0001
0011
,  // measure 101
1000
0001
0100
1000
0001
0010
1000
0001
,  // measure 102
0001
0011
0010
1010
,  // measure 103
0100
0010
0001
0100
0010
1000
0100
0010
,  // measure 104
1000
1100
0100
0101
,  // measure 105
0010
0100
1000
0010
0100
0001
0010
0100
,  // measure 106
2000
0000
0000
0000
,  // measure 107
0020
0000
3000
0000
,  // measure 108
0200
0000
0030
0000
,  // measure 109
0002
0000
0300
0000
,  // measure 110
2000
0000
0000
3003
,  // measure 111
0220
0000
0000
0000
,  // measure 112
0000
0000
0000
0330
;
