#TITLE:Ai Se Eu Te Pego;
#SUBTITLE:;
#ARTIST:Michel Telo;
#TITLETRANSLIT:;
#SUBTITLETRANSLIT:;
#ARTISTTRANSLIT:;
#GENRE:;
#CREDIT:;
#BANNER:Ai Se Eu Te Pego.png;
#BACKGROUND:Ai Se Eu Te Pego-bg.png;
#LYRICSPATH:;
#CDTITLE:cdtitle.png;
#MUSIC:Ai Se Eu Te Pego.ogg;
#OFFSET:-0.624000;
#SAMPLESTART:51.680000;
#SAMPLELENGTH:15.000000;
#SELECTABLE:YES;
#DISPLAYBPM:96.000000;
#BPMS:0.000000=96.070000
;
#STOPS:0.000000=0.937000,
31.000000=0.313000,
43.500000=1.249000,
78.000000=0.313000,
78.500000=0.313000,
79.000000=0.313000,
107.000000=0.313000,
119.500000=1.249000
;
#BGCHANGES:0.000=Ai Se Eu Te Pego.avi=1.000=1=0=0=StretchNoLoop==CrossFade==,
99999=-nosongbg-=1.000=0=0=0 // don't automatically add -songbackground-
;
#KEYSOUNDS:;
#ATTACKS:;

//---------------dance-single - ----------------
#NOTES:
     dance-single:
     :
     Hard:
     6:
     0.341122,0.381918,0.177701,0.066638,0.161041,215.000000,199.000000,16.000000,6.000000,0.000000,0.000000,0.341122,0.381918,0.177701,0.066638,0.161041,215.000000,199.000000,16.000000,6.000000,0.000000,0.000000:
// measure 0
0000
0000
0000
0000
,  // measure 1
0000
0000
0000
0000
,  // measure 2
0000
0000
0000
0000
,  // measure 3
0000
0000
0000
0000
,  // measure 4
0001
0100
1000
0000
0001
0100
1000
0000
,  // measure 5
1000
0000
0100
0000
1000
0000
0010
0000
0100
1000
0000
0000
0010
0000
0000
0000
,  // measure 6
0010
1001
0000
1000
0100
0001
1000
0110
,  // measure 7
0000
1001
0000
1000
0100
0001
1000
0000
,  // measure 8
1000
0001
1000
0000
1000
0000
0100
0000
0001
1000
0001
0000
0001
0000
1000
0000
,  // measure 9
0010
0100
0010
0000
0010
0000
0001
0000
0100
0000
1000
0000
0100
0000
0010
0000
,  // measure 10
0001
1000
0001
0000
0001
0000
0010
0000
0100
0001
0100
0000
0100
0000
1001
0000
,  // measure 11
0100
0000
1000
0000
0100
0000
0010
0000
0001
1000
0200
0000
0000
0000
0000
0000
,  // measure 12
1000
0000
0010
0010
0000
0010
0300
0000
,  // measure 13
0001
0000
1000
0000
0001
1000
0010
0100
1000
0000
0010
0000
0100
0001
0000
0010
,  // measure 14
1000
0000
0100
1000
0000
0001
0000
2000
0000
0000
0000
0000
0000
0000
0000
0000
,  // measure 15
0010
0000
0001
0000
0010
0000
3001
0000
0000
0000
0100
0001
0010
0100
0001
0010
,  // measure 16
0100
1000
0010
0100
0000
2001
0000
0000
,  // measure 17
0010
0000
0001
0000
3010
0001
0100
0010
0001
0000
0100
0000
0000
0010
1000
0001
,  // measure 18
0100
0010
0001
0200
0000
0000
0000
0000
,  // measure 19
0000
0000
0300
0000
1001
0110
1001
0110
,  // measure 20
1000
0000
0100
0000
0010
0000
0001
0000
1000
0010
0000
0000
0100
0000
0000
0000
,  // measure 21
0100
1001
0000
1000
0100
0001
1000
0110
,  // measure 22
0000
1001
0000
1000
0100
0001
1000
0000
,  // measure 23
0001
0100
1000
0000
0001
0100
1000
0000
,  // measure 24
1000
0000
0100
0000
1000
0000
0010
0000
0100
1000
0000
0000
0010
0000
0000
0000
,  // measure 25
0010
1001
0000
1000
0100
0001
1000
0110
,  // measure 26
0000
1001
0000
1000
0100
0001
1000
0000
,  // measure 27
1000
0001
1000
0000
1000
0000
0100
0000
0001
1000
0001
0000
0001
0000
1000
0000
,  // measure 28
0010
0100
0010
0000
0010
0000
0001
0000
0100
0000
1000
0000
0100
0000
0010
0000
,  // measure 29
0001
1000
0001
0000
0001
0000
0010
0000
0100
0001
0100
0000
0100
0000
1001
0000
,  // measure 30
0100
0000
1000
0000
0100
0000
0010
0000
0001
1000
0200
0000
0000
0000
0000
0000
,  // measure 31
1000
0000
0010
0010
0000
0020
0000
0000
,  // measure 32
0000
0000
0000
0330
;

//---------------dance-single - ----------------
#NOTES:
     dance-single:
     :
     Medium:
     4:
     0.215780,0.236425,0.000000,0.066638,0.000000,136.000000,136.000000,0.000000,6.000000,0.000000,0.000000,0.215780,0.236425,0.000000,0.066638,0.000000,136.000000,136.000000,0.000000,6.000000,0.000000,0.000000:
0000
0000
0000
0000
,
0000
0000
0000
0000
,
0000
0000
0000
0000
,
0000
0000
0000
0000
,
1000
1000
1000
0000
0001
0001
0001
0000
,
1000
0100
0010
0001
,
0000
0010
0000
1000
0100
0001
0000
0010
,
0000
0010
0000
1000
0100
0001
0000
0000
,
0001
1000
0001
0000
0100
0000
0010
0000
,
1000
0001
1000
0000
0010
0000
0001
0000
,
0100
1000
0010
0000
0010
0000
0001
0100
,
0010
0000
1000
0100
0010
0000
0100
0000
,
0002
0000
1000
1000
0000
1003
0000
0000
,
1000
0100
1000
0010
0000
0001
0000
1000
,
0000
0010
0100
0020
0000
0000
0030
0000
,
1000
0001
0010
0100
0000
1000
0000
0001
,
0000
0010
1000
0200
0000
0310
0000
0000
,
0001
0010
0100
1000
0010
0010
0000
1000
,
0100
0010
0001
0200
0000
0000
0000
0000
,
0000
0000
0300
0000
1000
0001
1000
0001
,
0000
0010
0000
0100
0000
1000
0010
0000
,
0001
0010
0000
1000
0100
0001
0000
0010
,
0000
0010
0000
1000
0100
0001
0000
0000
,
1000
1000
1000
0000
0001
0001
0001
0000
,
1000
0100
0010
0001
,
0000
0010
0000
1000
0100
0001
0000
0010
,
0000
0010
0000
1000
0100
0001
0000
0000
,
0001
1000
0001
0000
0100
0000
0010
0000
,
1000
0001
1000
0000
0010
0000
0001
0000
,
0100
1000
0010
0000
0010
0000
0001
0100
,
0010
0000
1000
0100
0010
0000
0100
0000
,
0002
0000
1000
1000
0000
2000
0000
0000
,
0000
0000
0000
3003
;

//---------------dance-single - ----------------
#NOTES:
     dance-single:
     :
     Easy:
     3:
     0.168181,0.254612,0.044425,0.066638,0.000000,106.000000,102.000000,4.000000,6.000000,0.000000,0.000000,0.168181,0.254612,0.044425,0.066638,0.000000,106.000000,102.000000,4.000000,6.000000,0.000000,0.000000:
0000
0000
0000
0000
,
0000
0000
0000
0000
,
0000
0000
0000
0000
,
0000
0000
0000
0000
,
1000
0000
0001
0000
,
1000
0100
0010
0001
,
0000
0010
0000
1000
0000
0100
0000
0010
,
0000
0010
0000
0001
0000
0100
0000
0000
,
1000
1000
0001
0001
,
0010
0010
0001
0100
,
1000
0000
1000
0000
0001
0000
0001
1000
,
1000
0100
0010
0001
,
0100
0020
1000
1030
,
0100
1001
0000
1000
,
0001
0200
0000
0310
,
0000
1000
0001
0010
,
0020
1000
1000
1030
,
0000
0001
0110
0000
,
1000
0020
0000
0000
,
0000
0000
0030
0000
1001
0100
1001
0100
,
0010
0100
0000
0001
0000
1000
0000
0010
,
0100
0010
0000
1000
0000
0100
0000
0010
,
0000
0010
0000
0001
0000
0100
0000
0000
,
1000
0000
0001
0000
,
1000
0100
0010
0001
,
0000
0010
0000
1000
0000
0100
0000
0010
,
0000
0010
0000
0001
0000
0100
0000
0000
,
1000
1000
0001
0001
,
0010
0010
0001
0100
,
1000
0000
1000
0000
0001
0000
0001
1000
,
1000
0100
0010
0001
,
0100
0020
1000
2000
,
0000
0000
0000
3030
;

//---------------dance-single - ----------------
#NOTES:
     dance-single:
     :
     Beginner:
     1:
     0.072984,0.109119,0.022213,0.088850,0.000000,46.000000,44.000000,2.000000,8.000000,0.000000,0.000000,0.072984,0.109119,0.022213,0.088850,0.000000,46.000000,44.000000,2.000000,8.000000,0.000000,0.000000:
0000
0000
0000
0000
,
0000
0000
0000
0000
,
0000
0000
0000
0000
,
0000
0000
0000
0000
,
1000
0000
0001
0000
,
0100
0000
0010
0000
,
0200
0000
0300
0000
,
0020
0000
0030
0000
,
1000
0000
1000
0000
,
0001
0000
0001
0000
,
0100
0000
0100
0000
,
0010
0000
0010
0000
,
1001
0000
0000
0000
,
0010
0000
0000
0000
,
0100
0000
0000
0000
,
0001
0000
1000
0000
,
0010
0000
0000
0000
,
0100
0000
0000
0000
,
0020
0000
0000
0030
,
0000
0000
0001
0001
,
0001
0000
1000
0000
,
0020
0000
0030
0000
,
0200
0000
0300
0000
,
1000
0000
0001
0000
,
0100
0000
0010
0000
,
0200
0000
0300
0000
,
0020
0000
0030
0000
,
1000
0000
1000
0000
,
0001
0000
0001
0000
,
0100
0000
0100
0000
,
0010
0000
0010
0000
,
1001
0000
0000
0000
,
2000
0000
0000
3000
;
