#TITLE:ALONE;
#SUBTITLE:;
#ARTIST:LASGO;
#TITLETRANSLIT:;
#SUBTITLETRANSLIT:;
#ARTISTTRANSLIT:;
#GENRE:;
#CREDIT:;
#BANNER:ALONE.png;
#BACKGROUND:ALONE-bg.png;
#LYRICSPATH:;
#CDTITLE:cdtitle.png;
#MUSIC:ALONE.ogg;
#OFFSET:0.472000;
#SAMPLESTART:71.523003;
#SAMPLELENGTH:15.000000;
#SELECTABLE:YES;
#DISPLAYBPM:140.000000;
#BPMS:0.000000=140.009995
;
#STOPS:
;
#BGCHANGES:;
#KEYSOUNDS:;
#ATTACKS:;

//---------------dance-single - ----------------
#NOTES:
     dance-single:
     :
     Easy:
     4:
     0.171840,0.279543,0.050826,0.144007,0.000000,142.000000,136.000000,6.000000,17.000000,0.000000,0.000000,0.171840,0.279543,0.050826,0.144007,0.000000,142.000000,136.000000,6.000000,17.000000,0.000000,0.000000:
0000
0000
0000
0000
,
0000
0000
0000
0000
,
0001
0000
1000
0000
,
0001
0000
1000
0000
,
0001
0000
1000
0000
,
0001
0000
1000
0000
,
0100
0000
0010
0000
,
0100
0000
0010
0000
,
0100
0000
0010
0000
,
0100
0010
0100
0010
,
1000
0000
0100
0100
,
0010
0000
1000
1000
,
0100
0000
0001
0001
,
1000
0100
0010
0001
,
0100
0000
0010
0010
,
1001
0000
1000
1000
,
0110
0000
0001
0001
,
0100
0001
1000
0010
,
0200
0000
0000
0000
,
0020
0000
0000
0330
,
0000
0000
0100
0000
,
0001
0010
0010
0100
,
0001
0000
1000
0000
,
0100
0100
0001
0010
,
0100
0000
0000
0000
,
0010
0000
2000
0000
,
3001
0000
0001
1000
,
0100
0000
0110
0000
,
0010
0000
0010
1000
,
0001
0000
2000
0000
,
0002
0000
0000
3003
,
0000
0000
0000
0000
,
1001
0100
0010
1001
,
0000
0000
0000
0000
,
1000
0000
0001
0000
,
1000
0000
0001
0000
,
1000
0000
0001
0000
,
1000
0000
0001
0000
,
0100
0000
0010
0000
,
0100
0000
0010
0000
,
0100
0000
0010
0000
,
0100
0000
0010
0000
,
2000
0000
0000
3000
,
0001
0000
1000
0000
,
0002
0000
0000
0000
,
2000
0000
0000
3003
,
2000
0000
0000
3000
,
0001
0000
1000
0000
,
0002
0000
0000
0000
,
2000
0000
0000
3003
,
0200
0000
0000
0300
,
0010
0000
0100
0000
,
0020
0000
0000
0000
,
0200
0000
0000
0330
,
0020
0000
0000
0030
,
0100
0000
0010
0000
,
0200
0000
0000
0000
,
0020
0000
0000
0330
,
1000
0000
0100
0000
,
0010
0000
0100
0000
,
1000
0000
0001
0000
,
0010
0000
0100
0000
,
1000
0100
1000
0010
,
0100
0100
0001
0010
,
0001
0001
1000
0100
,
0010
0001
0100
0100
,
1001
0000
0000
0000
;

//---------------dance-single - ----------------
#NOTES:
     dance-single:
     :
     Beginner:
     2:
     0.102862,0.139242,0.025413,0.042355,0.000000,85.000000,82.000000,3.000000,5.000000,0.000000,0.000000,0.102862,0.139242,0.025413,0.042355,0.000000,85.000000,82.000000,3.000000,5.000000,0.000000,0.000000:
0000
0000
0000
0000
,
0000
0000
0000
0000
,
0000
0000
0000
0000
,
0000
0000
0000
0000
,
0000
0000
0000
0000
,
0000
0000
0000
0000
,
1000
0000
0000
0000
,
0001
0000
0000
0000
,
1000
0000
0000
0000
,
0002
0000
0000
0003
,
0000
0000
1000
1000
,
0000
0000
0010
0010
,
0000
0000
0001
0001
,
0000
0000
0100
0100
,
0000
0000
1000
1000
,
0000
0000
0010
0010
,
0000
0000
0001
0001
,
0000
0000
0100
0100
,
0100
0000
0000
0000
,
1001
0000
0000
0000
,
0000
0000
1000
0000
,
0010
0000
0001
0000
,
1000
0000
0000
0000
,
0010
0000
0100
0000
,
0100
0000
1000
0000
,
0000
0000
0000
0000
,
0100
0000
0001
0000
,
0010
0000
0000
0000
,
0100
0000
1000
0000
,
0010
0000
0000
0000
,
1001
0000
0000
0000
,
0000
0000
0000
0000
,
0110
0000
0000
0000
,
0000
0000
0000
0000
,
1000
0000
0000
0000
,
0001
0000
0000
0000
,
1000
0000
0000
0000
,
0001
0000
0000
0000
,
0100
0000
0000
0000
,
0010
0000
0000
0000
,
0100
0000
0000
0000
,
0010
0000
0000
0000
,
0000
0000
1000
0000
,
0010
0000
0100
0000
,
1000
0000
0000
0000
,
0002
0000
0000
0003
,
0000
0000
1000
0000
,
0001
0000
0010
0000
,
0100
0000
0000
0000
,
0020
0000
0000
0030
,
0000
0000
0100
0000
,
1000
0000
0010
0000
,
0100
0000
0000
0000
,
2000
0000
0000
3000
,
0000
0000
0010
0000
,
1000
0000
0100
0000
,
0010
0000
0000
0000
,
0200
0000
0000
0300
,
0000
0000
1000
1000
,
0000
0000
0010
0010
,
0000
0000
0001
0001
,
0000
0000
0100
0100
,
0000
0000
1000
1000
,
0000
0000
0010
0010
,
0000
0000
0001
0001
,
0000
0000
0100
0100
;

//---------------dance-single - ----------------
#NOTES:
     dance-single:
     :
     Medium:
     7:
     0.319477,0.390618,0.144007,0.059297,0.194833,264.000000,247.000000,17.000000,7.000000,0.000000,0.000000,0.319477,0.390618,0.144007,0.059297,0.194833,264.000000,247.000000,17.000000,7.000000,0.000000,0.000000:
0000
0000
0000
0000
,
0000
0000
0000
0000
,
0000
0000
0000
0000
,
0000
0000
0000
0000
,
0000
0000
0000
0000
,
0000
0000
0000
0000
,
1000
0000
0000
1000
0000
0000
0000
0000
0001
0000
0000
0001
0000
0000
0000
0000
,
1000
0000
0000
1000
0000
0000
0000
0000
0001
0000
0000
0001
0000
0000
0000
0000
,
0100
0000
0000
0100
0000
0000
0000
0000
0010
0000
0000
0010
0000
0000
1000
0000
,
0100
0001
0010
0100
,
1000
0001
0000
0000
0100
0000
0100
0000
,
0001
1000
0000
0000
0010
0000
0010
0000
,
0100
0001
0000
0000
1000
0000
1000
0000
,
0010
1001
0100
1001
,
0010
1000
0000
1000
0100
0000
0100
0000
,
0001
0010
0000
0010
1000
0000
1000
0000
,
0100
0001
0000
0001
0010
0000
0010
0000
,
1000
0110
0001
0110
,
2000
0000
0000
0000
,
0002
0000
0000
3003
,
1001
0000
0000
0000
0100
0000
0000
1000
,
0000
0100
0000
0010
0000
1000
0001
0010
,
0000
0100
0000
0100
0000
0001
0000
0010
,
0100
0000
0001
0010
0000
0100
0000
1000
,
0000
0020
0000
0000
0000
1000
0000
0000
,
0000
0031
0000
0000
0000
0100
1000
0001
,
2000
0000
0000
0010
0000
0001
0000
3100
,
0000
0010
0000
0010
0000
0100
1000
0010
,
0002
0000
0000
0100
0000
1000
0000
0013
,
0000
0100
1000
0001
0000
0010
0000
0012
,
0000
1000
0000
0100
0000
1003
0100
0010
,
0000
0100
0000
0001
0000
1000
0000
0010
,
2000
0000
0001
0000
0010
0000
3100
0001
,
0010
0100
0100
0001
,
1100
0000
0000
0000
,
1001
0000
0000
0000
,
0011
0000
0000
0000
,
1100
0000
0110
0000
,
0001
0000
0000
0100
0000
0000
0000
0000
0100
0000
0000
1000
0000
0000
0000
0000
,
1000
0000
0000
0010
0000
0000
0000
0000
0010
0000
0000
0001
0000
0000
0000
0000
,
0100
0000
0000
0001
0000
0000
0000
0000
0010
0000
0000
1000
0000
0000
0000
0000
,
1000
0000
0000
0001
0000
0000
1000
0000
0010
0000
0000
0100
0000
0000
0010
0000
,
1000
0000
0000
1000
0000
0000
0000
0000
0100
0000
0000
0100
0000
0000
0000
0000
,
0010
0000
0000
0010
0000
0000
0000
0000
0001
0000
0000
0001
0000
0000
0000
0000
,
1000
0000
0000
1000
0000
0000
0000
0000
0100
0000
0000
0100
0000
0000
0000
0000
,
0001
0000
0000
0001
0000
0000
0000
0000
1000
0000
0000
1000
0000
0000
0000
0000
,
0010
0000
0000
0010
0000
0000
0000
0000
0100
0000
0000
0100
0000
0000
0000
0000
,
0001
0000
0000
0001
0000
0000
0000
0000
1000
0000
0000
1000
0000
0000
0000
0000
,
0010
0000
0000
0010
0000
0000
0000
0000
0100
0000
0000
0100
0000
0000
0000
0000
,
1000
0000
0000
0100
0000
0000
0000
0000
0001
0000
0000
0100
0000
0000
0000
0000
,
1000
0000
0000
1000
0000
0000
1000
0000
0100
0000
0000
0100
0000
0000
0000
0000
,
0010
0000
0000
0010
0000
0000
0010
0000
0001
0000
0000
0001
0000
0000
0000
0000
,
1000
0000
0000
1000
0000
0000
1000
0000
0100
0000
0000
0100
0000
0000
0000
0000
,
0001
0000
0000
0001
0000
0000
0001
0000
1000
0000
0000
1000
0000
0000
0000
0000
,
0010
0000
0000
0010
0000
0000
0010
0000
0100
0000
0000
0100
0000
0000
0000
0000
,
0001
0000
0000
0001
0000
0000
0001
0000
1000
0000
0000
1000
0000
0000
0000
0000
,
0010
0000
0000
0010
0000
0000
0010
0000
0100
0000
0000
0100
0000
0000
0000
0000
,
1000
0000
0000
0100
0000
0000
1000
0000
0001
0000
0000
0100
0000
0000
0001
0000
,
0100
1000
0000
0000
1000
0000
1100
0000
,
0010
0001
0000
0000
0001
0000
0011
0000
,
0100
0010
0000
0000
0010
0000
1010
0000
,
0100
0000
0001
0010
0100
0000
1000
0010
,
0100
1000
0100
0110
,
0001
0010
0100
0101
,
0010
1000
0100
1100
,
0001
0010
0001
0010
0100
1000
0100
1000
;

//---------------dance-single - ----------------
#NOTES:
     dance-single:
     :
     Hard:
     10:
     0.429600,0.447268,0.135536,0.067768,0.169420,355.000000,339.000000,16.000000,8.000000,0.000000,0.000000,0.429600,0.447268,0.135536,0.067768,0.169420,355.000000,339.000000,16.000000,8.000000,0.000000,0.000000:
0000
0000
0000
0000
,
0000
0000
0000
0000
,
0000
0000
0000
0000
,
0000
0000
0000
0000
,
0000
0000
0000
0000
,
0000
0000
0000
0000
,
1000
0000
0000
1000
0000
0000
1000
0000
0100
0000
0000
0100
0000
0000
0100
0000
,
0001
0000
0000
0001
0000
0000
0001
0000
0010
0000
0000
0010
0000
0000
0010
0000
,
0100
0000
0000
0100
0000
0000
0100
0000
1000
0000
0000
1000
0000
0000
1000
0000
,
0001
0011
0101
1001
,
1000
0100
0000
1000
0010
0000
0101
0000
,
1000
0001
0000
0010
0100
0000
0110
0000
,
1000
0010
0000
1000
0100
0000
0011
0000
,
1000
0000
0100
0001
0010
0000
0100
1000
,
0010
0100
0000
1000
0010
0100
0001
0000
,
1000
0010
0000
0100
0001
0100
1000
0000
,
0010
0100
0000
0010
0001
1000
0001
0000
,
1000
0000
0000
0001
0000
0000
1000
0000
0010
0000
0000
0100
0000
0000
0010
0000
,
0002
1000
1000
0100
,
2000
0000
0000
3003
,
1001
0000
0000
0000
0100
1000
0010
0100
,
0100
1000
0001
0010
0000
0200
0000
0301
,
0000
0000
0000
1000
0100
0100
0010
1000
,
0200
0000
0001
0301
0000
1000
0100
0010
,
0000
0010
0001
0100
0000
0010
1000
0001
,
0000
0010
0100
2000
0000
0001
0001
0001
,
3100
0000
0010
1000
0000
0100
0010
0010
,
1000
0100
0001
0010
1000
0100
0010
0100
,
0001
0000
1000
1000
0000
0010
0100
0100
,
0001
0010
0001
0002
0000
0100
0000
1003
,
0010
0000
0000
0010
0000
0000
0100
0000
0001
0000
0000
1000
0000
0000
0100
0000
,
0010
0000
0000
0010
0000
0000
1000
0000
0100
0000
0000
0001
0000
0000
0010
0000
,
0100
1000
0010
0100
0001
0010
1000
0000
,
0001
0010
0100
1000
0010
0100
0001
0000
,
1100
0000
0000
0000
0010
1000
0001
0000
,
0100
0000
0000
0000
0010
1000
0100
0000
,
1001
0000
0000
0000
0010
0001
1000
0000
,
0110
0000
0000
0000
0010
0100
1000
0000
,
0110
0000
0000
0010
0000
0000
0100
0000
0010
0000
0001
0000
1000
0000
0000
0000
,
1001
0000
0000
1000
0000
0000
0001
0000
0010
0000
0100
0000
1000
0000
0000
0000
,
0011
0000
0000
1000
0000
0000
0100
0000
0010
0000
0001
0000
0100
0000
0000
0000
,
1010
0000
0000
0010
0000
0000
0100
0000
0001
0000
0010
0000
0100
0000
0000
0000
,
1000
0000
0000
1000
0000
0000
1000
0000
0100
0000
0000
0100
0000
0000
0000
0000
,
0001
0000
0000
0001
0000
0000
0001
0000
0010
0000
0000
0010
0000
0000
0000
0000
,
0100
0000
0000
0100
0000
0000
0100
0000
1000
0000
0000
1000
0000
0000
0000
0000
,
0010
0000
0000
0100
0000
0000
0010
0000
1000
0000
0000
0001
0000
0000
0000
0000
,
0010
0000
0000
0001
0000
0000
0100
0000
0010
0000
0000
0100
0000
0000
0000
0000
,
0001
0000
0000
0010
0000
0000
0010
0000
0001
0000
0000
1000
0000
0000
0000
0000
,
0010
0000
0000
0100
0000
0000
1000
0000
0010
0000
0000
0010
0000
0000
0000
0000
,
2002
0000
0000
3003
,
0100
0000
0000
1000
0000
0000
0010
0000
0100
0000
0000
0001
0000
0000
0010
0000
,
0100
0000
0000
0100
0000
0000
1000
0000
0001
0000
0000
1000
0000
0000
0010
0000
,
0100
0000
0000
0001
0000
0000
0001
0000
1000
0000
0000
1000
0000
0000
0100
0000
,
0001
0000
0000
0001
0000
0000
0001
0000
0100
0000
0000
0100
0000
0000
0100
0000
,
1000
0100
0010
0100
0100
0001
0010
0000
,
1000
0100
0001
0010
0001
0100
0010
0000
,
1000
1000
0100
0001
0010
0001
0100
0000
,
0010
0010
0001
0100
0010
1000
0100
0000
,
1000
0010
0000
0001
0010
0100
0100
0000
,
1000
0001
0000
0010
1000
0100
1000
0000
,
0010
0100
0000
0100
0001
0010
0100
0000
,
1000
0000
0000
0100
0000
0000
0010
0000
0100
0000
0000
0010
0000
0000
0001
0000
,
1000
0100
1000
0010
0100
0001
0010
0000
,
0100
0100
0100
0001
0010
0100
1000
0000
,
0001
0010
0001
0100
0100
0010
1000
0000
,
0100
0001
0010
0001
0100
0010
0010
0000
,
0011
0000
0000
0000
;

//---------------dance-single - ----------------
#NOTES:
     dance-single:
     :
     Challenge:
     13:
     0.532462,0.559085,0.135536,0.059297,0.381194,440.000000,424.000000,16.000000,7.000000,0.000000,0.000000,0.532462,0.559085,0.135536,0.059297,0.381194,440.000000,424.000000,16.000000,7.000000,0.000000,0.000000:
// measure 0
0000
0000
0000
0000
,  // measure 1
0000
0000
0000
0000
,  // measure 2
1000
0000
0000
1000
0000
0000
0000
0000
0001
0000
0000
0001
0000
0000
0000
0000
,  // measure 3
1000
0000
0000
1000
0000
0000
0000
0000
0001
0000
0000
0001
0000
0000
0000
0000
,  // measure 4
0100
0000
0000
0100
0000
0000
0000
0000
0010
0000
0000
0010
0000
0000
0000
0000
,  // measure 5
0100
0000
0000
0100
0000
0000
0000
0000
0010
0000
0000
0010
0000
0000
0000
0000
,  // measure 6
1000
0000
0001
1000
0000
0001
1000
0000
0100
0000
0010
0100
0000
0010
0100
0000
,  // measure 7
1000
0000
0000
0100
0000
0000
0001
0000
0010
0000
0000
0100
0000
0000
1000
0000
,  // measure 8
0001
0000
1000
0001
0000
1000
0001
0000
0010
0000
0100
0010
0000
0100
0010
0000
,  // measure 9
1000
0000
0000
0010
1000
0000
0000
0010
1000
0000
0000
0010
1000
0000
0000
0001
,  // measure 10
1000
0000
0100
0000
0010
0000
0001
0000
0100
0000
0010
1000
0100
0000
0000
0000
,  // measure 11
0010
0000
0001
0000
0100
0000
0100
0000
0010
0000
0001
1000
0010
0000
0000
0000
,  // measure 12
0100
0000
0100
0000
0001
0000
0010
0000
0100
0000
0001
1000
0010
0000
0000
0000
,  // measure 13
1000
0000
0100
1000
0000
0100
1000
0000
0001
0000
0010
0001
0000
0010
0001
0000
,  // measure 14
0100
0000
0100
0000
0001
0000
0010
0000
1000
0000
0100
0001
0100
0000
0000
0000
,  // measure 15
0010
0000
1000
0000
0010
0000
0010
0000
0100
0000
0001
0100
1000
0000
0000
0000
,  // measure 16
0100
0000
0010
0000
0001
0000
0100
0000
0100
0000
1000
0001
0010
0000
0000
0000
,  // measure 17
0001
0000
0010
0001
0000
0010
0001
0000
1000
0000
0100
1000
0000
0100
1000
0000
,  // measure 18
0002
0000
0000
0000
,  // measure 19
0020
0000
0000
0033
,  // measure 20
0011
0000
0000
0100
0010
0100
0000
0001
,  // measure 21
0001
1000
0100
0010
0001
0100
0010
1000
,  // measure 22
0010
0000
0001
1000
0001
0000
1000
0001
1000
0000
0000
0000
0000
0000
0000
0000
,  // measure 23
0110
0000
1000
0100
0100
0010
0001
0100
,  // measure 24
0000
0010
1000
0100
0000
0010
1000
0001
,  // measure 25
0000
0000
0010
0000
1000
0000
0001
0000
0100
0000
1000
0010
1000
0001
1000
0100
,  // measure 26
1000
0000
0000
0000
0001
0000
0011
0000
0100
0000
1000
0000
0010
0100
0001
0000
,  // measure 27
0000
0000
0000
0000
0000
0000
1000
0100
0001
0000
0000
0001
0000
0000
0001
0000
,  // measure 28
0100
0000
0000
0000
1000
0000
1010
0000
0100
0000
0001
0000
1000
0010
0100
0000
,  // measure 29
0000
0000
0000
0000
0100
0010
0002
0000
0000
0000
0100
0000
0000
0000
1003
0000
,  // measure 30
0010
0000
0000
0100
0000
0000
0100
0000
1000
0000
0000
0000
0010
1000
0100
0000
,  // measure 31
0001
0000
0000
0100
0000
0000
0100
0000
0010
0000
0000
0010
0000
0000
0010
0000
,  // measure 32
1000
0000
0000
0100
0000
0000
0100
0000
0001
0000
0000
0000
0010
1000
0100
0000
,  // measure 33
0001
0000
0000
0100
0000
0000
0100
0000
0010
0000
0000
0010
0000
0000
0010
0000
,  // measure 34
1000
1100
0000
0000
1001
0000
1001
0000
,  // measure 35
0001
0011
0000
0000
0110
0000
0110
0000
,  // measure 36
0010
1010
0000
0000
1001
0000
1001
0000
,  // measure 37
0100
0101
0000
0000
0110
0000
0110
0000
,  // measure 38
1000
0000
0000
0100
0000
0000
0010
0000
1000
0000
0000
0001
0000
0000
0010
0000
,  // measure 39
0100
0000
0000
0100
0000
0000
0001
0000
0010
0000
0000
0100
0000
0000
0010
0000
,  // measure 40
1000
0000
0000
0001
0000
0000
0001
0000
0010
0000
0000
1000
0000
0000
0100
0000
,  // measure 41
0001
0000
1000
0001
0000
1000
0001
0000
0100
0000
0010
0100
0000
0010
0100
0000
,  // measure 42
1000
0000
0100
1000
0100
0001
0010
0100
,  // measure 43
0000
1000
1000
0001
0010
0100
1000
0001
,  // measure 44
0010
0000
0000
0000
1000
0000
0000
0000
0100
0000
0001
0010
0001
1000
0001
0100
,  // measure 45
0002
0000
0000
0003
,  // measure 46
0001
0000
0010
0001
0010
1000
0100
0010
,  // measure 47
0000
0001
0001
1000
0100
0010
0001
1000
,  // measure 48
0100
0000
0000
0000
0001
0000
0000
0000
0010
0000
1000
0100
1000
0001
1000
0010
,  // measure 49
2000
0000
0000
3000
,  // measure 50
0100
0000
0001
0100
0001
0010
1000
0001
,  // measure 51
0000
0100
0100
0010
1000
0001
0100
0010
,  // measure 52
1000
0000
0000
0000
0100
0000
0000
0000
0001
0000
0010
1000
0100
0010
0001
0100
,  // measure 53
0020
0000
0000
0030
,  // measure 54
0010
0000
1000
0010
1000
0100
0001
1000
,  // measure 55
0000
0010
0010
0100
0001
1000
0010
0100
,  // measure 56
0001
0000
0000
0000
0010
0000
0000
0000
1000
0000
0100
0001
0010
0100
1000
0010
,  // measure 57
0200
0000
0000
0300
,  // measure 58
1000
0000
0100
0000
0010
0000
0001
0000
0100
0000
0010
1000
0100
0000
0000
0000
,  // measure 59
0010
0000
0001
0000
0100
0000
0100
0000
0010
0000
0001
1000
0010
0000
0000
0000
,  // measure 60
0100
0000
0100
0000
0001
0000
0010
0000
0100
0000
0001
1000
0010
0000
0000
0000
,  // measure 61
1000
0000
0100
1000
0000
0100
1000
0000
0001
0000
0010
0001
0000
0010
0001
0000
,  // measure 62
0100
0000
0100
0000
0001
0000
0010
0000
1000
0000
0100
0001
0100
0000
0000
0000
,  // measure 63
0010
0000
1000
0000
0010
0000
0010
0000
0100
0000
0001
0100
1000
0000
0000
0000
,  // measure 64
0100
0000
0010
0000
0001
0000
0100
0000
0100
0000
1000
0001
0010
0000
0000
0000
,  // measure 65
0001
0000
0010
0001
0000
0010
0001
0000
1000
0000
0100
1000
0000
0100
1000
0000
,  // measure 66
0001
0000
0000
0000
;
