#VERSION:0.83;
#TITLE:AGAINST ALL ODDS (Definitive MIX);
#SUBTITLE:-Full Song-;
#ARTIST:DEJA VU featuring TASMIN;
#TITLETRANSLIT:;
#SUBTITLETRANSLIT:;
#ARTISTTRANSLIT:;
#GENRE:;
#ORIGIN:;
#CREDIT:;
#BANNER:AGAINST ALL ODDS (Definitive MIX) -Full Song-.png;
#BACKGROUND:AGAINST ALL ODDS (Definitive MIX) -Full Song--bg.png;
#PREVIEWVID:;
#JACKET:AGAINST ALL ODDS (Definitive MIX) -Full Song--jacket.png;
#CDIMAGE:;
#DISCIMAGE:;
#LYRICSPATH:;
#CDTITLE:;
#MUSIC:AGAINST ALL ODDS (Definitive MIX) -Full Song-.ogg;
#OFFSET:-0.190000;
#SAMPLESTART:199.977997;
#SAMPLELENGTH:15.000000;
#SELECTABLE:YES;
#DISPLAYBPM:70.000000:139.000000;
#BPMS:0.000=138.674,
8.000=139.930,
36.000=139.360,
316.000=139.030,
412.000=278.720,
416.000=139.360,
417.000=69.680,
417.500=139.360,
418.000=69.680,
442.000=139.360,
502.000=69.680,
504.000=139.015,
576.000=139.360;
#STOPS:417.500=1.458;
#DELAYS:;
#WARPS:;
#TIMESIGNATURES:0.000=4=4;
#TICKCOUNTS:0.000=4;
#COMBOS:0.000=1;
#SPEEDS:0.000=1.000=0.000=0;
#SCROLLS:0.000=1.000;
#FAKES:;
#LABELS:0.000=Song Start;
#BGCHANGES:;
#KEYSOUNDS:;
#ATTACKS:
;

//---------------dance-double - ----------------
#NOTEDATA:;
#CHARTNAME:;
#STEPSTYPE:dance-double;
#DESCRIPTION:;
#CHARTSTYLE:;
#DIFFICULTY:Medium;
#METER:5;
#RADARVALUES:0.095724,0.111939,0.003131,0.000000,0.000000,214.000000,213.000000,1.000000,0.000000,0.000000,0.000000,0.000000,0.000000,0.000000,0.095724,0.111939,0.003131,0.000000,0.000000,214.000000,213.000000,1.000000,0.000000,0.000000,0.000000,0.000000,0.000000,0.000000;
#CREDIT:;
#DISPLAYBPM:139.000000;
#NOTES:
00000000
00000000
00000000
00000000
,
00000000
00000000
00000000
00000000
,
00000000
00000000
00000000
00000000
,
00100000
00000000
00100000
00000000
10000000
00010000
01000000
00000000
,
00100000
00000000
00000000
00000000
,
01000000
00000000
00001000
00000000
00010000
00001000
00010000
00000000
,
00000010
00000000
00001000
00000000
00000001
00000100
00000001
00000000
,
00000010
00000000
00000100
00000000
00010000
00001000
00010000
00000000
,
00001000
00000000
01000000
00000000
,
00100000
10000000
00100000
00000000
01000000
00000000
00001000
00000000
,
00010000
00001000
00010000
00000000
00000010
00000000
00001000
00000000
,
00000001
00000001
00000100
00000010
,
00010000
00010000
00001000
00001000
,
01000000
00000000
00000000
00000000
,
00010000
10000000
00010000
00000000
01000000
00100000
01000000
00000000
,
00001000
00000000
00010000
00000000
,
00001000
00000000
00000000
00000000
,
00000010
00000001
00000100
00000010
,
00010000
00000000
00001000
00000000
01000000
00010000
10000000
00000000
,
01000000
00100000
00001000
00010000
,
00000100
00000000
00000010
00000000
00000001
00001000
00000010
00000000
,
00000100
00000010
00010000
00001000
,
01000000
00000000
00010000
00000000
10000000
01000000
00100000
00000000
,
00001000
00001000
00010000
00010000
,
00000010
00001000
00000001
00001000
,
00000001
00001000
00000100
00001000
,
00000100
00000000
00010000
00000000
00001000
00010000
00001000
00000000
,
00100000
00000000
00010000
00000000
10000000
01000000
10000000
00000000
,
00100000
00000000
01000000
00000000
00001000
00010000
00001000
00000000
,
00010000
00000000
00000100
00000000
,
00000010
00000001
00000010
00000000
00000100
00000000
00010000
00000000
,
00001000
00010000
00001000
00000000
00100000
00000000
00010000
00000000
,
10000000
10000000
01000000
00100000
,
00001000
00001000
00010000
00010000
,
00000100
00000000
00000000
00000000
,
00001000
00000001
00001000
00000000
00000100
00000010
00000100
00000000
,
00010000
00000000
00001000
00000000
,
00010000
00000000
00000000
00000000
,
00100000
10000000
01000000
00100000
,
00001000
00000000
00010000
00000000
00000100
00001000
00000001
00000000
,
00000100
00000010
00010000
00001000
,
01000000
00000000
00100000
00000000
10000000
00010000
00100000
00000000
,
01000000
00100000
00001000
00010000
,
00000100
00000000
00001000
00000000
00000001
00000100
00000010
00000000
,
00010000
00010000
00001000
00001000
,
00100000
00010000
10000000
00010000
,
10000000
00100000
01000000
00001000
,
00010000
00000000
00000100
00000000
00000010
00000100
00001000
00000000
,
00000010
00001000
00000100
00010000
,
00001000
00000000
01000000
00000000
00100000
10000000
00010000
00000000
,
01000000
00001000
00010000
00000010
,
00000100
00000000
00000010
00000000
00001000
00000001
00000100
00000000
,
00000010
00001000
00000100
00010000
,
00001000
00000000
00100000
00000000
00010000
01000000
00100000
00000000
,
10000000
01000000
00100000
00000000
00010000
01000000
00100000
00000000
,
10010000
00000000
00000000
00000000
,
00000000
00000000
00000000
00000000
;

//---------------dance-single - ----------------
#NOTEDATA:;
#CHARTNAME:;
#STEPSTYPE:dance-single;
#DESCRIPTION:;
#CHARTSTYLE:;
#DIFFICULTY:Challenge;
#METER:14;
#RADARVALUES:0.563161,0.802476,0.294329,0.237968,0.541690,1259.000000,1165.000000,94.000000,76.000000,0.000000,0.000000,0.000000,0.000000,0.000000,0.563161,0.802476,0.294329,0.237968,0.541690,1259.000000,1165.000000,94.000000,76.000000,0.000000,0.000000,0.000000,0.000000,0.000000;
#CREDIT:kater15;
#DISPLAYBPM:70.000000:139.000000;
#NOTES:
// measure 0
0000
0000
0000
0000
,  // measure 1
0000
0000
0000
0000
,  // measure 2
0000
0000
0000
0000
,  // measure 3
0000
0000
0000
0000
,  // measure 4
0000
0000
0000
0000
,  // measure 5
1000
0100
0010
0001
0000
0000
1100
0000
,  // measure 6
1000
0100
1000
0000
0000
0000
0000
0000
,  // measure 7
0001
0010
0100
1000
0000
0000
0010
0000
,  // measure 8
1001
0000
0000
0000
,  // measure 9
0001
0000
0001
0000
0001
1000
0001
0000
,  // measure 10
1000
0000
1000
0000
1000
0001
1000
0000
,  // measure 11
0200
0000
0010
0310
0000
0011
0000
2020
,  // measure 12
0000
0000
0000
0000
3030
0000
0100
0010
,  // measure 13
0100
0000
0001
0001
0000
2000
0000
0010
,  // measure 14
0000
0100
0000
0001
0000
3010
0000
0100
,  // measure 15
0010
0100
0000
0000
0000
0100
0100
0100
,  // measure 16
2002
0000
0000
0000
3003
0000
1000
0100
,  // measure 17
1000
0010
0002
0000
0003
0000
1000
0100
,  // measure 18
0010
0010
0000
1001
0000
0010
0010
1000
,  // measure 19
0200
0000
0300
0000
,  // measure 20
0020
0000
0030
0000
,  // measure 21
0010
0000
0010
0000
0010
0100
0010
0000
,  // measure 22
0100
0000
0100
0000
0100
0010
0100
0000
,  // measure 23
0002
0000
1000
1003
0000
1010
0000
2200
,  // measure 24
0000
0000
0000
0000
3300
0000
0001
1000
,  // measure 25
0001
0000
0010
0010
0000
0200
0000
1000
,  // measure 26
0000
0001
0000
0010
0000
1300
0000
0001
,  // measure 27
1000
0001
0000
0000
0000
0001
0001
0001
,  // measure 28
0220
0000
0000
0000
0330
0000
0100
0001
,  // measure 29
0100
1000
0020
0000
0030
0000
0100
0001
,  // measure 30
1000
1000
0000
0110
0000
1000
1000
0100
,  // measure 31
0002
0000
0003
0000
,  // measure 32
2000
0000
3000
0000
,  // measure 33
1100
0000
0010
0001
0000
1000
0001
0000
0100
0010
0000
1000
0001
0000
0010
0000
,  // measure 34
1010
0000
0100
0001
0000
0010
1000
0000
0100
1000
0000
0010
0001
0000
0100
0000
,  // measure 35
0110
0000
1000
0100
0000
1000
0001
0000
0010
0001
0000
0100
1000
0000
0010
0000
,  // measure 36
0011
0000
0100
1000
0000
0001
0010
0000
0001
1000
0000
0100
0010
0000
0010
0000
,  // measure 37
0101
0000
1000
0010
0000
0100
0010
0000
0100
0001
0000
0100
0010
0000
1000
0000
,  // measure 38
1001
0000
0001
0010
0000
1000
0001
0000
0010
0100
0000
0001
0010
0000
0001
0000
,  // measure 39
1100
0000
0010
0100
0000
0001
1000
0000
0010
0100
0000
0001
1000
0000
0100
0000
,  // measure 40
0002
0000
0003
0000
,  // measure 41
0011
0000
0100
1000
0000
0001
1000
0000
0010
0100
0000
0001
1000
0000
0100
0000
,  // measure 42
0101
0000
0010
1000
0000
0100
0001
0000
0010
0001
0000
0100
1000
0000
0010
0000
,  // measure 43
0110
0000
0001
0010
0000
0001
1000
0000
0100
1000
0000
0010
0001
0000
0100
0000
,  // measure 44
1100
0000
0010
0001
0000
1000
0100
0000
1000
0001
0000
0010
0100
0000
0100
0000
,  // measure 45
1010
0000
0001
0100
0000
0010
0100
0000
0010
1000
0000
0010
0100
0000
0001
0000
,  // measure 46
1001
0000
1000
0100
0000
0001
1000
0000
0100
0010
0000
1000
0100
0000
1000
0000
,  // measure 47
0011
0000
0100
0010
0000
1000
0001
0000
0100
0010
0000
1000
0001
0000
0010
0000
,  // measure 48
2000
0000
3000
0000
,  // measure 49
0002
0000
0000
0000
0003
0000
0000
2100
,  // measure 50
0000
3001
0001
0100
0010
0000
1100
0101
,  // measure 51
0010
0100
0020
0000
0000
0000
0000
0000
0000
0000
0000
0000
0030
0000
0000
0000
,  // measure 52
1000
0001
0010
0001
0100
0000
1000
0000
0010
0000
0010
0000
0000
0000
0202
0000
,  // measure 53
0000
0000
0303
0000
0000
0000
0100
0002
,  // measure 54
0000
0000
0100
0000
0000
0100
0000
0000
0103
0000
0000
0000
2000
0000
0010
0000
,  // measure 55
0000
0010
0000
0000
0010
0000
0000
0000
3000
0000
0000
0000
0000
0000
0100
0000
,  // measure 56
0001
1000
0000
1100
0000
0010
0001
1000
,  // measure 57
0020
0000
0030
0000
0000
0000
1000
0001
,  // measure 58
0011
0110
2200
0000
3300
0000
0010
0001
,  // measure 59
0100
0100
0000
0110
0000
0001
1000
0100
,  // measure 60
0020
0000
0030
0000
,  // measure 61
0200
0000
0300
0000
,  // measure 62
0101
0000
1000
0010
0000
0100
0010
0000
0001
1000
0000
0100
0010
0000
1000
0000
,  // measure 63
1100
0000
0001
0010
0000
1000
0100
0000
0001
0100
0000
1000
0010
0000
0001
0000
,  // measure 64
1001
0000
0100
0001
0000
0100
0010
0000
1000
0010
0000
0001
0100
0000
1000
0000
,  // measure 65
1010
0000
0001
0100
0000
0010
1000
0000
0010
0100
0000
0001
1000
0000
1000
0000
,  // measure 66
0011
0000
0100
1000
0000
0001
1000
0000
0001
0010
0000
0001
1000
0000
0100
0000
,  // measure 67
0110
0000
0010
1000
0000
0100
0010
0000
1000
0001
0000
0010
1000
0000
0010
0000
,  // measure 68
0101
0000
1000
0001
0000
0010
0100
0000
1000
0001
0000
0010
0100
0000
0001
0000
,  // measure 69
0020
0000
0030
0000
,  // measure 70
1010
0000
0001
0100
0000
0010
0100
0000
1000
0001
0000
0010
0100
0000
0001
0000
,  // measure 71
0011
0000
1000
0100
0000
0001
0010
0000
1000
0010
0000
0001
0100
0000
1000
0000
,  // measure 72
1001
0000
0010
1000
0000
0010
0100
0000
0001
0100
0000
1000
0010
0000
0001
0000
,  // measure 73
0101
0000
1000
0010
0000
0100
0001
0000
0100
0010
0000
1000
0001
0000
0001
0000
,  // measure 74
1100
0000
0010
0001
0000
1000
0001
0000
1000
0100
0000
1000
0001
0000
0010
0000
,  // measure 75
0110
0000
0100
0001
0000
0010
0100
0000
0001
1000
0000
0100
0001
0000
0100
0000
,  // measure 76
1010
0000
0001
1000
0000
0100
0010
0000
0001
1000
0000
0100
0010
0000
1000
0000
,  // measure 77
0200
0000
0300
0000
,  // measure 78
0020
0000
0030
0000
,  // measure 79
1000
0010
0000
0100
0010
0000
0001
1000
0000
0100
0010
0000
1000
0000
1000
0000
,  // measure 80
0001
0010
0000
1000
0100
0000
0001
0100
0000
1000
0010
0000
0001
0000
0001
0000
,  // measure 81
0100
0001
0000
0100
0010
0000
1000
0010
0000
0001
0100
0000
1000
0000
1000
0000
,  // measure 82
0001
0100
0000
0010
1000
0000
0010
0100
0000
0001
1000
0000
1000
0000
0010
0000
,  // measure 83
0100
1000
0000
0001
1000
0000
0001
0010
0000
0001
1000
0000
0100
0000
0010
0000
,  // measure 84
0010
1000
0000
0100
0010
0000
1000
0001
0000
0010
1000
0000
0010
0000
0001
0000
,  // measure 85
1000
0001
0000
0010
0100
0000
1000
0001
0000
0010
0100
0000
0001
0000
0010
0000
,  // measure 86
0200
0000
0300
0000
,  // measure 87
0001
0100
0000
0010
0100
0000
1000
0001
0000
0010
0100
0000
0001
0000
0001
0000
,  // measure 88
1000
0100
0000
0001
0010
0000
1000
0010
0000
0001
0100
0000
1000
0000
1000
0000
,  // measure 89
0010
1000
0000
0010
0100
0000
0001
0100
0000
1000
0010
0000
0001
0000
0001
0000
,  // measure 90
1000
0010
0000
0100
0001
0000
0100
0010
0000
1000
0001
0000
0001
0000
0100
0000
,  // measure 91
0010
0001
0000
1000
0001
0000
1000
0100
0000
1000
0001
0000
0010
0000
0010
0000
,  // measure 92
0100
0001
0000
0010
0100
0000
0001
1000
0000
0100
0001
0000
0100
0000
0010
0000
,  // measure 93
0001
1000
0000
0100
0010
0000
0001
1000
0000
0100
0010
0000
1000
0000
0001
0000
,  // measure 94
0020
0000
0030
0000
,  // measure 95
0100
1000
0000
0001
1000
0000
0010
0100
0000
0001
1000
0000
0100
0000
0100
0000
,  // measure 96
0010
1000
0000
0100
0001
0000
0010
0001
0000
0100
1000
0000
0010
0000
0010
0000
,  // measure 97
0001
0010
0000
0001
1000
0000
0100
1000
0000
0010
0001
0000
0100
0000
0100
0000
,  // measure 98
0010
0001
0000
1000
0100
0000
1000
0001
0000
0010
0100
0000
0100
0000
1000
0000
,  // measure 99
0001
0100
0000
0010
0100
0000
0010
1000
0000
0010
0100
0000
0001
0000
1000
0000
,  // measure 100
1000
0100
0000
0001
1000
0000
0100
0010
0000
1000
0100
0000
1000
0000
0010
0000
,  // measure 101
0100
0010
0000
1000
0001
0000
0100
0010
0000
1000
0001
0000
0010
0000
1000
0000
,  // measure 102
0002
0000
0003
0010
,  // measure 103
0220
0000
0000
0000
,  // measure 104
0000
0000
0000
0330
0002
0003
2000
3000
,  // measure 105
0020
0000
0000
0000
0100
0000
0030
0000
1000
0001
0100
0010
2000
0000
3000
0000
,  // measure 106
0002
0000
0003
0000
0200
0000
0300
0000
0000
1001
0000
0000
1001
0000
0000
0110
,  // measure 107
0000
0110
0000
0000
0002
0003
2000
3001
,  // measure 108
0020
0000
0030
0000
2000
0000
3000
0000
0001
0100
2000
0000
3010
0000
0010
0000
,  // measure 109
0001
0000
0100
0000
0010
0000
1000
0100
0020
0000
0000
0000
0030
0000
0000
0000
,  // measure 110
0200
0000
0300
0000
1000
0000
0011
1010
,  // measure 111
0000
1000
0100
0010
0001
0000
1100
1010
,  // measure 112
0000
0100
0010
1000
0001
0000
0011
0101
,  // measure 113
0000
0000
0100
0000
0010
0000
1000
0000
0001
0000
0000
0100
0010
0000
1000
0000
,  // measure 114
0100
0000
0010
0001
1000
0000
0001
0000
0010
0000
0000
0000
1010
0000
0110
0000
,  // measure 115
0000
1000
0001
0100
0010
0000
1001
1100
,  // measure 116
0000
0000
0100
0000
0001
1000
0010
0000
0100
0000
0000
0000
1001
0000
0011
0000
,  // measure 117
0000
1000
0100
1000
0010
0000
0110
1010
,  // measure 118
0000
0000
0001
0000
1000
0010
0100
0001
1000
0000
0100
0010
0000
0100
0010
0000
,  // measure 119
0100
0001
0000
1000
0100
0000
0010
0000
0001
0000
0100
0010
0000
1000
0010
0000
,  // measure 120
0100
0001
0000
0100
0010
0000
1000
0000
0001
0000
0100
0010
0000
0100
0001
0000
,  // measure 121
0010
0100
0000
1000
0010
0000
1000
0000
0001
0000
1000
0100
0000
0010
1000
0000
,  // measure 122
0100
0010
0000
0001
1000
0000
0001
0000
0010
0000
0100
0010
0000
1000
0010
0000
,  // measure 123
0100
0010
0000
1000
0001
0000
0100
0000
0010
0000
0100
0001
0000
1000
0100
0000
,  // measure 124
0100
0010
0000
0001
1000
0000
0010
0000
0100
0000
0010
1000
0000
0001
0100
0000
,  // measure 125
0010
1000
0000
0010
0100
0000
1000
0000
0020
0000
0000
0000
0030
0000
0000
0000
,  // measure 126
0011
0000
0100
1000
0000
0001
1000
0000
0010
0100
0000
0001
1000
0000
0100
0000
,  // measure 127
0101
0000
0010
1000
0000
0100
0001
0000
0010
0001
0000
0100
1000
0000
0010
0000
,  // measure 128
0110
0000
0001
0010
0000
0001
1000
0000
0100
1000
0000
0010
0001
0000
0100
0000
,  // measure 129
1100
0000
0010
0001
0000
1000
0100
0000
1000
0001
0000
0010
0100
0000
0100
0000
,  // measure 130
1010
0000
0001
0100
0000
0010
0100
0000
0010
1000
0000
0010
0100
0000
0001
0000
,  // measure 131
1001
0000
1000
0100
0000
0001
1000
0000
0100
0010
0000
1000
0100
0000
1000
0000
,  // measure 132
0011
0000
0100
0010
0000
1000
0001
0000
0100
0010
0000
1000
0001
0000
0010
0000
,  // measure 133
2000
0000
3000
0000
,  // measure 134
0002
0000
0003
0000
,  // measure 135
0200
0000
0302
0000
,  // measure 136
0023
0000
2030
3002
,  // measure 137
0203
0000
2300
0000
,  // measure 138
3020
0000
0032
2003
,  // measure 139
3100
0000
0001
0000
0010
0000
0000
0000
1000
0000
0100
0000
0001
1000
0020
0000
,  // measure 140
0000
0100
0000
0001
0030
1000
0100
0000
,  // measure 141
0010
0001
0010
0100
0000
1000
0001
0100
,  // measure 142
0020
0000
0000
0030
,  // measure 143
0200
0000
0000
0300
,  // measure 144
1000
0001
0100
0001
0010
0001
1000
0001
0100
0001
0010
0001
1000
0000
0100
0000
,  // measure 145
0001
1000
0010
1000
0100
1000
0001
1000
0010
1000
0100
1000
0001
0000
0010
0000
,  // measure 146
0100
0010
0001
0010
1000
0010
0100
0010
0001
0010
1000
0010
0100
0000
0001
0000
,  // measure 147
0010
0100
1000
0100
0001
0100
0010
0100
1000
0100
0001
0100
0010
0000
1000
0000
,  // measure 148
0100
0000
0001
0000
0010
0000
0000
0000
1000
0000
0100
0000
0001
1000
0020
0000
,  // measure 149
0000
0100
0000
0001
0030
1000
0100
0000
,  // measure 150
0010
0001
0010
0100
0000
1000
0001
0100
,  // measure 151
0020
0000
0000
0030
,  // measure 152
0200
0000
0000
0300
,  // measure 153
1001
0000
0100
0010
0000
0001
1000
0000
0100
0010
0000
0001
1000
0000
0100
0000
,  // measure 154
0011
0000
0001
1000
0000
0100
1000
0000
0010
0001
0000
0100
0001
0000
0010
0000
,  // measure 155
2100
0001
0001
3010
,  // measure 156
1100
0000
1000
0001
0000
0010
0001
0000
0100
1000
0000
0010
1000
0000
0100
0000
,  // measure 157
0012
1000
1000
0103
,  // measure 158
0110
0000
0001
1000
0000
0010
0100
0000
0001
1000
0000
0010
0100
0000
0001
0000
,  // measure 159
1010
0000
0010
0100
0000
0001
0100
0000
1000
0010
0000
0001
0010
0000
1000
0000
,  // measure 160
0210
0010
0010
0301
,  // measure 161
1001
0000
0010
0100
0000
1000
0001
0000
0010
0100
0000
1000
0001
0000
0010
0000
,  // measure 162
1100
0000
1000
0001
0000
0010
0001
0000
0100
1000
0000
0010
1000
0000
0100
0000
,  // measure 163
1100
0000
0001
1000
0000
0010
0100
0000
0100
0010
0000
1000
1000
0000
1000
0000
,  // measure 164
0110
0000
0010
1000
0000
0010
0001
0000
0100
0010
0000
1000
0100
0000
0010
0000
,  // measure 165
1100
0000
0010
0001
0000
1000
0100
0000
0010
0001
0000
1000
0100
0000
0010
0000
,  // measure 166
1001
0000
1000
0100
0000
0010
0100
0000
0001
1000
0000
0010
1000
0000
0001
0000
,  // measure 167
1001
0000
0010
0100
0000
1000
0001
0000
0010
0100
0000
1000
0001
0000
0010
0000
,  // measure 168
1100
0000
1000
0001
0000
0010
0001
0000
0100
1000
0000
0010
1000
0000
0100
0000
,  // measure 169
0001
0010
1000
0100
,  // measure 170
0001
0010
1000
0100
,  // measure 171
0001
0010
0100
1000
,  // measure 172
0001
0010
0100
1000
,  // measure 173
0100
1001
0010
1001
,  // measure 174
0100
1001
0010
1001
,  // measure 175
0200
0000
0000
0000
,  // measure 176
0000
0000
0300
0110
;
