#TITLE:i watched u run away;
#SUBTITLE:(slowed);
#ARTIST:vorsa;
#TITLETRANSLIT:;
#SUBTITLETRANSLIT:;
#ARTISTTRANSLIT:;
#GENRE:;
#CREDIT:jenro;
#MUSIC:i watched u run away slowed [jenro].ogg;
#BANNER:i watched u run away slowed [jenro]-bn.png;
#BACKGROUND:i watched u run away slowed [jenro]-bg.png;
#CDTITLE:;
#SAMPLESTART:68.445;
#SAMPLELENGTH:13.122;
#SELECTABLE:YES;
#OFFSET:-0.445;
#BPMS:0.000=141.266;
#STOPS:77.000=0.212
,80.500=0.212
,108.000=0.212
,111.500=0.212
,124.000=0.425
;
#BGCHANGES:-0.445=i watched u run away slowed [jenro].mp4=1.000=0=0=0=StretchNoLoop====,
99999.000=-nosongbg-=1.000=0=0=0=StretchNoLoop====
;
#FGCHANGES:;

//--------------- dance-single - jenro-2024 ----------------
#NOTES:
     dance-single:
     jenro-2024:
     Beginner:
     3:
     0,0,0,0,0:
0000
0000
0000
0000
,
0000
0000
0000
0000
,
0000
0000
0000
0000
,
0000
0000
0000
0000
,
0000
0000
1000
0000
,
0000
0000
0000
0000
,
0000
0000
0100
0000
,
0000
0000
0000
0000
,
0000
0000
0010
0000
,
0010
0000
0100
0000
,
0001
0000
0010
0000
,
0010
0000
0100
0000
,
1000
0000
0001
0000
,
1000
0000
0100
0000
,
1000
0000
1000
0000
,
0001
0000
0100
0000
,
0001
0000
0010
0000
,
0010
0000
0100
0000
,
0100
0000
0001
0000
,
0010
0000
0000
0001
0000
0000
0000
0100
,
0000
1000
0000
0010
,
0000
1000
0000
0100
,
0000
0001
0000
1000
,
0000
1000
0000
0001
,
0000
0100
0000
0100
,
0000
1000
0000
0001
,
0000
0100
0000
0100
,
0000
0001
0000
0000
0000
1000
0000
0000
,
0001
0000
1000
0000
,
0010
0000
0010
0000
,
1000
0000
0001
0000
,
0110
0000
0000
0100
,
0000
1000
0000
0100
,
0000
0100
0000
0100
,
0000
0001
0000
0100
,
0000
0100
0100
0100
,
0000
1000
0000
0001
,
0000
0010
0000
0100
,
0000
0001
0000
1000
,
0000
0010
0000
0100
,
0000
0010
0000
0001
,
0000
1000
0000
0100
,
0000
0010
0000
1000
,
0000
0001
0000
0100
,
0000
0001
0000
1000
,
0000
0100
0000
0001
,
0000
0100
0000
1000
,
0000
0001
0000
0001
,
0001
0001
0000
0100
,
0100
0100
0000
1000
,
1000
1000
0000
0010
,
0010
0010
0000
1000
,
1000
0001
0000
0100
,
0100
0001
0000
0001
,
0001
0010
0000
0010
,
0010
0100
0000
0100
,
0100
0100
0100
0001
,
0000
0101
0000
1000
,
1000
1000
1000
0001
,
0000
1100
0000
0010
,
0010
0100
0100
0001
,
0001
1000
1000
0010
,
0010
0010
0010
0010
,
0010
0010
0010
0100
;

//--------------- dance-single - jenro-2024 ----------------
#NOTES:
     dance-single:
     jenro-2024:
     Easy:
     5:
     0,0,0,0,0:
0000
0000
0000
0000
,
0000
0000
0000
0000
,
0000
0000
0000
0000
,
0000
0000
0000
0000
,
0000
0000
0100
1000
,
0100
1000
0001
0001
,
0010
0100
0100
0001
,
0100
0001
1000
1000
,
0010
0100
0001
1000
,
0010
1000
0100
1000
,
1000
1000
1000
0001
,
0010
0001
0100
0001
,
0001
0001
0010
0001
,
0100
0010
1000
0001
,
0100
0001
0010
1000
,
0100
0010
0001
1000
,
0100
1000
0010
1000
,
0001
0100
0010
0001
,
1000
0100
1000
1000
,
0001
0000
0001
0010
0000
0010
0000
0100
,
0000
0100
1000
0000
1000
0000
0001
0000
,
0100
0001
0001
1000
,
0100
0010
0001
1000
,
0100
0010
0001
1000
,
0001
1000
0100
0001
,
0100
0001
0100
1000
,
0100
1000
0010
0001
,
0100
0001
0000
0010
0000
1000
0000
0100
,
1000
0001
0010
0100
,
0010
0001
0100
1000
,
0001
1000
0001
1000
,
0001
0000
0000
0100
,
0010
1000
0001
0100
,
2000
0001
3100
0100
,
0010
0001
1000
0100
,
0001
1001
0100
0010
,
1000
0010
1000
0010
,
2000
0100
3001
0010
,
0001
0010
0001
0010
,
0002
0100
1003
0001
,
0100
0010
1000
0001
,
1100
1000
0100
1000
,
0100
0010
0001
1000
,
0101
0001
0100
0001
,
1000
0001
1000
0010
,
2000
0001
3100
0001
,
0010
0200
1000
0301
,
0000
0010
0000
0110
,
0100
1000
0001
0100
,
2000
3002
1003
0010
,
0100
0001
1000
0100
,
0002
2003
3001
0010
,
0100
1000
1000
0001
,
0100
0200
0310
0010
,
0100
0001
0001
1000
,
0100
0200
0310
0002
,
1000
0103
0001
0002
,
1000
0103
0001
2000
,
0001
3100
1000
2000
,
0001
3100
1000
0010
,
0001
1000
0100
0010
,
1000
0001
0100
0010
,
0100
0010
0100
1001
,
1001
0100
0200
0310
;

//--------------- dance-single - jenro-2024 ----------------
#NOTES:
     dance-single:
     jenro-2024:
     Medium:
     9:
     0,0,0,0,0:
0000
0000
0000
0000
,
0000
0000
0000
0000
,
0000
0000
0000
0000
,
0000
0000
0000
0000
,
0000
0000
0010
1000
,
0001
0100
0010
0100
,
0001
0100
0010
0001
,
1000
0100
0010
0100
,
1000
0000
1100
0000
1000
0001
1000
0000
,
0100
0000
1000
0001
0100
0000
0010
0000
,
0001
0000
0100
0000
0001
1000
0001
0000
,
0100
0000
0001
1000
0100
0000
0010
0000
,
1000
0000
0100
0000
0010
1000
0010
0000
,
0100
0000
0001
0010
0000
0000
0100
0000
,
1000
0000
0001
0000
0010
0001
0010
0000
,
0100
0000
1000
0010
0000
0000
0100
0000
,
0000
0001
0000
1000
0000
0100
0010
0000
,
1000
0000
0001
0000
0000
0010
0100
0000
,
0001
0000
1000
0000
0000
0100
1000
0000
,
0001
0000
0100
0000
0100
0001
0000
1000
,
0000
0100
0000
0010
0001
0000
1000
0000
,
0100
0000
0000
0010
1000
0000
0001
0000
,
0100
0010
0010
1000
,
1000
0001
0001
0100
,
0100
0000
0001
0010
0100
0000
1000
0000
,
0100
0000
1000
0010
0100
0000
0001
0000
,
0100
0000
0001
1000
0001
0000
0001
1000
,
0001
1000
0001
1000
0000
1000
0001
1000
,
0100
0100
0001
0001
,
1000
1000
0010
0010
,
0100
0001
1000
0010
,
0001
0000
1000
0000
0000
0000
0001
0100
,
0001
0000
0001
0010
0000
0100
0000
1000
,
0100
0000
1000
0000
0010
0000
1000
0100
,
1000
0000
1000
0010
0000
0100
0000
0001
,
0100
0000
0001
0010
0001
0000
1000
0010
,
0100
0000
0100
0001
0100
0000
0010
1000
,
0100
0000
1000
0100
1000
0000
0001
0010
,
0100
0000
0100
1000
0100
0000
0010
0001
,
0100
0000
0001
0100
0001
0000
1000
0001
,
1000
0000
1001
0000
0100
0010
1000
0000
,
0100
0010
0100
0000
1000
0000
0001
1000
,
0001
0000
1001
0000
0100
0010
0001
0000
,
0100
0010
0100
0000
0001
0000
1000
0100
,
1000
0000
1000
0010
1000
0000
1000
0001
,
1000
0000
0002
0000
0103
0000
0001
0100
,
0001
0000
0001
0010
0001
0000
0002
0000
,
0000
0000
1003
0000
0000
0000
1000
0001
,
0000
0001
0010
0000
0100
1000
0000
0000
,
0010
1000
0010
0000
0101
0000
0001
1000
,
0000
1000
0010
0000
0100
0001
0000
0000
,
0010
0001
0010
0000
1100
0000
0010
0001
,
0000
0001
1000
0001
0000
1000
0000
0000
,
0100
1000
0010
0000
0110
0000
0010
1000
,
0000
1000
0001
1000
0000
0001
0000
0000
,
0100
0001
0010
0000
0110
0000
1000
0001
,
1000
0010
1000
0000
1100
0000
0001
1000
,
0001
0010
0001
0000
0101
0000
0100
0010
,
0100
0001
1000
1000
1000
0000
0100
0010
,
0100
1000
0001
0000
1001
0000
0010
1000
,
0100
1000
0010
1000
0010
0000
0010
0001
,
0100
0001
0010
0001
0010
0000
0100
0000
,
1000
0001
0100
0110
,
0010
0100
0010
0010
;

//--------------- dance-single - jenro-2024 ----------------
#NOTES:
     dance-single:
     jenro-2024:
     Hard:
     10:
     0,0,0,0,0:
0000
0000
0000
0000
,
0000
0000
0000
0000
,
0000
0000
0000
0000
,
0000
0000
0000
0000
,
0000
0000
1000
1000
,
0100
1000
1000
0100
,
0010
0001
0001
0001
,
0100
0001
0001
0100
,
0010
0000
1000
0001
1000
0000
0010
0000
1000
0000
0100
0000
0010
0000
0100
0000
,
1000
0000
1000
0100
2000
0000
3001
0000
,
0010
0000
0100
0000
0001
0100
0010
0100
,
0001
0000
0001
0100
0002
0000
1003
0000
,
0010
0000
0100
0000
0010
1000
0010
0100
,
0010
0000
0100
0001
0200
0000
0310
0000
,
1000
0000
0001
0000
0010
0001
0010
0100
,
0010
0000
0100
1000
0200
0000
0310
0000
,
1001
0000
0110
0000
1001
0000
0100
0001
,
1000
0000
0010
0000
0100
0000
0001
1000
,
0100
0000
0010
0000
0100
0000
0010
0001
,
0100
0000
0010
0100
0000
0010
1000
0100
,
0000
0010
0100
1000
0100
0010
0001
0000
,
0001
0000
0100
0001
0100
0010
1000
0000
,
1000
0210
0010
0010
,
0010
0010
0010
0310
,
0100
0000
1000
0000
0001
0100
0010
0100
,
0001
0000
0100
0000
1000
0100
0010
0100
,
1000
0000
0010
0000
0001
1000
0010
1000
,
0001
0001
0000
1000
0001
0010
0001
1000
,
0100
0000
0010
0100
0010
0000
0001
0000
,
0100
0000
0010
0100
0010
0000
1000
0000
,
0001
0001
0100
0100
0010
0010
1000
1000
,
1000
0000
0200
0000
0000
0000
0310
0001
,
1000
0100
0010
0000
0000
0001
0000
0000
,
1000
0000
1000
0000
0100
0000
0010
1000
,
0001
0100
0010
0000
0000
1000
0000
0000
,
0001
0000
0000
0000
0001
1000
0001
0000
0100
0000
0001
0000
0100
0000
0010
0000
,
1000
0100
1000
0100
1000
0010
0000
0000
,
0100
0000
0001
0000
0010
0000
0100
0010
,
0100
1000
0001
1000
0001
0010
0000
0000
,
0001
0000
0200
0000
0000
0000
0310
1000
,
0001
0100
0010
0000
0000
1000
0000
0000
,
0001
0000
0001
0000
0100
0000
0010
1000
,
0001
0100
0010
0000
0000
0001
0000
0000
,
1000
0000
1001
0000
1000
0000
0100
0010
,
0001
0100
0001
0100
0001
0010
0000
0000
,
0100
0000
1000
0000
0010
0000
0100
0010
,
0100
0001
1000
0001
1000
0010
0010
0000
,
0000
0000
0110
0000
0000
0000
0001
1000
,
0001
0100
0010
0100
0001
0100
0000
0000
,
2010
0000
0001
0000
3100
0000
1000
0001
,
1000
0100
0010
0100
1000
0100
0000
0000
,
0012
0000
1000
0000
0103
0000
0001
1000
,
0001
0010
0100
0010
0001
0010
0000
0000
,
2100
0000
0001
0000
3010
0000
1000
0001
,
1000
0010
0100
0010
1000
0010
0100
0001
,
0100
0000
0000
0001
1000
0000
0000
0000
0110
0000
0000
0000
0001
0000
0010
0000
,
0001
1000
0100
0010
0100
1000
0010
0100
,
0010
0100
0001
0100
0001
0000
1000
0010
,
1000
0001
0100
0010
0100
0001
0010
0100
,
0010
0100
1000
0100
1000
0000
0001
0100
,
0001
1000
0010
0100
0010
1000
0100
0010
,
0100
0010
0001
0010
0001
0010
0100
0010
,
0100
1000
0100
1000
0100
0010
0110
0000
,
1001
0000
0000
0010
0100
0000
0000
0000
1001
0000
0000
0000
0001
0000
0000
0000
;
