#TITLE:Young;
#SUBTITLE:;
#ARTIST:The Chainsmokers;
#TITLETRANSLIT:;
#SUBTITLETRANSLIT:;
#ARTISTTRANSLIT:;
#GENRE:;
#CREDIT:;
#MUSIC:Young [jenro].ogg;
#BANNER:Young [jenro]-bn.jpg;
#BACKGROUND:Young [jenro]-bg.jpg;
#CDTITLE:cdtitle.png;
#SAMPLESTART:33.818;
#SAMPLELENGTH:18.641;
#SELECTABLE:YES;
#OFFSET:-1.197;
#BPMS:0.000=103.000;
#STOPS:;
#BGCHANGES:-1.197=Young [jenro].mp4=1.000=0=0=0=StretchNoLoop====,
99999.000=-nosongbg-=1.000=0=0=0=StretchNoLoop====
;
#FGCHANGES:;

//--------------- dance-single - jenro-2024 ----------------
#NOTES:
     dance-single:
     jenro-2024:
     Beginner:
     1:
     0,0,0,0,0:
0000
0000
0000
0000
,
0000
0000
0000
0000
,
0100
0000
0000
0000
,
0100
0000
0000
0000
,
0100
0000
0000
0000
,
1000
0000
0000
0000
,
0001
0000
0000
0000
,
0010
0000
0000
0000
,
0100
0000
0000
0000
,
0001
0000
0000
0000
,
1000
0000
1000
0000
,
1000
0000
0000
0000
,
0001
0000
0001
0000
,
0001
0000
0000
0000
,
0010
0000
0010
0000
,
0010
0000
0010
0000
,
0100
0000
0100
0000
,
0100
0000
0100
0000
,
1000
0000
1000
0000
,
0001
0000
0001
0000
,
0100
0000
0100
0000
,
0010
0000
0010
0000
,
1000
0000
0000
0000
,
0001
0000
0000
0000
,
0010
0000
0000
0000
,
0100
0000
0000
0000
,
1000
0000
0000
0000
,
0001
0000
0000
0000
,
0100
0000
0000
0000
,
0010
0000
0000
0000
,
0010
0000
0010
0000
,
1000
0000
1000
0000
,
0001
0000
0001
0000
,
0100
0000
0100
0000
,
0010
0000
0010
0000
,
0001
0000
0001
0000
,
1000
0000
1000
0000
,
0100
0000
0100
0000
,
0100
0000
0000
0000
;

//--------------- dance-single - jenro-2024 ----------------
#NOTES:
     dance-single:
     jenro-2024:
     Easy:
     2:
     0,0,0,0,0:
0000
0000
0000
0000
,
0000
0000
0000
0000
,
0100
0000
0000
0000
,
0100
0000
0000
0000
,
0100
0000
0000
0000
,
0001
0000
1000
0000
,
0001
0000
0000
0000
,
0100
0000
0001
0000
,
0010
0000
0100
0000
,
0010
0000
0001
0000
,
1000
1000
0000
0000
,
0010
0010
0000
0000
,
0001
0001
0000
0000
,
1000
0000
0001
0000
,
0010
0010
0010
0000
,
0100
0100
0100
0000
,
1000
1000
1000
0000
,
0001
0001
0001
0000
,
0100
0100
0100
0000
,
0010
0010
0010
0000
,
1000
1000
1000
0000
,
0001
0001
0001
0000
,
1000
0000
0000
0000
,
0010
0000
0000
0000
,
0001
0000
0000
0000
,
1000
0000
0001
0000
,
0010
0010
0100
0000
,
0001
0001
1000
0000
,
0100
0100
0010
0000
,
1000
1000
0001
0000
,
0010
0010
0010
0010
,
0100
0100
0100
0100
,
1000
1000
1000
1000
,
0001
0001
0001
0001
,
0100
0100
0100
0100
,
0010
0010
0010
0010
,
1000
1000
1000
1000
,
0001
0001
0001
0001
,
1000
0000
0000
0000
;

//--------------- dance-single - jenro-2024 ----------------
#NOTES:
     dance-single:
     jenro-2024:
     Medium:
     5:
     0,0,0,0,0:
0000
0000
0000
0000
,
0000
0000
0000
0000
,
0010
0001
0100
1000
,
0010
0001
0100
1000
,
0100
0001
0010
0001
,
0010
0001
0010
1000
,
0001
0001
1000
1000
,
0100
0000
0001
0100
0002
0000
0013
0000
,
0100
0000
1000
0100
2000
0000
3010
0000
,
0100
0000
0010
0100
0100
0010
0100
0000
,
0002
0103
0020
1030
,
0200
0010
0301
1000
,
0001
2000
3100
0002
,
0103
0000
0000
0000
0010
0010
0110
0000
,
1000
0001
0100
0010
0000
1000
0000
0100
,
0000
0001
0000
0010
0000
0001
0000
0100
,
0000
1000
0000
0010
0000
1000
0000
0100
,
0000
0001
0000
0100
0010
0010
0110
0000
,
1000
0000
0000
0100
0010
0001
0000
0010
,
0100
1000
0000
0001
0100
0010
0000
1000
,
0100
0010
0000
0001
1000
1000
0000
1000
,
0001
0001
0000
0010
0100
0010
0100
0010
,
0002
0103
2000
3100
,
0020
0100
1030
0001
,
0001
2000
3100
0002
,
0103
0000
0000
0000
0010
0010
0110
0000
,
1000
0001
0100
0000
0010
1000
0010
0000
,
0001
1000
0100
0000
0010
0001
0010
0000
,
0100
1000
0100
0000
0010
0001
0010
0000
,
1000
0010
1000
0000
0001
0100
0001
0000
,
2001
0000
3100
0010
0001
0100
0000
0010
,
1000
0100
0000
0001
1000
0010
0000
1000
,
0001
0010
0000
0001
0100
0100
0000
1000
,
0100
0100
0000
0010
1000
0010
0100
0001
,
0100
0000
1010
1000
0100
0001
0000
0001
,
0100
1000
0000
0010
1000
0010
0000
1000
,
0100
1000
0000
0010
0001
0010
0000
0001
,
0100
0001
0000
1000
0010
0100
0001
0100
,
2002
0000
0000
0000
,
3003
0000
0000
0000
;

//--------------- dance-single - jenro-2024 ----------------
#NOTES:
     dance-single:
     jenro-2024:
     Hard:
     7:
     0,0,0,0,0:
0000
0000
0000
0000
,
0000
0000
0000
0000
,
0010
1000
0001
0100
,
1000
0100
0001
0100
,
M01M
0001
1000
0100
,
100M
1000
0100
0000
M001
0001
0100
0000
,
0020
0130
0001
0002
,
1003
0000
1000
0100
1000
0001
0M01
0000
,
0011
0000
0001
0100
0001
1000
1M00
0000
,
1010
0000
0010
1000
0001
0100
0010
0100
,
0001
0010
0100
0010
0100
1000
0010
0100
,
0010
0100
0001
1000
0002
0000
0013
0000
,
0100
0000
1000
1000
20M0
0000
3001
0001
,
0M02
0003
M10M
M11M
,
1000
0001
0100
0010
1000
0100
1000
0100
,
1000
0001
0010
0100
0010
0001
0010
0001
,
0100
0001
0100
0001
0100
0010
0100
0010
,
1000
0010
1000
0010
2000
3020
0230
0302
,
1003
0001
0010
0100
1000
0010
1000
0010
,
1000
0001
0100
0010
0100
0001
0100
0001
,
0010
0001
0010
0001
0010
0100
0010
0100
,
1000
0100
1000
0100
2000
3200
0320
0032
,
2003
3100
0020
0031
,
0100
2000
3100
0002
,
0103
0000
0010
0100
0102
0000
0013
0100
,
2100
0000
3100
0000
0010
0100
2002
3003
,
10M0
0001
1000
1000
001M
0100
0001
0001
,
10M0
0100
1000
1000
010M
0010
0001
0001
,
M100
0010
0100
0100
M001
0010
0100
1000
,
2MM2
0000
3003
0010
0100
0010
1001
0000
,
0011
0101
1010
1100
,
1000
0001
0100
0010
1000
1001
1001
0001
,
0100
0010
0100
0010
1000
0001
0100
0010
,
0100
0001
1000
0100
0010
0001
1001
1001
,
1000
0010
0100
0001
1000
0100
0001
0100
,
0001
0100
1000
0100
1000
0010
0001
0010
,
0001
0010
1000
0001
1000
0001
0100
1000
,
0001
1000
0100
0001
1000
0001
0100
0010
,
0200
0000
0000
0000
,
0300
0000
0000
0000
;

//--------------- dance-single - jenro-2024 ----------------
#NOTES:
     dance-single:
     jenro-2024:
     Challenge:
     11:
     0,0,0,0,0:
0000
0000
0000
0000
,
0000
0000
0000
0000
,
M200
M302
M023
1030
,
1000
0001
0100
0010
0100
0001
1000
0010
0100
0010
1000
0001
,
0200
230M
302M
013M
,
0001
1000
0100
0010
0100
1000
0001
0010
0100
0010
0001
1000
,
01M0
210M
3002
0203
,
M31M
0000
0000
0000
0001
1000
0001
0100
0010
0000
1000
0000
2010
0000
0000
0000
,
310M
0000
0000
0000
0010
0000
0001
0010
0001
0000
1000
0000
10M2
0000
0000
0000
,
0103
0000
0000
0000
0010
1000
0001
1000
0100
0000
0010
0000
0002
0000
1003
0000
,
01M0
01M0
10M0
010M
010M
010M
10M0
01M0
,
00M1
0100
1000
0001
0001
1000
1000
0001
,
0100
0000
0001
0010
0100
1000
0001
0000
0100
0001
1000
0001
,
0200
0000
0000
0000
0300
0000
0010
1000
0001
0000
0100
0001
1000
0000
0000
0000
,
20MM
0100
3001
0002
0100
1003
0010
0020
,
0100
1030
0010
0020
0100
0031
0010
0020
,
0100
1030
0001
0002
1000
1003
0100
2000
,
0001
0000
3001
0000
0010
0000
1000
0010
0100
0000
0001
0010
0200
0000
0310
0000
,
M11M
0100
0001
2000
0100
3001
0001
0020
,
0100
1030
1000
0020
0001
0031
0100
0002
,
0010
1003
0100
2000
0010
3001
0100
0010
,
0100
0000
0110
0000
0100
0000
0001
1000
0100
0000
1000
0001
0100
0000
0010
0000
,
1M0M
0010
0100
0001
1000
0100
0010
0001
,
1000
0010
0100
0001
1000
1000
0001
1000
,
1000
0000
0100
0010
0001
1000
0100
0000
1000
0010
0100
0001
,
1000
0000
0000
0000
0000
0000
0100
0010
0001
0000
1000
0010
0100
0000
0000
0000
,
00M1
0100
10M1
1000
0M01
0010
0M11
0001
,
M100
0000
0010
0000
101M
0000
1000
0000
0M01
0000
1000
0000
00M1
1000
0100
1000
,
0001
0010
M110
0100
100M
0100
11M0
0001
,
01M1
0000
M000
0000
00M0
0000
1000
0001
0010
0000
0100
1000
0001
0000
0000
0000
,
110M
0000
M101
0010
100M
1000
1010
0100
,
M100
0001
1100
0010
0M10
0001
1100
1000
,
10M0
0001
0110
0001
0M01
1000
0110
1000
,
10M0
0000
0001
0000
0110
0000
0010
0001
0010
0000
0100
1000
0200
0000
1300
0000
,
01M1
0000
110M
0010
0M01
0001
0011
0100
,
01M0
1000
0101
0010
0M10
1000
0101
0001
,
00M1
1000
0110
1000
1M00
0001
0110
0001
,
00M1
0000
1000
0000
0110
0000
0010
1000
0010
0000
0100
0001
0200
0000
0301
0000
,
0010
0000
0000
0100
0000
1000
0000
0000
0100
0000
0000
0001
0000
0100
0000
0000
,
0010
0000
0000
0100
0000
0010
0000
0000
1000
0000
0000
0001
0000
1000
0000
0000
,
0001
0000
0000
0100
0000
0010
0000
0000
0000
0000
0000
0000
0000
0000
0000
0000
;
