#TITLE:Where Do We Go From Here?;
#SUBTITLE:;
#ARTIST:MYRNE & Manila Killa;
#TITLETRANSLIT:;
#SUBTITLETRANSLIT:;
#ARTISTTRANSLIT:;
#GENRE:Trap;
#CREDIT:jenro;
#MUSIC:Where Do We Go From Here [jenro].ogg;
#BANNER:Where Do We Go From Here [jenro]-bn.png;
#BACKGROUND:Where Do We Go From Here [jenro]-bg.png;
#CDTITLE:cdtitle.png;
#SAMPLESTART:73.575;
#SAMPLELENGTH:16.005;
#SELECTABLE:YES;
#OFFSET:-5.553;
#BPMS:0.000=119.962;
#STOPS:;
#DISPLAYBPM:120.000;
#BGCHANGES:-5.553=Where Do We Go From Here [jenro].avi=1.000=1=0=0=StretchNoLoop==CrossFade==,
99999.000=-nosongbg-=1.000=0=0=0=StretchNoLoop====
;
#FGCHANGES:;

//--------------- dance-single - jenro-2020 ----------------
#NOTES:
     dance-single:
     jenro-2020:
     Beginner:
     3:
     0,0,0,0,0:
0000
0000
0000
0000
,
0000
0000
0000
0000
,
0000
0000
0000
0000
,
0000
0000
0000
0000
,
0020
0030
0001
0100
,
0010
0000
0002
0003
,
2000
0000
3100
0000
,
0000
0000
0000
0000
,
0001
0000
0000
0000
,
1000
0000
0000
0000
,
0200
0300
1000
0010
,
0100
0000
0002
0003
,
2000
3000
0100
0000
,
0010
0000
0001
0000
,
0200
0000
0310
0000
,
2000
0000
3001
0000
,
0000
0000
0010
0001
,
0100
0000
0010
1000
,
0100
0000
0001
0100
,
0010
0000
1000
0000
,
0001
0000
0100
0000
,
0001
0001
0000
0000
,
1000
1000
0000
0000
,
0010
0010
0000
0000
,
0001
0001
0001
0001
,
0000
1000
0000
0010
,
1001
0000
0000
0100
0000
0000
0000
0010
,
0000
0000
0000
1000
0000
0000
0000
0000
,
1001
0000
0000
0100
0000
0000
0000
0010
,
0000
0000
0000
0001
0000
0000
0100
0000
,
1001
0000
0000
0001
0000
0000
0000
0100
,
0000
0000
0000
1000
0000
0000
0000
0000
,
1001
0000
0010
0100
,
0100
0000
0010
0100
,
0100
0000
0001
0100
,
0001
1000
0100
1000
,
0000
0000
0000
1000
0000
0000
0000
0100
,
0000
0000
0000
0001
0000
0000
0000
0000
,
1001
0000
1000
0100
,
1000
0001
0100
0001
,
0000
0000
0010
0100
,
0100
0000
0010
0100
,
0100
1000
0100
0100
,
0001
0100
0100
0100
,
0010
1000
0100
0100
,
0001
0001
0100
0100
,
0000
0000
0100
0100
,
0001
0100
0100
0100
,
0010
1000
0100
0100
,
0001
0001
0100
0100
,
2000
3000
0000
0000
;

//--------------- dance-single - jenro-2020 ----------------
#NOTES:
     dance-single:
     jenro-2020:
     Easy:
     4:
     0.172496,0.218797,0,0,0,131,131,0,0,0,0,0.172496,0.218797,0,0,0,131,131,0,0,0,0:
0000
0000
0000
0000
,
0000
0000
0000
0000
,
0000
0000
0000
0000
,
0000
0000
0000
0000
,
0100
0001
1000
0000
,
0100
1000
0001
0000
,
0010
0000
0100
0000
,
0001
0000
0100
0000
,
0010
0000
0100
0000
,
1000
0000
0100
0000
,
0001
0001
0010
0000
,
0010
0100
1000
0000
,
1000
1000
0100
0000
,
0100
0010
0001
0000
,
0100
0000
1000
0000
,
0001
0000
0010
0000
,
0001
0000
1000
0000
,
1000
0000
0001
0000
,
0001
0001
1000
1000
,
0001
0000
0001
0000
0020
0000
0000
1030
,
0000
0100
0001
0100
,
0001
0100
0010
1000
,
0000
1000
0001
0001
,
1000
0000
1000
0000
0020
0000
0000
1030
,
0000
0100
0100
0110
,
0000
0000
0000
0000
,
0010
0100
0010
0001
,
0010
0100
1000
0100
,
0001
1000
0001
0010
,
0001
0100
0001
1000
,
0010
0100
1000
0100
,
0001
0010
0001
0100
,
1000
0001
1000
0100
,
0110
0010
0001
0100
,
0110
0100
0010
1000
,
0010
0100
0001
0100
,
1000
0001
1000
0010
,
1000
0100
1000
0001
,
0010
0100
0001
0100
,
1000
0010
1000
0100
,
0001
1000
0001
0100
,
0110
0010
1000
0100
,
0110
0010
0010
0010
,
0001
0010
0010
0010
,
1000
0010
1001
0010
,
1001
0100
0100
0100
,
1000
0001
0010
1000
,
0010
0100
0001
0100
,
0001
1000
0100
0010
,
1000
0100
0010
0100
,
0001
0000
0000
0000
;

//--------------- dance-single - jenro-2020 ----------------
#NOTES:
     dance-single:
     jenro-2020:
     Medium:
     9:
     0.310757,0.437594,0.248869,0.018435,0,236,209,27,2,0,0,0.310757,0.437594,0.248869,0.018435,0,236,209,27,2,0,0:
0000
0000
0000
0000
,
0000
0000
0000
0000
,
0000
0000
0000
0000
,
0000
0000
0000
0000
,
1000
0000
0002
0023
,
0230
0000
0000
2300
0000
0000
0000
3020
,
0000
0000
0000
0230
0000
0000
0000
0000
,
0301
0000
0000
0001
0000
0000
0000
0000
,
1000
0000
0000
1000
0000
0000
0000
0000
,
0001
0000
0000
0001
0000
0000
0000
0000
,
0001
0000
0010
0000
0100
1000
0100
0000
,
1000
0000
0010
0000
0100
0000
0001
0100
,
0000
0000
0010
0000
0100
0001
0010
0000
,
1000
0000
1000
0010
0000
0000
1000
0000
,
0100
0001
0100
1000
,
0010
0001
0010
1000
,
0010
0000
0000
0001
1000
0001
0100
0001
,
0100
0000
0000
0010
1000
0010
0100
0010
,
0100
0001
0010
0100
,
0100
1000
0010
0100
,
0100
0001
0010
0001
,
0100
1000
0010
1001
,
0100
0010
0100
0000
0100
0001
0100
0000
,
0010
0100
0010
0000
1000
0100
1000
0000
,
0001
1000
0001
1000
0100
1000
0001
0100
,
0000
0010
1000
0010
0000
0000
1001
0000
,
0000
0100
0010
1000
0000
0100
0010
0001
,
0000
0001
1000
0100
0000
1000
0100
0100
,
0100
0000
0010
0100
0000
0010
0100
1000
,
0000
1000
0001
0100
0100
0001
1001
0000
,
0000
0100
0010
0001
0000
0100
0010
1000
,
0000
1000
0001
0100
0000
0001
0100
0100
,
0100
0000
0010
0100
0000
0010
0100
0001
,
0000
0001
1000
0100
0100
1000
1010
0000
,
0110
0000
0100
0010
1000
0001
0100
0000
,
1000
0000
1000
0001
0000
0100
0001
1000
,
0100
0000
0010
0100
0000
1000
0010
0100
,
0001
0000
0001
1000
0000
0010
0100
0001
,
0010
0000
0001
0010
0000
0100
1000
0001
,
0100
0000
0001
1000
0001
0000
1000
0000
,
1001
0010
0001
1000
0100
0010
0001
0100
,
0110
0000
1001
1000
0010
0100
0001
1000
,
1001
0001
0010
0100
,
0100
1000
0010
0100
,
0100
0000
0001
0000
0010
0001
0001
0100
,
0200
0000
0310
1000
0010
1000
1000
0001
,
0010
0100
0010
0000
0001
0100
0001
0000
,
0100
0010
0100
0000
1000
0100
1000
0000
,
0001
0000
0001
1000
1000
0000
0001
0000
,
0011
0000
1000
0001
0001
0000
1000
0000
,
1010
0000
0000
0000
;

//--------------- dance-single - jenro-2020 ----------------
#NOTES:
     dance-single:
     jenro-2020:
     Hard:
     11:
     0.435849,0.534837,0.387129,0.027652,0,331,289,42,3,0,0,0.435849,0.534837,0.387129,0.027652,0,331,289,42,3,0,0:
0000
0000
0000
0000
,
0000
0000
0000
0000
,
0000
0000
0000
0000
,
0000
0000
0000
0000
2000
0000
0000
3001
,
0000
0000
0000
0000
0100
0001
1000
0000
,
0100
0000
0010
0001
0010
0000
0100
1000
,
0020
0000
0000
0130
0000
0000
0000
0000
,
1000
0000
0000
1000
0000
0000
0000
0000
,
0002
0000
0003
0000
,
0200
0000
0300
0000
,
1000
0100
0010
0000
0001
0100
0010
0000
,
0001
1000
0100
0000
1000
0001
0100
0010
,
0000
0000
1010
0000
0100
0001
0010
0000
,
1000
0000
0001
0200
0000
0000
0310
0000
,
1000
0000
0000
1000
0000
0000
0000
0000
,
0002
0000
0003
0000
,
0100
0000
0000
1000
0001
0100
0010
1000
,
0100
0000
0000
0001
1000
0010
0100
0001
,
0100
0001
0001
1000
,
0010
0010
1000
0000
0001
0000
1000
0000
,
0100
1000
0001
1000
,
0010
0010
1000
0000
0001
0001
1000
0000
,
0100
0100
1000
0001
1000
0001
1001
0000
,
0010
1000
0010
1000
0001
1000
1001
0000
,
1000
0100
0010
0001
1000
0100
0010
0001
,
0000
0000
0001
0000
1000
0000
1001
0000
0000
0000
0000
0010
0001
0000
0100
0001
,
0100
0000
0000
0001
0010
0000
0100
0000
1000
0000
0001
0000
0100
0000
0000
0000
,
1001
0000
0000
1000
0010
0000
0100
0000
0001
0000
1000
0000
0010
0000
0100
0000
,
0110
0000
0000
0010
1000
0000
0100
0000
0010
0000
0001
0000
0011
0000
0000
0000
,
0001
0000
0000
0010
0001
0000
0100
0000
0010
0000
1000
0000
0001
0000
0000
0010
,
0100
0000
0000
0010
1000
0000
0010
0000
1000
0000
0001
0000
0101
0000
0000
0001
,
1000
0000
0000
0010
1000
0000
0010
0000
0100
0000
0100
0000
0001
0000
0100
0000
,
0110
0010
0100
0001
0000
0001
1000
0100
,
0000
0010
0100
1000
0000
1000
1001
0000
,
0110
0100
0010
1000
0001
0010
0100
1000
,
1000
0100
0010
0001
0010
0001
1000
0001
,
1000
1000
0002
0100
0100
0103
0020
0100
,
0100
0230
0010
0010
0310
0100
1001
0000
,
1000
0000
0000
0010
1000
0000
0100
0000
0010
0000
0001
0000
1000
0000
0000
0000
,
1100
0000
0000
0001
1000
0000
0100
0000
1000
0000
0001
0000
0010
0000
0000
0000
,
0011
0000
0000
0001
0100
0000
0010
0000
1000
0000
0100
0000
1000
0000
0000
0000
,
0101
0000
0000
1000
0010
0000
0010
0000
0100
0000
0010
0000
0100
0000
0001
0000
,
0011
0010
0100
0100
0000
1000
0000
0001
,
0000
0010
0000
0100
0000
1000
0000
0001
,
1000
0000
1000
0000
0000
0000
1001
0000
0001
0000
0000
1000
0001
0000
0000
0001
,
1000
0000
0000
0001
0010
0000
0001
0000
1000
0000
0100
0000
1100
0000
2200
0000
,
3300
0010
1000
0100
,
0001
0010
0100
0001
,
0001
0000
0000
0010
0001
0010
0001
0010
,
0100
0000
0000
0010
1000
0010
1000
0010
,
0100
0000
0000
0000
;
